<?xml version="1.0" standalone="no"?>
<!DOCTYPE svg PUBLIC "-//W3C//DTD SVG 1.1//EN" "http://www.w3.org/Graphics/SVG/1.1/DTD/svg11.dtd" >
<svg xmlns="http://www.w3.org/2000/svg" xmlns:xlink="http://www.w3.org/1999/xlink" version="1.1">
<metadata>
Created by FontForge 20201107 at Mon Oct  3 14:58:38 2016
 By 
Copyright (c) 2011 - 2012 Linotype Corp., www.linotype.com. All rights reserved. This font software may not be reproduced, modified, disclosed or transferred without the express written approval of Linotype Corp. 
</metadata>
<defs>
<font id="NeueHaasGroteskTextPro-Bold" horiz-adv-x="500" >
  <font-face 
    font-family="Neue Haas Grotesk Text Pro"
    font-weight="700"
    font-stretch="normal"
    units-per-em="1000"
    panose-1="2 11 8 4 2 2 2 2 2 4"
    ascent="780"
    descent="-220"
    x-height="532"
    cap-height="744"
    bbox="-274 -263 1374 997"
    underline-thickness="50"
    underline-position="-100"
    unicode-range="U+000D-FB04"
  />
<missing-glyph 
 />
    <glyph glyph-name="uniFB00" unicode="ff" horiz-adv-x="730" 
d="M435 430h-178v-430h-157v430h-80v102h80v39q0 49 15 80t47 50q32 27 84.5 34t118.5 0v-112q-29 1 -49.5 -0.5t-33.5 -8t-19 -19.5t-6 -35v-28h178v45q0 49 15 80t47 50q32 26 86 33.5t120 -0.5v-112q-30 1 -51 0t-34.5 -7.5t-19.5 -19.5t-6 -35v-34h111v-102h-111v-430
h-157v430z" />
    <glyph glyph-name="uniFB01" unicode="fi" horiz-adv-x="644" 
d="M20 532h80v45q0 49 15 80t47 50q32 26 86 33.5t120 -0.5v-112q-30 1 -51 0t-34.5 -7.5t-19.5 -19.5t-6 -35v-34h111v-102h-111v-430h-157v430h-80v102zM435 532h156v-532h-156v532zM434 744h158v-137h-158v137z" />
    <glyph glyph-name="uniFB02" unicode="fl" horiz-adv-x="647" 
d="M20 532h80v45q0 49 15 80t47 50q32 26 86 33.5t120 -0.5v-112q-30 1 -51 0t-34.5 -7.5t-19.5 -19.5t-6 -35v-34h111v-102h-111v-430h-157v430h-80v102zM435 744h158v-744h-158v744z" />
    <glyph glyph-name="uniFB03" unicode="ffi" horiz-adv-x="979" 
d="M435 430h-178v-430h-157v430h-80v102h80v39q0 49 15 80t47 50q32 27 84.5 34t118.5 0v-112q-29 1 -49.5 -0.5t-33.5 -8t-19 -19.5t-6 -35v-28h178v45q0 49 15 80t47 50q32 26 86 33.5t120 -0.5v-112q-30 1 -51 0t-34.5 -7.5t-19.5 -19.5t-6 -35v-34h111v-102h-111v-430
h-157v430zM770 532h156v-532h-156v532zM769 744h158v-137h-158v137z" />
    <glyph glyph-name="uniFB04" unicode="ffl" horiz-adv-x="982" 
d="M435 430h-178v-430h-157v430h-80v102h80v39q0 49 15 80t47 50q32 27 84.5 34t118.5 0v-112q-29 1 -49.5 -0.5t-33.5 -8t-19 -19.5t-6 -35v-28h178v45q0 49 15 80t47 50q32 26 86 33.5t120 -0.5v-112q-30 1 -51 0t-34.5 -7.5t-19.5 -19.5t-6 -35v-34h111v-102h-111v-430
h-157v430zM770 744h158v-744h-158v744z" />
    <glyph glyph-name=".notdef" 
 />
    <glyph glyph-name="glyph1" horiz-adv-x="0" 
 />
    <glyph glyph-name="glyph1" horiz-adv-x="0" 
 />
    <glyph glyph-name="uni000D" unicode="&#xd;" horiz-adv-x="0" 
 />
    <glyph glyph-name="space" unicode=" " horiz-adv-x="241" 
 />
    <glyph glyph-name="exclam" unicode="!" horiz-adv-x="289" 
d="M63 558v186h163v-186l-41 -299h-81zM61 164h167v-164h-167v164z" />
    <glyph glyph-name="quotedbl" unicode="&#x22;" horiz-adv-x="451" 
d="M264 744h135v-286h-135v286zM52 744h137v-286h-137v286z" />
    <glyph glyph-name="numbersign" unicode="#" horiz-adv-x="639" 
d="M93 540h97l28 173h100l-28 -173h115l28 173h99l-28 -173h100l-20 -118h-99l-19 -120h99l-20 -117h-98l-29 -185h-100l30 185h-115l-29 -185h-100l29 185h-99l21 117h97l19 120h-99zM252 302h115l19 120h-115z" />
    <glyph glyph-name="dollar" unicode="$" horiz-adv-x="662" 
d="M304 -7q-133 8 -203.5 70t-74.5 165h163q6 -48 34 -76t81 -35v184q-3 0 -4 1q-53 13 -99 27.5t-80 38t-53.5 58.5t-19.5 91q0 48 19.5 85t54 62.5t81.5 40t101 16.5v79h64v-80q110 -8 174 -61t70 -147h-154q-5 35 -28 57t-62 30v-168l13 -3q52 -13 97 -28.5t78.5 -39.5
t52.5 -60t19 -89q0 -51 -20 -90.5t-54.5 -67t-82.5 -42.5t-103 -18v-117h-64v117zM465 201q0 35 -24.5 52t-72.5 31v-167q40 5 68.5 26t28.5 58zM210 525q0 -31 22 -47.5t72 -30.5v155q-45 -5 -69.5 -25.5t-24.5 -51.5z" />
    <glyph glyph-name="percent" unicode="%" horiz-adv-x="931" 
d="M218 312q-41 0 -75 14.5t-59 41.5t-39 65.5t-14 86.5q0 47 14 85.5t39 65.5t59 41.5t75 14.5t75.5 -14.5t59 -41.5t38 -65t13.5 -86t-14 -86.5t-38.5 -65.5t-59 -41.5t-74.5 -14.5zM612 712h94l-388 -712h-94zM712 -18q-41 0 -75 15t-59 42t-39 65.5t-14 86.5
q0 47 14 85.5t39 65.5t59.5 42t74.5 15q42 0 76.5 -15t59 -42t38.5 -65.5t14 -85.5q0 -48 -14 -86.5t-39 -65.5t-59.5 -42t-75.5 -15zM218 398q35 0 51 34t16 88q0 53 -16 88t-51 35t-50.5 -34.5t-15.5 -88.5t15.5 -88t50.5 -34zM713 69q35 0 50.5 34t15.5 88t-16.5 89
t-49.5 35q-35 0 -51 -35t-16 -89t16 -88t51 -34z" />
    <glyph glyph-name="ampersand" unicode="&#x26;" horiz-adv-x="724" 
d="M295 -14q-62 0 -111.5 15.5t-84 43.5t-52.5 68t-18 90q0 43 13 76.5t36 59.5t53 45.5t65 36.5q-27 32 -44 69t-17 82q0 39 14.5 71.5t41.5 56t65 36.5t84 13q43 0 79.5 -11.5t63.5 -34t42 -54.5t15 -73q0 -35 -11 -62.5t-30 -49t-44 -39t-53 -31.5l29 -36q7 -9 16 -21
t19 -25t19 -26t16 -23q11 26 17.5 52.5t10.5 55.5h137q-11 -115 -77 -211l127 -160h-192l-15 18l-24 34q-40 -29 -88 -47.5t-102 -18.5zM297 113q63 0 112 34l-143 184q-40 -26 -57.5 -57.5t-17.5 -67.5q0 -42 30.5 -67.5t75.5 -25.5zM280 576q0 -29 15.5 -52.5t41.5 -47.5
q36 21 50 45.5t14 53.5q0 28 -17 46t-43 18q-28 0 -44.5 -17t-16.5 -46z" />
    <glyph glyph-name="quotesingle" unicode="'" horiz-adv-x="241" 
d="M52 744h137v-286h-137v286z" />
    <glyph glyph-name="parenleft" unicode="(" horiz-adv-x="366" 
d="M223 -141q-33 40 -62.5 89.5t-51.5 107t-35 122t-13 135.5q0 73 13 141.5t35 128.5t51.5 111t62.5 90h130q-57 -91 -94 -206.5t-37 -264.5q0 -71 10 -134t28 -119t41.5 -106t50.5 -95h-129v0z" />
    <glyph glyph-name="parenright" unicode=")" horiz-adv-x="366" 
d="M14 -141q27 45 51 95t41.5 106t28 119t10.5 134q0 149 -37 264.5t-95 206.5h131q33 -39 62.5 -90t51.5 -111t35 -128.5t13 -141.5q0 -71 -13 -135.5t-35 -122t-51.5 -107t-62.5 -89.5h-130v0z" />
    <glyph glyph-name="asterisk" unicode="*" horiz-adv-x="474" 
d="M87 424l77 105l-123 40l34 82l115 -40v133h94v-133l116 40l31 -82l-121 -40l78 -105l-73 -53l-77 110l-78 -110z" />
    <glyph glyph-name="plus" unicode="+" horiz-adv-x="606" 
d="M53 405h183v193h134v-193h183v-126h-183v-195h-134v195h-183v126z" />
    <glyph glyph-name="comma" unicode="," horiz-adv-x="254" 
d="M45 -111q35 9 56 36.5t21 72.5v2h-78v164h166v-154q0 -47 -13 -82t-35 -58t-52.5 -35.5t-64.5 -15.5v70z" />
    <glyph glyph-name="hyphen" unicode="-" horiz-adv-x="363" 
d="M40 333h283v-136h-283v136z" />
    <glyph glyph-name="period" unicode="." horiz-adv-x="254" 
d="M44 164h166v-164h-166v164z" />
    <glyph glyph-name="slash" unicode="/" horiz-adv-x="466" 
d="M315 784h143l-334 -925h-143z" />
    <glyph glyph-name="zero" unicode="0" horiz-adv-x="692" 
d="M345 -17q-69 0 -125.5 26t-97.5 74.5t-63.5 117.5t-22.5 154t22.5 154t63.5 117.5t98 74.5t126 26q70 0 127.5 -26t98 -74.5t62.5 -117.5t22 -154t-22 -154t-63 -117.5t-98.5 -74.5t-127.5 -26zM346 112q38 0 65 17.5t44 49.5t25 76.5t8 99.5t-8 100t-25 77t-44 50
t-65 18t-64.5 -18t-44 -50t-25.5 -77t-8 -100q0 -54 8 -99t25.5 -77t44 -49.5t64.5 -17.5z" />
    <glyph glyph-name="one" unicode="1" horiz-adv-x="437" 
d="M197 465h-165v109q78 2 132 36.5t67 108.5h129v-719h-163v465z" />
    <glyph glyph-name="two" unicode="2" horiz-adv-x="610" 
d="M31 0q1 66 20.5 112t54.5 86q25 27 54 51.5t59.5 47t61 43t57.5 40.5q35 25 54 51t19 64q0 45 -25.5 72.5t-72.5 27.5q-56 0 -83 -33q-17 -19 -25 -45.5t-8 -58.5h-155q0 54 11.5 94.5t36.5 75.5q31 45 88 72t140 27q62 0 110 -17.5t81 -48.5t50 -72t17 -89
q0 -62 -25 -104.5t-64 -75.5q-28 -25 -60.5 -47t-65 -43t-62 -43t-50.5 -48v-3h326v-136h-544v0z" />
    <glyph glyph-name="three" unicode="3" horiz-adv-x="635" 
d="M324 -17q-70 0 -122 16t-91 46q-43 34 -64 83t-22 106h154q2 -26 10.5 -48.5t25 -39.5t42 -27t61.5 -10q57 0 88.5 28t31.5 78t-34 75t-97 25h-43v114h39q55 0 86.5 22.5t31.5 66.5q0 40 -27.5 64t-74.5 24q-30 0 -52.5 -9.5t-37 -24.5t-22.5 -34.5t-9 -40.5h-152
q1 48 19.5 90t54 73t86 49t116.5 18q57 0 104.5 -13.5t82 -39t53.5 -63t19 -84.5q0 -56 -32.5 -90t-88.5 -53v-2q68 -19 105.5 -62.5t37.5 -115.5q0 -57 -22.5 -98.5t-61 -68.5t-89 -40.5t-106.5 -13.5z" />
    <glyph glyph-name="four" unicode="4" horiz-adv-x="654" 
d="M387 161h-334v145l335 414h156v-439h106v-120h-106v-161h-157v161zM162 275q18 1 36 3q15 1 33 2t33 1h123v172q0 16 0.5 34.5t1.5 35.5q1 19 3 39h-2l-24 -36q-11 -15 -23 -32t-23 -31l-76 -95q-11 -14 -25 -29.5t-27 -29.5l-30 -32v-2z" />
    <glyph glyph-name="five" unicode="5" horiz-adv-x="630" 
d="M313 -17q-60 0 -111.5 15t-90 43.5t-62 69t-27.5 91.5h161q8 -40 40.5 -64t83.5 -24q56 0 91 34.5t35 90.5q0 58 -35.5 90.5t-87.5 32.5q-38 0 -66.5 -13.5t-44.5 -33.5h-153l74 397h433v-131h-316l-32 -157h2q25 27 59.5 42.5t87.5 15.5q49 0 93 -17t77.5 -48.5t53 -77
t19.5 -101.5q0 -58 -21 -105t-58.5 -80.5t-90 -51.5t-114.5 -18z" />
    <glyph glyph-name="six" unicode="6" horiz-adv-x="653" 
d="M344 -17q-75 0 -131 26t-94 72q-42 49 -61.5 117.5t-19.5 153.5q-1 87 18.5 159t64.5 124q38 45 92 68.5t130 23.5q55 0 99.5 -14t76.5 -39t52.5 -58.5t28.5 -72.5h-156q-8 25 -30.5 46t-67.5 21q-142 0 -154 -212h2q30 42 72 65.5t102 23.5q51 0 97 -18.5t80.5 -51.5
t55 -79t20.5 -102t-21 -102.5t-58 -80t-87.5 -52t-110.5 -18.5zM338 105q27 0 50.5 9.5t40.5 27t27 41t10 51.5t-9.5 52.5t-27 41.5t-41 27t-50.5 10q-60 0 -97 -36.5t-37 -93.5q0 -29 10 -52.5t28 -41t42.5 -27t53.5 -9.5z" />
    <glyph glyph-name="seven" unicode="7" horiz-adv-x="576" 
d="M125 0q4 97 30 184.5t63.5 161.5t83 133t90.5 99v2q-27 -2 -56 -3q-25 -2 -55.5 -2.5t-60.5 -0.5h-192v138h523v-125q-48 -48 -93 -110.5t-79.5 -137t-56.5 -160t-25 -179.5h-172v0z" />
    <glyph glyph-name="eight" unicode="8" horiz-adv-x="647" 
d="M325 -17q-64 0 -118 15t-93.5 43.5t-61.5 69t-22 92.5q0 63 36 110.5t105 68.5v3q-57 20 -84 57.5t-27 87.5q0 44 18.5 80.5t53 62.5t83.5 40t109 14t108.5 -13.5t82.5 -38.5t52.5 -61t18.5 -81q0 -48 -27 -86t-83 -58v-3q71 -20 106.5 -68t35.5 -111q0 -53 -22 -95
t-61 -70.5t-92.5 -43.5t-117.5 -15zM323 432q53 0 81 24.5t28 65.5q0 42 -28 67t-81 25q-52 0 -80.5 -25t-28.5 -67q0 -41 28.5 -65.5t80.5 -24.5zM325 105q58 0 93 29.5t35 78.5q0 52 -34 82t-94 30t-95 -30t-35 -82q0 -50 34.5 -79t95.5 -29z" />
    <glyph glyph-name="nine" unicode="9" horiz-adv-x="654" 
d="M320 -17q-57 0 -103.5 14.5t-80.5 40t-54.5 59.5t-26.5 73h156q7 -25 32.5 -47t72.5 -22q73 0 109 58q31 49 37 149h-2q-31 -39 -72 -61.5t-98 -22.5q-53 0 -100 18t-82 51t-55 79t-20 103q0 56 21 102.5t58.5 79.5t89.5 51.5t113 18.5q62 0 112.5 -18t87.5 -51
q100 -90 100 -298q0 -92 -19 -167.5t-64 -124.5q-37 -42 -89 -63.5t-123 -21.5zM318 345q29 0 53.5 9.5t42 27t27.5 41t10 52.5q0 28 -10 52.5t-27.5 41.5t-42 27t-52.5 10q-60 0 -96 -37t-36 -93q0 -28 9 -52t26.5 -41.5t41.5 -27.5t54 -10z" />
    <glyph glyph-name="colon" unicode=":" horiz-adv-x="261" 
d="M47 485h166v-164h-166v164zM47 164h166v-164h-166v164z" />
    <glyph glyph-name="semicolon" unicode=";" horiz-adv-x="261" 
d="M47 485h166v-164h-166v164zM48 -111q35 9 56 36.5t21 72.5v2h-78v164h166v-154q0 -47 -13 -82t-35 -58t-52.5 -35.5t-64.5 -15.5v70z" />
    <glyph glyph-name="less" unicode="&#x3c;" horiz-adv-x="541" 
d="M55 250v143l426 180v-139l-170 -66q-22 -8 -46.5 -16.5t-46.5 -15.5q-26 -8 -51 -15v-2q25 -7 51 -14q22 -6 47 -13.5t46 -15.5l170 -63v-143z" />
    <glyph glyph-name="equal" unicode="=" horiz-adv-x="603" 
d="M61 491h486v-123h-486v123zM61 277h486v-123h-486v123z" />
    <glyph glyph-name="greater" unicode="&#x3e;" horiz-adv-x="541" 
d="M486 393v-143l-426 -180v138l171 67q21 8 46 16.5t47 15.5q26 8 50 15v2q-25 7 -51 14q-22 6 -46.5 13.5t-45.5 15.5l-171 63v143z" />
    <glyph glyph-name="question" unicode="?" horiz-adv-x="580" 
d="M189 164h166v-164h-166v164zM204 259q0 31 4 55.5t13 44t23.5 36.5t35.5 34q17 15 35.5 27.5t34.5 26.5t26 30.5t10 38.5q0 35 -26.5 55t-68.5 20q-51 0 -82 -31t-32 -78h-156q1 50 20 93.5t54.5 76t86 51t115.5 18.5q58 0 105 -14.5t80 -40.5t51 -63.5t18 -82.5
q0 -57 -22.5 -93t-51.5 -59q-41 -32 -68.5 -49t-43.5 -34q-12 -14 -16 -27t-5 -35h-140z" />
    <glyph glyph-name="at" unicode="@" horiz-adv-x="949" 
d="M418 98q-74 0 -117 52t-43 140q0 52 14 96t39.5 76t61 49.5t79.5 17.5q83 0 112 -77h1l8 66h133l-33 -268q-5 -38 5 -55t36 -17q17 0 35 8t33 27.5t24.5 53t9.5 84.5q0 76 -23.5 133t-66 95.5t-103 57.5t-133.5 19q-72 0 -136 -24.5t-111 -70.5t-74.5 -113.5
t-27.5 -152.5q0 -70 21 -129.5t62 -102.5t101.5 -67.5t139.5 -24.5q50 0 97 10.5t89 27.5l31 -77q-50 -25 -104 -36t-114 -11q-92 0 -169.5 29t-134 82.5t-88.5 129t-32 168.5q0 108 37.5 192t100 141.5t143.5 87t168 29.5q86 0 162.5 -25.5t134.5 -75.5t91.5 -123.5
t33.5 -169.5q0 -65 -16.5 -113.5t-44 -80.5t-65 -48t-79.5 -16q-58 0 -97.5 22t-52.5 68h-2q-44 -84 -136 -84zM461 200q43 0 67 37.5t24 97.5q0 42 -16 67t-51 25q-42 0 -64.5 -38t-22.5 -96q0 -41 15 -67t48 -26z" />
    <glyph glyph-name="A" unicode="A" horiz-adv-x="736" 
d="M278 744h177l269 -744h-180l-47 142h-270l-46 -142h-171zM267 264h191l-45 139q-12 38 -21 73.5t-15 63.5q-7 33 -12 61h-2q-8 -37 -16 -72q-8 -30 -16.5 -64.5t-17.5 -61.5z" />
    <glyph glyph-name="B" unicode="B" horiz-adv-x="710" 
d="M63 744h352q115 0 174 -51q63 -55 63 -142q0 -112 -120 -149v-4q72 -17 110.5 -64.5t38.5 -116.5q0 -54 -19 -94t-54 -68q-67 -55 -184 -55h-361v744zM391 445q44 0 70.5 20.5t26.5 62.5q0 41 -25.5 62.5t-69.5 21.5h-161v-167h159zM406 134q50 0 79 27q27 25 27 68
q0 49 -31 73t-78 24h-171v-192h174z" />
    <glyph glyph-name="C" unicode="C" horiz-adv-x="749" 
d="M397 -17q-81 0 -148.5 29t-115.5 80.5t-74.5 122.5t-26.5 154t26 154t73.5 123t115 81.5t150.5 29.5q62 0 114 -14.5t90 -43.5q51 -37 79.5 -90t35.5 -116h-170q-8 53 -47.5 87.5t-102.5 34.5q-48 0 -83.5 -18.5t-59 -51.5t-35.5 -78t-12 -98t13.5 -98t38 -77.5t60 -51
t79.5 -18.5q69 0 109 39t46 97h171q-4 -56 -28 -105.5t-62 -87.5q-42 -42 -100 -63t-136 -21z" />
    <glyph glyph-name="D" unicode="D" horiz-adv-x="748" 
d="M65 744h310q78 0 141.5 -27t108.5 -76t69 -119t24 -155q0 -83 -23 -150.5t-68 -115.5t-111 -74.5t-151 -26.5h-300v744zM352 144q97 0 144.5 58t47.5 165q0 106 -47.5 169.5t-141.5 63.5h-119v-456h116z" />
    <glyph glyph-name="E" unicode="E" horiz-adv-x="670" 
d="M63 744h558v-142h-388v-148h336v-135h-336v-173h395v-146h-565v744z" />
    <glyph glyph-name="F" unicode="F" horiz-adv-x="640" 
d="M63 744h546v-145h-376v-162h314v-139h-314v-298h-170v744z" />
    <glyph glyph-name="G" unicode="G" horiz-adv-x="784" 
d="M603 100h-3q-33 -62 -89 -89.5t-125 -27.5q-80 0 -143.5 27.5t-109.5 76.5q-49 53 -74 124.5t-25 157.5q0 96 33 175.5t96 132.5q45 38 103 59t132 21q70 0 126 -18t97 -50t66.5 -76.5t35.5 -97.5h-170q-14 42 -50 71.5t-100 29.5q-50 0 -86.5 -19t-61 -52t-36.5 -78.5
t-12 -97.5q0 -54 14 -99t39.5 -78t62 -51.5t82.5 -18.5q39 0 70.5 12.5t53 32.5t33.5 46.5t12 54.5v3h-150v127h311v-398h-118z" />
    <glyph glyph-name="H" unicode="H" horiz-adv-x="747" 
d="M63 744h170v-287h281v287h170v-744h-170v315h-281v-315h-170v744z" />
    <glyph glyph-name="I" unicode="I" horiz-adv-x="298" 
d="M63 744h171v-744h-171v744z" />
    <glyph glyph-name="J" unicode="J" horiz-adv-x="579" 
d="M280 -14q-128 0 -191.5 64t-63.5 175v57h157v-53q0 -56 23 -79t65 -23q43 0 63 24.5t20 69.5v523h171v-527q0 -94 -47 -150q-30 -38 -79.5 -59.5t-117.5 -21.5z" />
    <glyph glyph-name="K" unicode="K" horiz-adv-x="736" 
d="M63 744h170v-122q0 -51 -2 -98.5t-4 -77.5l278 298h204l-287 -299l305 -445h-199l-227 337l-68 -71v-266h-170v744z" />
    <glyph glyph-name="L" unicode="L" horiz-adv-x="604" 
d="M63 744h170v-598h343v-146h-513v744z" />
    <glyph glyph-name="M" unicode="M" horiz-adv-x="884" 
d="M63 744h229l93 -310q10 -35 20 -80t18 -87q10 -48 18 -98h3q8 50 17 98q8 42 17.5 87t20.5 80l91 310h232v-744h-157v333q0 35 2 81t4 88q3 48 6 99h-2q-9 -46 -19 -91q-8 -38 -18.5 -80.5t-20.5 -75.5l-106 -354h-140l-107 354q-10 33 -20.5 75.5t-18.5 80.5
q-10 45 -19 91h-2q3 -51 6 -99q2 -42 4 -88t2 -81v-333h-153v744z" />
    <glyph glyph-name="N" unicode="N" horiz-adv-x="753" 
d="M63 744h174l196 -323q17 -29 34.5 -62.5t32.5 -63.5l35 -70h2q-3 38 -5 77q-2 33 -3 71t-1 70v301h163v-744h-175l-194 319q-17 28 -35 63t-33 65q-18 35 -35 71h-2l4 -78q2 -33 3.5 -71t1.5 -70v-299h-163v744z" />
    <glyph glyph-name="O" unicode="O" horiz-adv-x="799" 
d="M400 -18q-85 0 -153 29t-116 81t-73.5 123t-25.5 154q0 84 25.5 155t73.5 122.5t116 81t153 29.5q84 0 152 -29.5t116 -81t73.5 -122.5t25.5 -155q0 -83 -25.5 -154t-73.5 -123t-116 -81t-152 -29zM401 122q48 0 84 19t60 52t36 78t12 98t-12 98.5t-36 79.5t-60 53
t-84 19t-84.5 -19t-61 -53t-37 -79.5t-12.5 -98.5t12.5 -98t37 -78t61 -52t84.5 -19z" />
    <glyph glyph-name="P" unicode="P" horiz-adv-x="686" 
d="M63 744h331q130 0 199 -69q34 -34 52.5 -78.5t18.5 -99.5q0 -53 -17.5 -97t-50 -75.5t-78.5 -49t-104 -17.5h-178v-258h-173v744zM236 393h145q54 0 82.5 28t28.5 76q0 49 -28.5 75.5t-81.5 26.5h-146v-206z" />
    <glyph glyph-name="Q" unicode="Q" horiz-adv-x="798" 
d="M590 31q-40 -23 -88 -36t-103 -13q-85 0 -153 29t-115.5 81t-73 123t-25.5 154q0 84 25.5 155t73 122.5t115.5 81t153 29.5t152.5 -29.5t115 -81t73 -122.5t25.5 -155q0 -81 -23 -148.5t-68 -119.5l92 -84l-74 -80zM400 119q44 0 79 15l-90 83l74 80l95 -88
q17 32 25.5 72t8.5 88q0 53 -12 98.5t-36 79.5t-60 53t-84 19t-84.5 -19t-61 -53t-36.5 -79.5t-12 -98.5t12 -98.5t36.5 -79t61 -53t84.5 -19.5z" />
    <glyph glyph-name="R" unicode="R" horiz-adv-x="715" 
d="M63 744h354q54 0 100.5 -14t80.5 -41.5t53.5 -67t19.5 -90.5q0 -66 -33 -112t-105 -69v-3q56 -17 82.5 -50.5t34.5 -93.5q5 -38 7.5 -71.5t5 -60t6.5 -43t13 -20.5v-8h-168q-8 4 -11.5 20t-6 39.5t-4.5 52.5t-5 60q-7 56 -36.5 84t-91.5 28h-126v-284h-170v744zM233 410
h151q57 0 87 26.5t30 71.5q0 46 -27.5 73.5t-84.5 27.5h-156v-199z" />
    <glyph glyph-name="S" unicode="S" horiz-adv-x="690" 
d="M355 -18q-75 0 -135 17t-103 49t-66.5 79.5t-25.5 107.5h172q7 -61 46.5 -89t111.5 -28q25 0 48 5t41 15.5t28.5 27t10.5 39.5q0 24 -11.5 40t-33.5 27t-54 19.5t-72 17.5q-54 12 -102 27t-84 39.5t-56.5 62t-20.5 95.5t22 100t61 69.5t92 41t115 13.5q61 0 113 -14
t90 -42t61 -69.5t27 -96.5h-167q-7 44 -40 68t-89 24q-53 0 -85 -21t-32 -56q0 -22 12 -36t35 -24.5t56.5 -18.5t77.5 -18q50 -11 96.5 -26.5t82 -41.5t57 -65t21.5 -98q0 -58 -23 -102.5t-63.5 -75t-95 -46.5t-118.5 -16z" />
    <glyph glyph-name="T" unicode="T" horiz-adv-x="668" 
d="M27 744h614v-145h-222v-599h-171v599h-221v145z" />
    <glyph glyph-name="U" unicode="U" horiz-adv-x="724" 
d="M364 -14q-152 0 -230.5 70.5t-78.5 202.5v485h170v-489q0 -61 33.5 -96t105.5 -35q67 0 101 36.5t34 97.5v486h171v-485q0 -131 -78 -202t-228 -71z" />
    <glyph glyph-name="V" unicode="V" horiz-adv-x="690" 
d="M9 744h177l110 -358q9 -31 18 -69t17 -71q9 -40 16 -79h2q7 39 16 79q7 33 16 71t18 69l109 358h172l-246 -744h-179z" />
    <glyph glyph-name="W" unicode="W" horiz-adv-x="999" 
d="M9 744h173l71 -291q10 -41 17.5 -89.5t13.5 -92.5l12 -102h2q7 53 16 106q7 45 16 95t17 89l66 285h161l66 -284q8 -39 17 -89.5t16 -95.5q8 -53 15 -106h2q6 52 14 103q6 44 14.5 93t18.5 89l69 290h173l-204 -744h-167l-72 312q-8 35 -15 79t-13 84q-7 47 -13 94h-2
q-6 -47 -13 -94q-6 -40 -13 -84t-15 -79l-73 -312h-168z" />
    <glyph glyph-name="X" unicode="X" horiz-adv-x="730" 
d="M265 389l-229 355h195l60 -101q13 -22 26 -47.5t24 -48.5q12 -26 25 -54h2q12 28 25 54q11 23 24.5 48.5t26.5 47.5l61 101h186l-225 -354l248 -390h-202l-75 131q-13 22 -25.5 48.5t-23.5 49.5l-24 54h-2q-12 -27 -25 -54q-11 -23 -24.5 -49.5t-26.5 -48.5l-77 -131
h-194z" />
    <glyph glyph-name="Y" unicode="Y" horiz-adv-x="702" 
d="M266 278l-255 466h187l80 -156q13 -26 26 -56.5t24 -57.5q12 -32 24 -63h2q12 31 25 63q11 27 24.5 57.5t26.5 56.5l81 156h180l-255 -464v-280h-170v278z" />
    <glyph glyph-name="Z" unicode="Z" horiz-adv-x="688" 
d="M36 138l275 334q17 20 38 42.5t40 42.5q22 23 45 45v3q-29 -2 -57 -3q-24 -1 -51 -1.5t-49 -0.5h-214v144h572v-134l-265 -324q-19 -23 -42 -48t-44 -46l-49 -49v-3q30 1 60 3q26 1 54.5 2t51.5 1h248v-146h-613v138z" />
    <glyph glyph-name="bracketleft" unicode="[" horiz-adv-x="427" 
d="M71 784h312v-122h-162v-682h162v-121h-312v925z" />
    <glyph glyph-name="backslash" unicode="\" horiz-adv-x="466" 
d="M342 -141l-333 925h143l333 -925h-143z" />
    <glyph glyph-name="bracketright" unicode="]" horiz-adv-x="427" 
d="M43 -20h162v682h-162v122h313v-925h-313v121z" />
    <glyph glyph-name="asciicircum" unicode="^" horiz-adv-x="503" 
d="M189 744h125l175 -306h-146l-91 163h-2l-92 -163h-144z" />
    <glyph glyph-name="underscore" unicode="_" horiz-adv-x="445" 
d="M-2 -77h449v-99h-449v99z" />
    <glyph glyph-name="grave" unicode="`" horiz-adv-x="538" 
d="M105 773h183l53 -161h-116z" />
    <glyph glyph-name="a" unicode="a" horiz-adv-x="580" 
d="M393 0q-6 9 -11 25.5t-7 39.5h-2q-26 -37 -62.5 -58t-98.5 -21q-39 0 -72.5 10.5t-58 30.5t-38 50.5t-13.5 69.5q0 44 16.5 73t44.5 47t66 27.5t82 14.5q71 10 102.5 24t31.5 44q0 29 -19 46.5t-60 17.5q-45 0 -67.5 -19t-25.5 -51h-145q1 34 16 66t44 56.5t73 39
t103 14.5q51 0 88 -7.5t65 -24.5q42 -24 61.5 -64.5t19.5 -94.5v-273q0 -61 20 -74v-9h-153zM261 89q53 0 84.5 29t31.5 73v69q-17 -11 -41.5 -17.5t-50.5 -12.5q-52 -11 -77 -27t-25 -51t23 -49t55 -14z" />
    <glyph glyph-name="b" unicode="b" horiz-adv-x="621" 
d="M367 -17q-54 0 -96.5 23t-65.5 72h-2v-78h-151v744h157v-163q0 -34 -1.5 -66.5t-3.5 -56.5h3q27 41 65 65t94 24q52 0 94 -21t72 -58.5t46.5 -89t16.5 -112.5q0 -66 -16 -118.5t-46 -89t-72 -56t-94 -19.5zM325 109q55 0 82.5 43t27.5 115t-27.5 116.5t-83.5 44.5
q-31 0 -53.5 -12.5t-37.5 -34t-22 -51.5t-7 -64q0 -70 32 -113.5t89 -43.5z" />
    <glyph glyph-name="c" unicode="c" horiz-adv-x="577" 
d="M307 -17q-64 0 -115.5 21.5t-88 59.5t-56.5 89.5t-20 111.5t19.5 111.5t55.5 89.5t87 59.5t114 21.5q53 0 96 -14.5t74.5 -40.5t51.5 -62.5t27 -79.5h-152q-8 37 -32 58.5t-63 21.5q-60 0 -89.5 -45t-29.5 -120q0 -73 29.5 -118t89.5 -45q44 0 69.5 25t30.5 71h151
q-2 -45 -20.5 -84.5t-50.5 -68.5t-77.5 -45.5t-100.5 -16.5z" />
    <glyph glyph-name="d" unicode="d" horiz-adv-x="622" 
d="M255 -17q-52 0 -94 19.5t-72 56t-46 89t-16 118.5q0 61 16.5 112.5t46.5 89t72.5 58.5t94.5 21q55 0 93 -23.5t65 -65.5h2q-2 25 -3 57t-1 66v163h157v-744h-151v78h-2q-23 -49 -65.5 -72t-96.5 -23zM297 109q57 0 89 43.5t32 113.5q0 35 -7.5 65t-22.5 51.5t-37.5 33.5
t-52.5 12q-56 0 -83.5 -44.5t-27.5 -116.5t27.5 -115t82.5 -43z" />
    <glyph glyph-name="e" unicode="e" horiz-adv-x="596" 
d="M308 -16q-65 0 -117 21.5t-88.5 59.5t-56 89t-19.5 111t20 111.5t56 89.5t86 59.5t111 21.5q57 0 102.5 -18t80.5 -50q45 -44 66 -109t20 -144h-388q8 -60 40 -94t89 -34q37 0 60.5 13.5t36.5 38.5h152q-10 -35 -31.5 -65.5t-53 -53t-73.5 -35t-93 -12.5zM300 436
q-54 0 -82 -32t-36 -87h227q-4 56 -33 87.5t-76 31.5z" />
    <glyph glyph-name="f" unicode="f" horiz-adv-x="395" 
d="M20 532h80v45q0 84 45 125q26 23 66.5 33t91.5 9q16 0 32 -1t33 -3v-112q-30 1 -51 0t-34.5 -7.5t-19.5 -19.5t-6 -35v-34h111v-102h-111v-430h-157v430h-80v102z" />
    <glyph glyph-name="g" unicode="g" horiz-adv-x="613" 
d="M299 -185q-110 0 -177 43.5t-79 122.5h153q8 -24 31.5 -39t69.5 -15q56 0 83.5 27t27.5 76v11q0 43 3 70h-4q-47 -78 -144 -78q-46 0 -88 16.5t-74 49t-51 79.5t-19 107q0 58 16.5 106.5t46.5 83t71 53.5t90 19q54 0 92 -19t61 -64h2v68h150v-485q0 -60 -18.5 -102.5
t-50.5 -71.5q-35 -30 -84 -44t-108 -14zM298 151q30 0 51.5 10.5t36 29.5t21 44t6.5 55q0 59 -29 98.5t-87 39.5q-52 0 -82 -37.5t-30 -101.5q0 -63 30 -100.5t83 -37.5z" />
    <glyph glyph-name="h" unicode="h" horiz-adv-x="604" 
d="M209 539v-10v-20t-0.5 -26t-0.5 -27h3q24 43 64 67t96 24q88 0 136.5 -53.5t48.5 -143.5v-350h-156v320q0 44 -22.5 70.5t-66.5 26.5q-46 0 -74 -33t-28 -84v-300h-157v744h157v-205v0z" />
    <glyph glyph-name="i" unicode="i" horiz-adv-x="261" 
d="M51 744h159v-137h-159v137zM52 532h157v-532h-157v532z" />
    <glyph glyph-name="j" unicode="j" horiz-adv-x="261" 
d="M52 -181q-21 0 -46 2t-43 6v111h6h20t17 1q23 2 34.5 13.5t11.5 40.5v539h157v-545q0 -51 -10.5 -80.5t-29.5 -47.5q-22 -22 -51.5 -31t-65.5 -9zM51 744h159v-137h-159v137z" />
    <glyph glyph-name="k" unicode="k" horiz-adv-x="590" 
d="M260 232l-53 -55v-177h-155v744h155v-232q0 -59 -1.5 -102t-3.5 -69l175 191h182l-190 -197l212 -335h-182z" />
    <glyph glyph-name="l" unicode="l" horiz-adv-x="265" 
d="M54 744h158v-744h-158v744z" />
    <glyph glyph-name="m" unicode="m" horiz-adv-x="910" 
d="M52 532h151v-83h3q26 48 64.5 73t95.5 25q105 0 146 -101h2q33 54 75.5 77.5t93.5 23.5q89 0 134 -53.5t45 -142.5v-351h-156v325q0 44 -20.5 68.5t-58.5 24.5q-42 0 -66.5 -32t-24.5 -83v-303h-157v325q0 44 -19.5 68.5t-58.5 24.5q-42 0 -67 -32t-25 -83v-303h-157v532
z" />
    <glyph glyph-name="n" unicode="n" horiz-adv-x="604" 
d="M204 451h3q25 48 66.5 72t97.5 24q88 0 136.5 -53.5t48.5 -143.5v-350h-156v320q0 44 -22.5 70.5t-66.5 26.5q-46 0 -74 -33t-28 -84v-300h-157v532h152v-81z" />
    <glyph glyph-name="o" unicode="o" horiz-adv-x="616" 
d="M309 -17q-64 0 -116 21.5t-89 59.5t-57 89.5t-20 111.5t20 111.5t57 89.5t89 59.5t116 21.5q63 0 115 -21.5t88.5 -59.5t56.5 -89.5t20 -111.5t-20 -111.5t-56.5 -89.5t-88.5 -59.5t-115 -21.5zM308 97q59 0 90.5 46.5t31.5 121.5q0 76 -31.5 123t-90.5 47q-60 0 -91 -47
t-31 -123q0 -75 31 -121.5t91 -46.5z" />
    <glyph glyph-name="p" unicode="p" horiz-adv-x="624" 
d="M52 532h151v-76h3q54 91 162 91q53 0 95.5 -21t72 -58.5t45.5 -89t16 -112.5q0 -65 -16.5 -117.5t-47 -89t-74 -56.5t-96.5 -20t-93.5 22t-63.5 61h-2q2 -15 3.5 -44t1.5 -72v-127h-157v709zM326 105q54 0 83 42t29 114t-28 116.5t-86 44.5q-30 0 -52.5 -12.5
t-37.5 -34.5t-22.5 -51t-7.5 -63q0 -69 31 -112.5t91 -43.5z" />
    <glyph glyph-name="q" unicode="q" horiz-adv-x="624" 
d="M416 -50q0 38 1 68.5t3 47.5h-2q-24 -39 -63.5 -61t-92.5 -22q-54 0 -97 20t-73.5 56.5t-47 89t-16.5 117.5q0 61 16.5 112.5t46.5 89t72.5 58.5t95.5 21q107 0 160 -90h3v75h150v-709h-156v127zM298 105q61 0 92 43.5t31 112.5q0 34 -7.5 63.5t-22.5 51t-37.5 34
t-52.5 12.5q-59 0 -86.5 -45t-27.5 -116q0 -72 29 -114t82 -42z" />
    <glyph glyph-name="r" unicode="r" horiz-adv-x="410" 
d="M203 437h3q26 56 62 80t86 24q24 0 33 -4v-137h-4q-17 3 -33 3q-64 1 -102.5 -38.5t-38.5 -117.5v-247h-157v532h151v-95z" />
    <glyph glyph-name="s" unicode="s" horiz-adv-x="539" 
d="M273 -17q-58 0 -104 13t-78.5 37t-51 57.5t-21.5 73.5h148q7 -38 34.5 -58t73.5 -20q42 0 65 16t23 45q0 18 -11 29t-30 18t-43.5 11.5t-52.5 9.5q-36 7 -70 16t-61 27t-43.5 47t-16.5 76q0 41 17.5 72t47.5 52t71 31.5t88 10.5q111 0 168 -43.5t68 -113.5h-146
q-15 57 -90 57q-36 0 -57.5 -14t-21.5 -40q0 -15 10 -24.5t28 -15.5t42 -10t51 -9q36 -6 72 -15.5t65 -28.5t47.5 -50.5t18.5 -81.5q0 -43 -18 -76t-50 -55t-76 -33t-96 -11z" />
    <glyph glyph-name="t" unicode="t" horiz-adv-x="389" 
d="M21 532h80v170h154v-170h104v-100h-104v-264q0 -30 15.5 -40.5t43.5 -10.5q8 0 18 0.5t18 1.5h8v-117q-13 -2 -36 -5t-55 -3q-37 0 -67.5 6.5t-52.5 23t-34 43t-12 67.5v298h-80v100z" />
    <glyph glyph-name="u" unicode="u" horiz-adv-x="599" 
d="M398 0v76h-3q-29 -47 -67 -69t-93 -22q-91 0 -139 53.5t-48 141.5v352h157v-322q0 -45 21.5 -69t63.5 -24q48 0 75 32t27 82v301h155v-532h-149z" />
    <glyph glyph-name="v" unicode="v" horiz-adv-x="549" 
d="M5 532h162l65 -214q8 -27 15.5 -59t13.5 -61q7 -33 13 -66h3q6 33 13 66q6 29 13.5 61t15.5 59l67 214h158l-186 -532h-169z" />
    <glyph glyph-name="w" unicode="w" horiz-adv-x="822" 
d="M7 532h160l56 -207q6 -24 11.5 -52.5t10.5 -53.5q5 -29 9 -59h2q6 29 11 59q5 26 10.5 55t12.5 53l54 205h133l56 -205q7 -24 13 -53t11 -55q5 -30 11 -60h2q4 29 9 59q5 25 10.5 54t12.5 53l57 207h155l-165 -532h-148l-56 217q-6 23 -12 51t-11 53q-5 29 -10 59h-2
q-6 -30 -12 -59q-5 -25 -11 -53t-12 -51l-58 -217h-146z" />
    <glyph glyph-name="x" unicode="x" horiz-adv-x="593" 
d="M204 279l-169 253h179l31 -50q10 -17 20 -36.5t18 -36.5q10 -20 18 -40h2q8 20 18 40q8 17 17.5 36.5t18.5 36.5l29 50h166l-163 -250l187 -282h-182l-41 68q-10 17 -20 37.5t-18 38.5l-20 42h-2l-21 -42q-9 -18 -19.5 -38.5t-21.5 -37.5l-43 -68h-171z" />
    <glyph glyph-name="y" unicode="y" horiz-adv-x="557" 
d="M168 -178h-18t-35 0.5t-35 1t-17 0.5v123h8q1 0 8.5 -0.5t16.5 -0.5h16.5h9.5q71 0 76 54q0 14 -7 42.5t-21 64.5l-165 425h165l68 -204q9 -27 17 -59.5t14 -60.5q7 -33 13 -65h2q7 33 15 66l15 60t17 59l65 204h156l-190 -545q-16 -46 -34 -77.5t-41 -51t-52 -28
t-67 -8.5z" />
    <glyph glyph-name="z" unicode="z" horiz-adv-x="538" 
d="M36 117l190 215q12 13 27 28t29 27q16 14 33 28v3q-21 -2 -41 -4q-17 -2 -37 -3t-37 -1h-141v122h432v-113l-183 -208q-14 -15 -31 -31t-33 -30q-18 -16 -37 -31v-3q22 1 44 3q19 2 40.5 3t39.5 1h174v-123h-469v117z" />
    <glyph glyph-name="braceleft" unicode="{" horiz-adv-x="424" 
d="M355 -141q-58 0 -101 9t-71.5 31.5t-42.5 60.5t-14 96v132q0 38 -21 56.5t-75 20.5v117q54 2 75 20.5t21 56.5v130q0 57 14 95t42.5 60t71.5 31t101 9h28v-122h-22q-44 0 -64.5 -13.5t-20.5 -59.5v-149q0 -51 -20.5 -76.5t-63.5 -38.5v-3q43 -13 63.5 -38t20.5 -76v-153
q0 -45 20 -60t65 -15h22v-121h-28v0z" />
    <glyph glyph-name="bar" unicode="|" horiz-adv-x="242" 
d="M71 784h100v-925h-100v925z" />
    <glyph glyph-name="braceright" unicode="}" horiz-adv-x="424" 
d="M43 -20h21q45 0 65 14.5t20 60.5v152q0 51 20.5 76t63.5 38v3q-43 14 -63.5 39.5t-20.5 75.5v150q0 46 -20 59.5t-65 13.5h-21v122h27q58 0 101 -9t71.5 -31.5t42.5 -60t14 -95.5v-130q0 -37 21 -56t74 -21v-116q-53 -2 -74 -20.5t-21 -56.5v-132q0 -58 -14 -96
t-42.5 -60.5t-71.5 -31.5t-101 -9h-27v121z" />
    <glyph glyph-name="asciitilde" unicode="~" horiz-adv-x="471" 
d="M323 257q-25 0 -46 6.5t-39 14.5q-20 9 -35 15.5t-29 6.5q-33 0 -38 -46h-101q1 89 37 131t88 42q26 0 46 -7t37 -15t31.5 -15t29.5 -7q20 0 27.5 10.5t9.5 33.5h100q0 -79 -29.5 -124.5t-88.5 -45.5z" />
    <glyph glyph-name="uni00A0" unicode="&#xa0;" horiz-adv-x="237" 
 />
    <glyph glyph-name="exclamdown" unicode="&#xa1;" horiz-adv-x="289" 
d="M226 54v-186h-163v186l41 299h81zM228 448h-167v164h167v-164z" />
    <glyph glyph-name="cent" unicode="&#xa2;" horiz-adv-x="580" 
d="M273 -15q-57 6 -102.5 29.5t-77.5 61t-49 85.5t-17 104t17 105t49 86.5t77.5 61t102.5 28.5v89h63v-89q47 -4 85.5 -20.5t66.5 -42.5t45 -61t23 -76h-149q-6 31 -24.5 52t-46.5 29v-323q32 8 51 32t24 64h148q-2 -44 -18.5 -81.5t-45 -66t-69 -46.5t-90.5 -22v-113h-63
v114zM184 265q0 -63 22 -105.5t67 -54.5v321q-45 -12 -67 -54t-22 -107z" />
    <glyph glyph-name="sterling" unicode="&#xa3;" horiz-adv-x="627" 
d="M39 394h46q-13 24 -22 51t-9 62q0 46 17.5 86.5t52 70t85 46.5t116.5 17q58 0 105.5 -14t83.5 -43q39 -32 60 -78t23 -116h-158q0 65 -31 94.5t-81 29.5q-51 0 -76.5 -26.5t-25.5 -70.5q0 -31 10 -57t21 -52h144v-92h-118q0 -6 0.5 -11.5t0.5 -11.5q0 -40 -20.5 -75
t-71.5 -72l2 -3q29 15 52.5 21.5t49.5 6.5q27 0 44.5 -4t32.5 -9.5t30 -9.5t36 -4q30 0 55 13.5t42 30.5l69 -126q-31 -27 -73.5 -45t-90.5 -18q-38 0 -65.5 8t-51 17.5t-47 17.5t-54.5 8q-32 0 -58 -13.5t-51 -31.5l-80 119q45 29 73 65t28 81q0 12 -2 23.5t-5 22.5h-88v92
z" />
    <glyph glyph-name="currency" unicode="&#xa4;" horiz-adv-x="539" 
d="M19 169l68 68q-29 49 -29 113q0 63 29 112l-68 70l79 77l69 -71q45 25 102 25t102 -25l70 71l79 -77l-70 -70q15 -24 22 -52t7 -60q0 -62 -28 -112l69 -69l-79 -78l-70 71q-44 -24 -102 -24t-101 24l-70 -71zM269 232q45 0 69.5 32t24.5 86t-24.5 87t-69.5 33t-70.5 -33
t-25.5 -87t25.5 -86t70.5 -32z" />
    <glyph glyph-name="yen" unicode="&#xa5;" horiz-adv-x="677" 
d="M82 332h149l-219 381h180l72 -137q13 -25 26 -55.5t24 -56.5q12 -32 24 -63h2q12 31 25 63q11 26 24 56.5t26 55.5l71 137h177l-220 -381h150v-64h-177v-72h177v-65h-177v-131h-157v131h-177v65h177v72h-177v64z" />
    <glyph glyph-name="brokenbar" unicode="&#xa6;" horiz-adv-x="242" 
d="M71 784h100v-389h-100v389zM71 263h100v-404h-100v404z" />
    <glyph glyph-name="section" unicode="&#xa7;" horiz-adv-x="661" 
d="M344 -189q-59 0 -105 15.5t-78.5 43t-50.5 64.5t-19 80h145q1 -33 27 -57.5t75 -24.5q39 0 60.5 18.5t21.5 44.5q0 19 -11 31.5t-33 24.5t-55 24.5t-77 31.5q-48 20 -86 40t-64.5 43.5t-40.5 53.5t-14 69q0 55 35 92t95 51q-26 22 -42 46.5t-16 67.5q0 38 16.5 69.5
t46 54t70.5 35t90 12.5q104 0 166 -50t67 -138h-138q-3 30 -24 50t-65 20q-40 0 -58.5 -15t-18.5 -40q0 -16 9.5 -27.5t28.5 -22.5t48 -23t68 -28q41 -17 78.5 -35.5t66.5 -41.5t46.5 -53t17.5 -70q0 -64 -34 -97t-91 -47q31 -22 51.5 -52t20.5 -76q0 -44 -17 -78.5t-47 -58
t-72 -35.5t-93 -12zM342 347q-27 11 -53 22t-46 21q-29 -6 -45 -20.5t-16 -37.5q0 -14 6.5 -25.5t22.5 -22.5t42 -24t65 -31l97 -45q28 7 45.5 21.5t17.5 37.5q0 31 -33 52t-103 52z" />
    <glyph glyph-name="dieresis" unicode="&#xa8;" 
d="M297 744h148v-137h-148v137zM54 744h149v-137h-149v137z" />
    <glyph glyph-name="copyright" unicode="&#xa9;" horiz-adv-x="867" 
d="M434 -18q-80 0 -150 29t-122 81t-81.5 123t-29.5 154q0 84 29.5 155t81.5 122.5t122 81t150 29.5t150 -29.5t121.5 -81t81 -122.5t29.5 -155q0 -83 -29.5 -154t-81 -123t-121.5 -81t-150 -29zM434 32q69 0 128 25.5t102 70.5t67.5 107t24.5 134q0 73 -24.5 134.5
t-67.5 106.5t-102 70.5t-128 25.5t-128.5 -25.5t-103 -70.5t-68 -106.5t-24.5 -134.5q0 -72 24.5 -134t68 -107t103 -70.5t128.5 -25.5zM439 146q-49 0 -89 17t-68.5 47t-44 71.5t-15.5 90.5t15.5 91t44 72.5t68.5 47.5t89 17q35 0 65.5 -9t53.5 -25q32 -22 50 -54.5
t22 -71.5h-114q-5 26 -24.5 44t-53.5 18q-49 0 -72.5 -37t-23.5 -93q0 -57 26 -92.5t72 -35.5q36 0 56.5 20.5t24.5 49.5h113q-2 -35 -15.5 -65.5t-37.5 -52.5q-26 -24 -60 -37t-82 -13z" />
    <glyph glyph-name="ordfeminine" unicode="&#xaa;" horiz-adv-x="543" 
d="M359 245q-5 8 -10 23.5t-7 35.5h-1q-20 -30 -53.5 -50t-87.5 -20q-34 0 -64 9.5t-52 27.5t-34.5 44t-12.5 60q0 39 14.5 65.5t39.5 43t59 25.5t74 14q66 8 92 18.5t26 36.5q0 24 -16 39.5t-53 15.5q-41 0 -59 -17.5t-23 -43.5h-133q2 30 16 57.5t40 49.5t65 35t92 13
q45 0 78 -7t59 -21q73 -42 73 -140v-241q0 -54 17 -65v-8h-139zM243 326q46 0 73.5 25t27.5 63v59q-14 -8 -35.5 -14.5t-45.5 -11.5q-48 -9 -67.5 -23t-19.5 -43q0 -30 19.5 -42.5t47.5 -12.5z" />
    <glyph glyph-name="guillemotleft" unicode="&#xab;" horiz-adv-x="511" 
d="M284 192v146l168 152v-135l-96 -91v-2l96 -91v-131zM59 192v146l167 152v-135l-96 -91v-2l96 -91v-131z" />
    <glyph glyph-name="logicalnot" unicode="&#xac;" horiz-adv-x="544" 
d="M53 445h427v-287h-137v158h-290v129z" />
    <glyph glyph-name="uni00AD" unicode="&#xad;" horiz-adv-x="363" 
d="M40 333h283v-136h-283v136z" />
    <glyph glyph-name="registered" unicode="&#xae;" horiz-adv-x="658" 
d="M330 172q-61 0 -114 22t-92 61t-61.5 92.5t-22.5 116.5t22.5 117t61.5 93t92 61t114 22q60 0 112.5 -22t91.5 -61t61.5 -93t22.5 -117t-22.5 -116.5t-61.5 -92.5t-91.5 -61t-112.5 -22zM330 215q51 0 94.5 19t75.5 52t50 78.5t18 99.5t-18 99.5t-50 79t-75.5 52
t-94.5 18.5q-52 0 -95.5 -18.5t-75.5 -52t-50 -79t-18 -99.5t18 -99.5t50 -78.5t75.5 -52t95.5 -19zM211 615h145q45 0 76.5 -21.5t31.5 -63.5q0 -26 -12.5 -44t-44.5 -28v-2q26 -7 35.5 -18t13.5 -36q2 -11 3 -23.5t2 -23.5t3 -19t7 -9v-8h-79q-7 4 -8.5 25.5t-4.5 43.5
q-5 39 -45 39h-43v-108h-80v296zM291 486h51q42 0 42 34t-41 34h-52v-68z" />
    <glyph glyph-name="macron" unicode="&#xaf;" 
d="M96 726h312v-111h-312v111z" />
    <glyph glyph-name="degree" unicode="&#xb0;" horiz-adv-x="438" 
d="M220 392q-36 0 -68 13t-56 35.5t-38 52.5t-14 65q0 36 14 66.5t38 53.5t56 36t68 13q35 0 66.5 -13t55.5 -36t38 -53.5t14 -66.5q0 -35 -14 -65t-38 -52.5t-55.5 -35.5t-66.5 -13zM220 473q37 0 58.5 25t21.5 60t-21.5 61.5t-58.5 26.5q-38 0 -60 -26.5t-22 -61.5t22 -60
t60 -25z" />
    <glyph glyph-name="plusminus" unicode="&#xb1;" horiz-adv-x="606" 
d="M53 474h183v164h134v-164h183v-124h-183v-166h-134v166h-183v124zM53 120h500v-120h-500v120z" />
    <glyph glyph-name="uni00B2" unicode="&#xb2;" horiz-adv-x="436" 
d="M28 288q1 67 31 109t75 74q30 21 56.5 36.5t46.5 29.5t31.5 29t11.5 35q0 25 -14 40.5t-43 15.5q-32 0 -50.5 -21.5t-18.5 -56.5h-120q0 42 14 74.5t39 54.5t60.5 33.5t78.5 11.5q42 0 75.5 -11.5t56 -31t34.5 -46t12 -55.5q0 -24 -5.5 -43t-15 -34t-23 -27.5
t-28.5 -24.5q-17 -14 -37 -26t-39 -23t-36 -21.5t-28 -22.5h213v-99h-377v0z" />
    <glyph glyph-name="uni00B3" unicode="&#xb3;" horiz-adv-x="444" 
d="M227 276q-51 0 -89 12.5t-63.5 34.5t-39 50.5t-13.5 61.5h121q2 -25 19 -45t57 -20q33 0 50.5 15t17.5 42q0 31 -20 43t-57 12h-26v84h22q34 0 53 12t19 37q0 23 -16 36.5t-42 13.5q-34 0 -48.5 -18t-16.5 -39h-120q2 30 15.5 56.5t37.5 46.5t58.5 31.5t78.5 11.5
q39 0 71 -9t55 -25.5t36 -41t13 -55.5q0 -34 -21 -55t-59 -35v-1q45 -13 70 -39.5t25 -72.5q0 -37 -15 -64t-40.5 -45t-59.5 -26.5t-73 -8.5z" />
    <glyph glyph-name="acute" unicode="&#xb4;" 
d="M230 773h183l-119 -161h-117z" />
    <glyph glyph-name="mu" unicode="&#xb5;" horiz-adv-x="603" 
d="M52 532h157v-322q0 -45 21.5 -69t63.5 -24q48 0 75 32t27 82v301h155v-532h-149v76h-3q-20 -36 -55.5 -60t-89.5 -24q-17 0 -29 4.5t-18 10.5h-2q1 -15 2 -32q1 -14 1.5 -32.5t0.5 -35.5v-84h-157v709z" />
    <glyph glyph-name="paragraph" unicode="&#xb6;" horiz-adv-x="604" 
d="M236 351q-46 0 -83 14t-63 39.5t-40 61.5t-14 79q0 45 15.5 82t43.5 64q56 53 157 53h290v-884h-92v788h-79v-788h-92v491h-43z" />
    <glyph glyph-name="periodcentered" unicode="&#xb7;" horiz-adv-x="257" 
d="M45 412h167v-165h-167v165z" />
    <glyph glyph-name="cedilla" unicode="&#xb8;" 
d="M227 -210q-35 0 -64 8.5t-49 21.5l20 39q15 -7 32.5 -11.5t36.5 -4.5q20 0 34.5 7.5t14.5 25.5q0 15 -10 22t-25 7q-10 0 -17.5 -2t-15.5 -5l-18 26l71 76h67l-62 -55v-2q22 3 42.5 0.5t36 -11.5t25 -24t9.5 -36q0 -38 -35.5 -60t-92.5 -22z" />
    <glyph glyph-name="uni00B9" unicode="&#xb9;" horiz-adv-x="342" 
d="M144 564h-115v87q60 2 96 26t46 72h102v-461h-129v276z" />
    <glyph glyph-name="ordmasculine" unicode="&#xba;" horiz-adv-x="557" 
d="M279 232q-56 0 -102 19t-78.5 52t-50.5 78t-18 98t18 98.5t50.5 78.5t78.5 52t102 19q57 0 102.5 -19t78 -52t50 -78.5t17.5 -98.5t-17.5 -98t-50 -78t-78 -52t-102.5 -19zM278 333q51 0 77 40.5t26 105.5t-26 106t-77 41t-76.5 -41t-25.5 -106t25.5 -105.5t76.5 -40.5z
" />
    <glyph glyph-name="guillemotright" unicode="&#xbb;" horiz-adv-x="511" 
d="M226 337v-146l-167 -151v134l96 91v2l-96 91v132zM452 337v-146l-168 -151v134l97 91v2l-97 91v132z" />
    <glyph glyph-name="onequarter" unicode="&#xbc;" horiz-adv-x="908" 
d="M691 -14h-219v103l219 262h128v-276h67v-89h-67v-96h-128v96zM704 744h104l-628 -874h-103zM147 564h-115v87q60 2 96 26t46 72h102v-461h-129v276zM551 68q14 1 28 3q12 2 25.5 3t24.5 1h62v96q0 10 0.5 21.5t2.5 22.5q2 12 4 25h-2l-14 -21q-13 -20 -27 -37l-46 -57
q-18 -19 -37 -37q-11 -10 -21 -18v-2z" />
    <glyph glyph-name="onehalf" unicode="&#xbd;" horiz-adv-x="944" 
d="M147 564h-115v87q60 2 96 26t46 72h102v-461h-129v276zM695 744h104l-628 -874h-103zM533 -110q1 67 31 109t75 74q30 21 56.5 36.5t46.5 29.5t31.5 29t11.5 35q0 25 -14 40.5t-43 15.5q-32 0 -50.5 -21.5t-18.5 -56.5h-120q0 42 14 74.5t39 54.5t60.5 33.5t78.5 11.5
q42 0 75.5 -11.5t56 -31t34.5 -46t12 -55.5q0 -24 -5.5 -43t-15 -34t-23 -27.5t-28.5 -24.5q-17 -14 -37 -26t-39 -23t-36 -21.5t-28 -22.5h213v-99h-377z" />
    <glyph glyph-name="threequarters" unicode="&#xbe;" horiz-adv-x="996" 
d="M779 -14h-219v103l219 262h128v-276h67v-89h-67v-96h-128v96zM230 276q-51 0 -89 12.5t-63.5 34.5t-39 50.5t-13.5 61.5h121q2 -25 19 -45t57 -20q33 0 50.5 15t17.5 42q0 31 -20 43t-57 12h-26v84h22q34 0 53 12t19 37q0 23 -16 36.5t-42 13.5q-34 0 -48.5 -18
t-16.5 -39h-120q2 30 15.5 56.5t37.5 46.5t58.5 31.5t78.5 11.5q39 0 71 -9t55 -25.5t36 -41t13 -55.5q0 -34 -21 -55t-59 -35v-1q45 -13 70 -39.5t25 -72.5q0 -37 -15 -64t-40.5 -45t-59.5 -26.5t-73 -8.5zM783 744h104l-628 -874h-103zM639 68q14 1 28 3q12 2 25.5 3
t24.5 1h62v96q0 10 0.5 21.5t2.5 22.5q2 12 4 25h-2l-14 -21q-13 -20 -27 -37l-46 -57q-18 -19 -37 -37q-11 -10 -21 -18v-2z" />
    <glyph glyph-name="questiondown" unicode="&#xbf;" horiz-adv-x="580" 
d="M391 448h-166v164h166v-164zM376 353q0 -32 -4 -56t-13 -43.5t-23.5 -36.5t-35.5 -34q-17 -15 -35.5 -27.5t-34.5 -26.5t-26 -30.5t-10 -38.5q0 -35 27 -55t69 -20q51 0 81.5 31t32.5 78h155q-2 -50 -20.5 -94t-54 -76t-86 -50.5t-114.5 -18.5q-59 0 -106 14.5t-80 40.5
t-51 63.5t-18 82.5q0 56 23 92.5t52 59.5q41 32 68 49t43 34q12 14 16.5 27t4.5 35h140z" />
    <glyph glyph-name="Agrave" unicode="&#xc0;" horiz-adv-x="736" 
d="M278 744h177l269 -744h-180l-47 142h-270l-46 -142h-171zM267 264h191l-45 139q-12 38 -21 73.5t-15 63.5q-7 33 -12 61h-2q-8 -37 -16 -72q-8 -30 -16.5 -64.5t-17.5 -61.5zM193 916h189l43 -131h-122z" />
    <glyph glyph-name="Aacute" unicode="&#xc1;" horiz-adv-x="736" 
d="M278 744h177l269 -744h-180l-47 142h-270l-46 -142h-171zM267 264h191l-45 139q-12 38 -21 73.5t-15 63.5q-7 33 -12 61h-2q-8 -37 -16 -72q-8 -30 -16.5 -64.5t-17.5 -61.5zM341 916h189l-109 -131h-123z" />
    <glyph glyph-name="Acircumflex" unicode="&#xc2;" horiz-adv-x="736" 
d="M278 744h177l269 -744h-180l-47 142h-270l-46 -142h-171zM287 916h153l109 -131h-136l-46 57h-2l-48 -57h-138zM267 264h191l-45 139q-12 38 -21 73.5t-15 63.5q-7 33 -12 61h-2q-8 -37 -16 -72q-8 -30 -16.5 -64.5t-17.5 -61.5z" />
    <glyph glyph-name="Atilde" unicode="&#xc3;" horiz-adv-x="736" 
d="M278 744h177l269 -744h-180l-47 142h-270l-46 -142h-171zM440 786q-23 0 -42 6t-34.5 13.5t-29 14t-24.5 6.5q-13 0 -22.5 -10t-11.5 -31h-86q0 35 8.5 61.5t23.5 44t34.5 26.5t41.5 9q24 0 42 -6.5t33 -14t27.5 -13.5t24.5 -6q30 0 34 38h86q0 -63 -27.5 -100.5
t-77.5 -37.5zM267 264h191l-45 139q-12 38 -21 73.5t-15 63.5q-7 33 -12 61h-2q-8 -37 -16 -72q-8 -30 -16.5 -64.5t-17.5 -61.5z" />
    <glyph glyph-name="Adieresis" unicode="&#xc4;" horiz-adv-x="736" 
d="M278 744h177l269 -744h-180l-47 142h-270l-46 -142h-171zM267 264h191l-45 139q-12 38 -21 73.5t-15 63.5q-7 33 -12 61h-2q-8 -37 -16 -72q-8 -30 -16.5 -64.5t-17.5 -61.5zM169 919h153v-134h-153v134zM414 919h152v-134h-152v134z" />
    <glyph glyph-name="Aring" unicode="&#xc5;" horiz-adv-x="736" 
d="M278 744h177l269 -744h-180l-47 142h-270l-46 -142h-171zM368 776q-24 0 -44.5 8.5t-36.5 23t-25 34.5t-9 44q0 23 9 43t25 35t36.5 24t44.5 9q23 0 44 -9t36.5 -24t24.5 -35t9 -43q0 -24 -9 -44t-24.5 -34.5t-36.5 -23t-44 -8.5zM267 264h191l-45 139q-12 38 -21 73.5
t-15 63.5q-7 33 -12 61h-2q-8 -37 -16 -72q-8 -30 -16.5 -64.5t-17.5 -61.5zM368 833q23 0 37.5 15t14.5 38t-14.5 39t-37.5 16q-24 0 -38.5 -16t-14.5 -39t14.5 -38t38.5 -15z" />
    <glyph glyph-name="AE" unicode="&#xc6;" horiz-adv-x="1045" 
d="M993 601h-363v-149h311v-134h-311v-168h375v-150h-547v145h-231l-48 -145h-169l255 744h728v-143zM267 266h191v335h-81z" />
    <glyph glyph-name="Ccedilla" unicode="&#xc7;" horiz-adv-x="749" 
d="M359 -210q-35 0 -64 8.5t-49 21.5l20 39q15 -7 32.5 -11.5t36.5 -4.5q20 0 34.5 7.5t14.5 25.5q0 15 -10 22t-25 7q-10 0 -17.5 -2t-15.5 -5l-18 26l57 61q-73 7 -132.5 39t-102 82.5t-65.5 117.5t-23 145q0 83 26 154t73.5 123t115 81.5t150.5 29.5q62 0 114 -14.5
t90 -43.5q51 -37 79.5 -90t35.5 -116h-170q-8 53 -47.5 87.5t-102.5 34.5q-48 0 -83.5 -18.5t-59 -51.5t-35.5 -78t-12 -98t13.5 -98t38 -77.5t60 -51t79.5 -18.5q69 0 109 39t46 97h171q-4 -56 -28 -105.5t-62 -87.5q-40 -39 -92.5 -60t-123.5 -23l-43 -39v-2
q22 3 42.5 0.5t36 -11.5t25 -24t9.5 -36q0 -38 -35.5 -60t-92.5 -22z" />
    <glyph glyph-name="Egrave" unicode="&#xc8;" horiz-adv-x="670" 
d="M63 744h558v-142h-388v-148h336v-135h-336v-173h395v-146h-565v744zM178 916h189l43 -131h-122z" />
    <glyph glyph-name="Eacute" unicode="&#xc9;" horiz-adv-x="670" 
d="M63 744h558v-142h-388v-148h336v-135h-336v-173h395v-146h-565v744zM326 916h189l-109 -131h-123z" />
    <glyph glyph-name="Ecircumflex" unicode="&#xca;" horiz-adv-x="670" 
d="M63 744h558v-142h-388v-148h336v-135h-336v-173h395v-146h-565v744zM272 916h153l109 -131h-136l-46 57h-2l-48 -57h-138z" />
    <glyph glyph-name="Edieresis" unicode="&#xcb;" horiz-adv-x="670" 
d="M63 744h558v-142h-388v-148h336v-135h-336v-173h395v-146h-565v744zM154 919h153v-134h-153v134zM399 919h152v-134h-152v134z" />
    <glyph glyph-name="Igrave" unicode="&#xcc;" horiz-adv-x="298" 
d="M63 744h171v-744h-171v744zM-26 916h189l43 -131h-122z" />
    <glyph glyph-name="Iacute" unicode="&#xcd;" horiz-adv-x="298" 
d="M63 744h171v-744h-171v744zM122 916h189l-109 -131h-123z" />
    <glyph glyph-name="Icircumflex" unicode="&#xce;" horiz-adv-x="298" 
d="M63 744h171v-744h-171v744zM68 916h153l109 -131h-136l-46 57h-2l-48 -57h-138z" />
    <glyph glyph-name="Idieresis" unicode="&#xcf;" horiz-adv-x="298" 
d="M63 744h171v-744h-171v744zM185 919h142v-134h-142v134zM-30 919h143v-134h-143v134z" />
    <glyph glyph-name="Eth" unicode="&#xd0;" horiz-adv-x="752" 
d="M9 444h60v300h310q78 0 141.5 -27t108.5 -76t69 -119t24 -155q0 -83 -23 -150.5t-68 -115.5t-111 -74.5t-151 -26.5h-300v311h-60v133zM356 144q97 0 144.5 58t47.5 165q0 106 -47.5 169.5t-141.5 63.5h-121v-156h171v-133h-171v-167h118z" />
    <glyph glyph-name="Ntilde" unicode="&#xd1;" horiz-adv-x="753" 
d="M63 744h174l196 -323q17 -29 34.5 -62.5t32.5 -63.5l35 -70h2q-3 38 -5 77q-2 33 -3 71t-1 70v301h163v-744h-175l-194 319q-17 28 -35 63t-33 65q-18 35 -35 71h-2l4 -78q2 -33 3.5 -71t1.5 -70v-299h-163v744zM457 786q-23 0 -42 6t-34.5 13.5t-29 14t-24.5 6.5
q-13 0 -22.5 -10t-11.5 -31h-86q0 35 8.5 61.5t23.5 44t34.5 26.5t41.5 9q24 0 42 -6.5t33 -14t27.5 -13.5t24.5 -6q30 0 34 38h86q0 -63 -27.5 -100.5t-77.5 -37.5z" />
    <glyph glyph-name="Ograve" unicode="&#xd2;" horiz-adv-x="799" 
d="M400 -18q-85 0 -153 29t-116 81t-73.5 123t-25.5 154q0 84 25.5 155t73.5 122.5t116 81t153 29.5q84 0 152 -29.5t116 -81t73.5 -122.5t25.5 -155q0 -83 -25.5 -154t-73.5 -123t-116 -81t-152 -29zM401 122q48 0 84 19t60 52t36 78t12 98t-12 98.5t-36 79.5t-60 53
t-84 19t-84.5 -19t-61 -53t-37 -79.5t-12.5 -98.5t12.5 -98t37 -78t61 -52t84.5 -19zM225 916h189l43 -131h-122z" />
    <glyph glyph-name="Oacute" unicode="&#xd3;" horiz-adv-x="799" 
d="M400 -18q-85 0 -153 29t-116 81t-73.5 123t-25.5 154q0 84 25.5 155t73.5 122.5t116 81t153 29.5q84 0 152 -29.5t116 -81t73.5 -122.5t25.5 -155q0 -83 -25.5 -154t-73.5 -123t-116 -81t-152 -29zM401 122q48 0 84 19t60 52t36 78t12 98t-12 98.5t-36 79.5t-60 53
t-84 19t-84.5 -19t-61 -53t-37 -79.5t-12.5 -98.5t12.5 -98t37 -78t61 -52t84.5 -19zM373 916h189l-109 -131h-123z" />
    <glyph glyph-name="Ocircumflex" unicode="&#xd4;" horiz-adv-x="799" 
d="M400 -18q-85 0 -153 29t-116 81t-73.5 123t-25.5 154q0 84 25.5 155t73.5 122.5t116 81t153 29.5q84 0 152 -29.5t116 -81t73.5 -122.5t25.5 -155q0 -83 -25.5 -154t-73.5 -123t-116 -81t-152 -29zM401 122q48 0 84 19t60 52t36 78t12 98t-12 98.5t-36 79.5t-60 53
t-84 19t-84.5 -19t-61 -53t-37 -79.5t-12.5 -98.5t12.5 -98t37 -78t61 -52t84.5 -19zM319 916h153l109 -131h-136l-46 57h-2l-48 -57h-138z" />
    <glyph glyph-name="Otilde" unicode="&#xd5;" horiz-adv-x="799" 
d="M400 -18q-85 0 -153 29t-116 81t-73.5 123t-25.5 154q0 84 25.5 155t73.5 122.5t116 81t153 29.5q84 0 152 -29.5t116 -81t73.5 -122.5t25.5 -155q0 -83 -25.5 -154t-73.5 -123t-116 -81t-152 -29zM401 122q48 0 84 19t60 52t36 78t12 98t-12 98.5t-36 79.5t-60 53
t-84 19t-84.5 -19t-61 -53t-37 -79.5t-12.5 -98.5t12.5 -98t37 -78t61 -52t84.5 -19zM472 786q-23 0 -42 6t-34.5 13.5t-29 14t-24.5 6.5q-13 0 -22.5 -10t-11.5 -31h-86q0 35 8.5 61.5t23.5 44t34.5 26.5t41.5 9q24 0 42 -6.5t33 -14t27.5 -13.5t24.5 -6q30 0 34 38h86
q0 -63 -27.5 -100.5t-77.5 -37.5z" />
    <glyph glyph-name="Odieresis" unicode="&#xd6;" horiz-adv-x="799" 
d="M400 -18q-85 0 -153 29t-116 81t-73.5 123t-25.5 154q0 84 25.5 155t73.5 122.5t116 81t153 29.5q84 0 152 -29.5t116 -81t73.5 -122.5t25.5 -155q0 -83 -25.5 -154t-73.5 -123t-116 -81t-152 -29zM401 122q48 0 84 19t60 52t36 78t12 98t-12 98.5t-36 79.5t-60 53
t-84 19t-84.5 -19t-61 -53t-37 -79.5t-12.5 -98.5t12.5 -98t37 -78t61 -52t84.5 -19zM446 919h152v-134h-152v134zM201 919h153v-134h-153v134z" />
    <glyph glyph-name="multiply" unicode="&#xd7;" horiz-adv-x="605" 
d="M55 178l160 161l-159 160l87 88l159 -160l160 160l88 -88l-160 -160l160 -160l-88 -88l-160 160l-160 -160z" />
    <glyph glyph-name="Oslash" unicode="&#xd8;" horiz-adv-x="799" 
d="M24 7l92 103q-41 51 -62.5 116.5t-21.5 142.5q0 84 25.5 155t73.5 122.5t116 81t153 29.5q68 0 125.5 -19.5t102.5 -54.5l86 97l60 -51l-90 -102q40 -51 61.5 -116.5t21.5 -141.5q0 -83 -25.5 -154t-73.5 -123t-116 -81t-152 -29q-69 0 -125.5 18.5t-101.5 53.5l-89 -99z
M206 369q0 -77 22 -133l300 335q-23 23 -54.5 35.5t-72.5 12.5q-48 0 -84.5 -19t-61 -53t-37 -79.5t-12.5 -98.5zM401 122q48 0 84 19t60.5 52t36.5 78t12 98q0 37 -5.5 70.5t-16.5 62.5l-298 -335q48 -45 127 -45z" />
    <glyph glyph-name="Ugrave" unicode="&#xd9;" horiz-adv-x="724" 
d="M364 -14q-152 0 -230.5 70.5t-78.5 202.5v485h170v-489q0 -61 33.5 -96t105.5 -35q67 0 101 36.5t34 97.5v486h171v-485q0 -131 -78 -202t-228 -71zM195 916h189l43 -131h-122z" />
    <glyph glyph-name="Uacute" unicode="&#xda;" horiz-adv-x="724" 
d="M364 -14q-152 0 -230.5 70.5t-78.5 202.5v485h170v-489q0 -61 33.5 -96t105.5 -35q67 0 101 36.5t34 97.5v486h171v-485q0 -131 -78 -202t-228 -71zM342 916h189l-109 -131h-123z" />
    <glyph glyph-name="Ucircumflex" unicode="&#xdb;" horiz-adv-x="724" 
d="M364 -14q-152 0 -230.5 70.5t-78.5 202.5v485h170v-489q0 -61 33.5 -96t105.5 -35q67 0 101 36.5t34 97.5v486h171v-485q0 -131 -78 -202t-228 -71zM282 916h153l109 -131h-136l-46 57h-2l-48 -57h-138z" />
    <glyph glyph-name="Udieresis" unicode="&#xdc;" horiz-adv-x="724" 
d="M364 -14q-152 0 -230.5 70.5t-78.5 202.5v485h170v-489q0 -61 33.5 -96t105.5 -35q67 0 101 36.5t34 97.5v486h171v-485q0 -131 -78 -202t-228 -71zM409 919h152v-134h-152v134zM164 919h153v-134h-153v134z" />
    <glyph glyph-name="Yacute" unicode="&#xdd;" horiz-adv-x="702" 
d="M266 278l-255 466h187l80 -156q13 -26 26 -56.5t24 -57.5q12 -32 24 -63h2q12 31 25 63q11 27 24.5 57.5t26.5 56.5l81 156h180l-255 -464v-280h-170v278zM325 916h189l-109 -131h-123z" />
    <glyph glyph-name="Thorn" unicode="&#xde;" horiz-adv-x="686" 
d="M63 744h173v-107h158q66 0 115.5 -18.5t83.5 -52.5q34 -33 52.5 -77t18.5 -100q0 -53 -17.5 -97t-50 -75.5t-78.5 -49t-104 -17.5h-178v-150h-173v744zM236 492v-207h145q54 0 82.5 28.5t28.5 76.5t-28.5 75t-81.5 27h-146z" />
    <glyph glyph-name="germandbls" unicode="&#xdf;" horiz-adv-x="606" 
d="M341 -9q-42 0 -68 8v116q2 -1 5 -1q69 -8 107 25t38 105q0 60 -31 93.5t-95 33.5h-21v92h10q49 0 78.5 22t29.5 67q0 38 -22.5 61.5t-64.5 23.5q-45 0 -71.5 -26t-26.5 -77v-534h-157v539q0 50 17.5 90.5t50 68.5t79.5 43t106 15q53 0 96.5 -13.5t74.5 -38.5t48 -60.5
t17 -78.5q0 -51 -25.5 -85.5t-82.5 -53.5v-3q72 -20 108.5 -69t36.5 -123q0 -59 -18 -104t-50 -75t-75 -45.5t-94 -15.5z" />
    <glyph glyph-name="agrave" unicode="&#xe0;" horiz-adv-x="580" 
d="M393 0q-6 9 -11 25.5t-7 39.5h-2q-26 -37 -62.5 -58t-98.5 -21q-39 0 -72.5 10.5t-58 30.5t-38 50.5t-13.5 69.5q0 44 16.5 73t44.5 47t66 27.5t82 14.5q71 10 102.5 24t31.5 44q0 29 -19 46.5t-60 17.5q-45 0 -67.5 -19t-25.5 -51h-145q1 34 16 66t44 56.5t73 39
t103 14.5q51 0 88 -7.5t65 -24.5q42 -24 61.5 -64.5t19.5 -94.5v-273q0 -61 20 -74v-9h-153zM123 773h183l53 -161h-116zM261 89q53 0 84.5 29t31.5 73v69q-17 -11 -41.5 -17.5t-50.5 -12.5q-52 -11 -77 -27t-25 -51t23 -49t55 -14z" />
    <glyph glyph-name="aacute" unicode="&#xe1;" horiz-adv-x="580" 
d="M393 0q-6 9 -11 25.5t-7 39.5h-2q-26 -37 -62.5 -58t-98.5 -21q-39 0 -72.5 10.5t-58 30.5t-38 50.5t-13.5 69.5q0 44 16.5 73t44.5 47t66 27.5t82 14.5q71 10 102.5 24t31.5 44q0 29 -19 46.5t-60 17.5q-45 0 -67.5 -19t-25.5 -51h-145q1 34 16 66t44 56.5t73 39
t103 14.5q51 0 88 -7.5t65 -24.5q42 -24 61.5 -64.5t19.5 -94.5v-273q0 -61 20 -74v-9h-153zM285 773h183l-119 -161h-117zM261 89q53 0 84.5 29t31.5 73v69q-17 -11 -41.5 -17.5t-50.5 -12.5q-52 -11 -77 -27t-25 -51t23 -49t55 -14z" />
    <glyph glyph-name="acircumflex" unicode="&#xe2;" horiz-adv-x="580" 
d="M393 0q-6 9 -11 25.5t-7 39.5h-2q-26 -37 -62.5 -58t-98.5 -21q-39 0 -72.5 10.5t-58 30.5t-38 50.5t-13.5 69.5q0 44 16.5 73t44.5 47t66 27.5t82 14.5q71 10 102.5 24t31.5 44q0 29 -19 46.5t-60 17.5q-45 0 -67.5 -19t-25.5 -51h-145q1 34 16 66t44 56.5t73 39
t103 14.5q51 0 88 -7.5t65 -24.5q42 -24 61.5 -64.5t19.5 -94.5v-273q0 -61 20 -74v-9h-153zM214 762h153l109 -148h-135l-47 78h-2l-49 -78h-137zM261 89q53 0 84.5 29t31.5 73v69q-17 -11 -41.5 -17.5t-50.5 -12.5q-52 -11 -77 -27t-25 -51t23 -49t55 -14z" />
    <glyph glyph-name="atilde" unicode="&#xe3;" horiz-adv-x="580" 
d="M393 0q-6 9 -11 25.5t-7 39.5h-2q-26 -37 -62.5 -58t-98.5 -21q-39 0 -72.5 10.5t-58 30.5t-38 50.5t-13.5 69.5q0 44 16.5 73t44.5 47t66 27.5t82 14.5q71 10 102.5 24t31.5 44q0 29 -19 46.5t-60 17.5q-45 0 -67.5 -19t-25.5 -51h-145q1 34 16 66t44 56.5t73 39
t103 14.5q51 0 88 -7.5t65 -24.5q42 -24 61.5 -64.5t19.5 -94.5v-273q0 -61 20 -74v-9h-153zM366 613q-23 0 -42 6.5t-35 14t-29.5 14t-24.5 6.5q-13 0 -23 -10.5t-12 -31.5h-84q0 35 8.5 61.5t23.5 44t34.5 26.5t41.5 9q24 0 42.5 -6.5t33.5 -14l28 -14t25 -6.5q30 0 34 39
h84q0 -63 -27.5 -100.5t-77.5 -37.5zM261 89q53 0 84.5 29t31.5 73v69q-17 -11 -41.5 -17.5t-50.5 -12.5q-52 -11 -77 -27t-25 -51t23 -49t55 -14z" />
    <glyph glyph-name="adieresis" unicode="&#xe4;" horiz-adv-x="580" 
d="M393 0q-6 9 -11 25.5t-7 39.5h-2q-26 -37 -62.5 -58t-98.5 -21q-39 0 -72.5 10.5t-58 30.5t-38 50.5t-13.5 69.5q0 44 16.5 73t44.5 47t66 27.5t82 14.5q71 10 102.5 24t31.5 44q0 29 -19 46.5t-60 17.5q-45 0 -67.5 -19t-25.5 -51h-145q1 34 16 66t44 56.5t73 39
t103 14.5q51 0 88 -7.5t65 -24.5q42 -24 61.5 -64.5t19.5 -94.5v-273q0 -61 20 -74v-9h-153zM261 89q53 0 84.5 29t31.5 73v69q-17 -11 -41.5 -17.5t-50.5 -12.5q-52 -11 -77 -27t-25 -51t23 -49t55 -14zM98 744h149v-137h-149v137zM341 744h148v-137h-148v137z" />
    <glyph glyph-name="aring" unicode="&#xe5;" horiz-adv-x="580" 
d="M393 0q-6 9 -11 25.5t-7 39.5h-2q-26 -37 -62.5 -58t-98.5 -21q-39 0 -72.5 10.5t-58 30.5t-38 50.5t-13.5 69.5q0 44 16.5 73t44.5 47t66 27.5t82 14.5q71 10 102.5 24t31.5 44q0 29 -19 46.5t-60 17.5q-45 0 -67.5 -19t-25.5 -51h-145q1 34 16 66t44 56.5t73 39
t103 14.5q51 0 88 -7.5t65 -24.5q42 -24 61.5 -64.5t19.5 -94.5v-273q0 -61 20 -74v-9h-153zM294 596q-24 0 -44.5 8.5t-36.5 23t-25 34.5t-9 44q0 23 9 43t25 35t36.5 24t44.5 9q23 0 44 -9t36.5 -24t24.5 -35t9 -43q0 -24 -9 -44t-24.5 -34.5t-36.5 -23t-44 -8.5zM261 89
q53 0 84.5 29t31.5 73v69q-17 -11 -41.5 -17.5t-50.5 -12.5q-52 -11 -77 -27t-25 -51t23 -49t55 -14zM294 653q23 0 37.5 15t14.5 38t-14.5 39t-37.5 16q-24 0 -38.5 -16t-14.5 -39t14.5 -38t38.5 -15z" />
    <glyph glyph-name="ae" unicode="&#xe6;" horiz-adv-x="933" 
d="M233 -15q-97 0 -150 41.5t-53 120.5q0 44 16.5 73t44.5 47t66 27.5t82 14.5q71 10 102.5 24t31.5 44q0 29 -19 46.5t-60 17.5q-45 0 -67.5 -19t-25.5 -51h-145q1 34 16 66t44 56.5t73 39t103 14.5q128 0 181 -66q31 31 73.5 48.5t97.5 17.5q57 0 99.5 -16.5t77.5 -49.5
q48 -44 67 -110t18 -145h-379q7 -60 37.5 -94t87.5 -34q36 0 57.5 13.5t34.5 38.5h153q-10 -35 -30.5 -65.5t-51.5 -53t-72 -35t-92 -12.5q-75 0 -126 27t-81 75q-38 -53 -87 -77t-124 -24zM261 89q53 0 84.5 29t31.5 73v69q-17 -11 -41.5 -17.5t-50.5 -12.5
q-52 -11 -77 -27t-25 -51t23 -49t55 -14zM642 436q-54 0 -80 -32t-34 -87h218q-4 56 -31.5 87.5t-72.5 31.5z" />
    <glyph glyph-name="ccedilla" unicode="&#xe7;" horiz-adv-x="577" 
d="M270 -210q-35 0 -64 8.5t-49 21.5l20 39q15 -7 32.5 -11.5t36.5 -4.5q20 0 34.5 7.5t14.5 25.5q0 15 -10 22t-25 7q-10 0 -17.5 -2t-15.5 -5l-18 26l57 62q-55 6 -99 30t-75 61t-48 85t-17 103q0 60 19.5 111.5t55.5 89.5t87 59.5t114 21.5q53 0 96 -14.5t74.5 -40.5
t51.5 -62.5t27 -79.5h-152q-8 37 -32 58.5t-63 21.5q-60 0 -89.5 -45t-29.5 -120q0 -73 29.5 -118t89.5 -45q44 0 69.5 25t30.5 71h151q-2 -43 -18.5 -81t-46 -66.5t-71 -46t-92.5 -20.5l-43 -39v-2q22 3 42.5 0.5t36 -11.5t25 -24t9.5 -36q0 -38 -35.5 -60t-92.5 -22z" />
    <glyph glyph-name="egrave" unicode="&#xe8;" horiz-adv-x="596" 
d="M308 -16q-65 0 -117 21.5t-88.5 59.5t-56 89t-19.5 111t20 111.5t56 89.5t86 59.5t111 21.5q57 0 102.5 -18t80.5 -50q45 -44 66 -109t20 -144h-388q8 -60 40 -94t89 -34q37 0 60.5 13.5t36.5 38.5h152q-10 -35 -31.5 -65.5t-53 -53t-73.5 -35t-93 -12.5zM130 773h183
l53 -161h-116zM300 436q-54 0 -82 -32t-36 -87h227q-4 56 -33 87.5t-76 31.5z" />
    <glyph glyph-name="eacute" unicode="&#xe9;" horiz-adv-x="596" 
d="M308 -16q-65 0 -117 21.5t-88.5 59.5t-56 89t-19.5 111t20 111.5t56 89.5t86 59.5t111 21.5q57 0 102.5 -18t80.5 -50q45 -44 66 -109t20 -144h-388q8 -60 40 -94t89 -34q37 0 60.5 13.5t36.5 38.5h152q-10 -35 -31.5 -65.5t-53 -53t-73.5 -35t-93 -12.5zM292 773h183
l-119 -161h-117zM300 436q-54 0 -82 -32t-36 -87h227q-4 56 -33 87.5t-76 31.5z" />
    <glyph glyph-name="ecircumflex" unicode="&#xea;" horiz-adv-x="596" 
d="M308 -16q-65 0 -117 21.5t-88.5 59.5t-56 89t-19.5 111t20 111.5t56 89.5t86 59.5t111 21.5q57 0 102.5 -18t80.5 -50q45 -44 66 -109t20 -144h-388q8 -60 40 -94t89 -34q37 0 60.5 13.5t36.5 38.5h152q-10 -35 -31.5 -65.5t-53 -53t-73.5 -35t-93 -12.5zM221 762h153
l109 -148h-135l-47 78h-2l-49 -78h-137zM300 436q-54 0 -82 -32t-36 -87h227q-4 56 -33 87.5t-76 31.5z" />
    <glyph glyph-name="edieresis" unicode="&#xeb;" horiz-adv-x="596" 
d="M308 -16q-65 0 -117 21.5t-88.5 59.5t-56 89t-19.5 111t20 111.5t56 89.5t86 59.5t111 21.5q57 0 102.5 -18t80.5 -50q45 -44 66 -109t20 -144h-388q8 -60 40 -94t89 -34q37 0 60.5 13.5t36.5 38.5h152q-10 -35 -31.5 -65.5t-53 -53t-73.5 -35t-93 -12.5zM300 436
q-54 0 -82 -32t-36 -87h227q-4 56 -33 87.5t-76 31.5zM105 744h149v-137h-149v137zM348 744h148v-137h-148v137z" />
    <glyph glyph-name="igrave" unicode="&#xec;" horiz-adv-x="261" 
d="M52 532h157v-532h-157v532zM-40 773h183l53 -161h-116z" />
    <glyph glyph-name="iacute" unicode="&#xed;" horiz-adv-x="261" 
d="M52 532h157v-532h-157v532zM122 773h183l-119 -161h-117z" />
    <glyph glyph-name="icircumflex" unicode="&#xee;" horiz-adv-x="261" 
d="M52 532h157v-532h-157v532zM51 762h153l109 -148h-135l-47 78h-2l-49 -78h-137z" />
    <glyph glyph-name="idieresis" unicode="&#xef;" horiz-adv-x="261" 
d="M52 532h157v-532h-157v532zM158 744h128v-137h-128v137zM-25 744h129v-137h-129v137z" />
    <glyph glyph-name="eth" unicode="&#xf0;" horiz-adv-x="616" 
d="M138 621l120 37q-28 23 -55 42.5t-51 36.5v7h199q13 -9 26 -19t27 -22l101 31l29 -62l-76 -24q26 -31 50 -68t42 -80t28.5 -92t10.5 -103q0 -68 -15.5 -126.5t-49.5 -102t-87 -68.5t-128 -25q-64 0 -116 21.5t-89 59.5t-57 89.5t-20 111.5t17.5 109.5t49 85t76.5 55
t100 19.5q34 0 66.5 -10.5t59.5 -40.5h3q-14 34 -35.5 64t-47.5 57l-149 -47zM308 97q59 0 90 46t31 122q0 75 -31 119.5t-91 44.5t-90.5 -45t-30.5 -120t31 -121t91 -46z" />
    <glyph glyph-name="ntilde" unicode="&#xf1;" horiz-adv-x="604" 
d="M204 451h3q25 48 66.5 72t97.5 24q88 0 136.5 -53.5t48.5 -143.5v-350h-156v320q0 44 -22.5 70.5t-66.5 26.5q-46 0 -74 -33t-28 -84v-300h-157v532h152v-81zM379 613q-23 0 -42 6.5t-35 14t-29.5 14t-24.5 6.5q-13 0 -23 -10.5t-12 -31.5h-84q0 35 8.5 61.5t23.5 44
t34.5 26.5t41.5 9q24 0 42.5 -6.5t33.5 -14l28 -14t25 -6.5q30 0 34 39h84q0 -63 -27.5 -100.5t-77.5 -37.5z" />
    <glyph glyph-name="ograve" unicode="&#xf2;" horiz-adv-x="616" 
d="M309 -17q-64 0 -116 21.5t-89 59.5t-57 89.5t-20 111.5t20 111.5t57 89.5t89 59.5t116 21.5q63 0 115 -21.5t88.5 -59.5t56.5 -89.5t20 -111.5t-20 -111.5t-56.5 -89.5t-88.5 -59.5t-115 -21.5zM308 97q59 0 90.5 46.5t31.5 121.5q0 76 -31.5 123t-90.5 47q-60 0 -91 -47
t-31 -123q0 -75 31 -121.5t91 -46.5zM138 773h183l53 -161h-116z" />
    <glyph glyph-name="oacute" unicode="&#xf3;" horiz-adv-x="616" 
d="M309 -17q-64 0 -116 21.5t-89 59.5t-57 89.5t-20 111.5t20 111.5t57 89.5t89 59.5t116 21.5q63 0 115 -21.5t88.5 -59.5t56.5 -89.5t20 -111.5t-20 -111.5t-56.5 -89.5t-88.5 -59.5t-115 -21.5zM308 97q59 0 90.5 46.5t31.5 121.5q0 76 -31.5 123t-90.5 47q-60 0 -91 -47
t-31 -123q0 -75 31 -121.5t91 -46.5zM300 773h183l-119 -161h-117z" />
    <glyph glyph-name="ocircumflex" unicode="&#xf4;" horiz-adv-x="616" 
d="M309 -17q-64 0 -116 21.5t-89 59.5t-57 89.5t-20 111.5t20 111.5t57 89.5t89 59.5t116 21.5q63 0 115 -21.5t88.5 -59.5t56.5 -89.5t20 -111.5t-20 -111.5t-56.5 -89.5t-88.5 -59.5t-115 -21.5zM308 97q59 0 90.5 46.5t31.5 121.5q0 76 -31.5 123t-90.5 47q-60 0 -91 -47
t-31 -123q0 -75 31 -121.5t91 -46.5zM229 762h153l109 -148h-135l-47 78h-2l-49 -78h-137z" />
    <glyph glyph-name="otilde" unicode="&#xf5;" horiz-adv-x="616" 
d="M309 -17q-64 0 -116 21.5t-89 59.5t-57 89.5t-20 111.5t20 111.5t57 89.5t89 59.5t116 21.5q63 0 115 -21.5t88.5 -59.5t56.5 -89.5t20 -111.5t-20 -111.5t-56.5 -89.5t-88.5 -59.5t-115 -21.5zM308 97q59 0 90.5 46.5t31.5 121.5q0 76 -31.5 123t-90.5 47q-60 0 -91 -47
t-31 -123q0 -75 31 -121.5t91 -46.5zM381 613q-23 0 -42 6.5t-35 14t-29.5 14t-24.5 6.5q-13 0 -23 -10.5t-12 -31.5h-84q0 35 8.5 61.5t23.5 44t34.5 26.5t41.5 9q24 0 42.5 -6.5t33.5 -14l28 -14t25 -6.5q30 0 34 39h84q0 -63 -27.5 -100.5t-77.5 -37.5z" />
    <glyph glyph-name="odieresis" unicode="&#xf6;" horiz-adv-x="616" 
d="M309 -17q-64 0 -116 21.5t-89 59.5t-57 89.5t-20 111.5t20 111.5t57 89.5t89 59.5t116 21.5q63 0 115 -21.5t88.5 -59.5t56.5 -89.5t20 -111.5t-20 -111.5t-56.5 -89.5t-88.5 -59.5t-115 -21.5zM308 97q59 0 90.5 46.5t31.5 121.5q0 76 -31.5 123t-90.5 47q-60 0 -91 -47
t-31 -123q0 -75 31 -121.5t91 -46.5zM356 744h148v-137h-148v137zM113 744h149v-137h-149v137z" />
    <glyph glyph-name="divide" unicode="&#xf7;" horiz-adv-x="603" 
d="M219 624h166v-147h-166v147zM59 406h486v-127h-486v127zM219 207h166v-147h-166v147z" />
    <glyph glyph-name="oslash" unicode="&#xf8;" horiz-adv-x="616" 
d="M19 -13l77 86q-33 38 -51 86.5t-18 105.5q0 60 20 111.5t57 89.5t89 59.5t116 21.5q50 0 92 -13.5t76 -37.5l71 79l49 -44l-72 -80q31 -37 47.5 -84.5t16.5 -101.5q0 -60 -20 -111.5t-56.5 -89.5t-88.5 -59.5t-115 -21.5q-48 0 -89 12t-74 35l-78 -87zM183 265
q0 -23 2.5 -44t8.5 -39l198 220q-15 16 -36 25t-48 9q-60 0 -92.5 -47.5t-32.5 -123.5zM308 96q59 0 91.5 47t32.5 122q0 39 -8 74l-195 -216q30 -27 79 -27z" />
    <glyph glyph-name="ugrave" unicode="&#xf9;" horiz-adv-x="599" 
d="M398 0v76h-3q-29 -47 -67 -69t-93 -22q-91 0 -139 53.5t-48 141.5v352h157v-322q0 -45 21.5 -69t63.5 -24q48 0 75 32t27 82v301h155v-532h-149zM126 773h183l53 -161h-116z" />
    <glyph glyph-name="uacute" unicode="&#xfa;" horiz-adv-x="599" 
d="M398 0v76h-3q-29 -47 -67 -69t-93 -22q-91 0 -139 53.5t-48 141.5v352h157v-322q0 -45 21.5 -69t63.5 -24q48 0 75 32t27 82v301h155v-532h-149zM288 773h183l-119 -161h-117z" />
    <glyph glyph-name="ucircumflex" unicode="&#xfb;" horiz-adv-x="599" 
d="M398 0v76h-3q-29 -47 -67 -69t-93 -22q-91 0 -139 53.5t-48 141.5v352h157v-322q0 -45 21.5 -69t63.5 -24q48 0 75 32t27 82v301h155v-532h-149zM217 762h153l109 -148h-135l-47 78h-2l-49 -78h-137z" />
    <glyph glyph-name="udieresis" unicode="&#xfc;" horiz-adv-x="599" 
d="M398 0v76h-3q-29 -47 -67 -69t-93 -22q-91 0 -139 53.5t-48 141.5v352h157v-322q0 -45 21.5 -69t63.5 -24q48 0 75 32t27 82v301h155v-532h-149zM101 744h149v-137h-149v137zM344 744h148v-137h-148v137z" />
    <glyph glyph-name="yacute" unicode="&#xfd;" horiz-adv-x="557" 
d="M168 -178h-18t-35 0.5t-35 1t-17 0.5v123h8q1 0 8.5 -0.5t16.5 -0.5h16.5h9.5q71 0 76 54q0 14 -7 42.5t-21 64.5l-165 425h165l68 -204q9 -27 17 -59.5t14 -60.5q7 -33 13 -65h2q7 33 15 66l15 60t17 59l65 204h156l-190 -545q-16 -46 -34 -77.5t-41 -51t-52 -28
t-67 -8.5zM274 773h183l-119 -161h-117z" />
    <glyph glyph-name="thorn" unicode="&#xfe;" horiz-adv-x="622" 
d="M367 -17q-54 0 -96 22t-65 61h-2q2 -15 3.5 -44t1.5 -72v-126h-157v920h157v-163q0 -34 -1.5 -66.5t-3.5 -56.5h3q27 41 66.5 65t94.5 24q53 0 95.5 -21t72 -58.5t45.5 -89t16 -112.5q0 -65 -16.5 -117.5t-46.5 -89t-72.5 -56.5t-94.5 -20zM326 105q54 0 83 42t29 114
t-28 116.5t-86 44.5q-30 0 -52.5 -12.5t-37.5 -34.5t-22.5 -51t-7.5 -63q0 -69 31 -112.5t91 -43.5z" />
    <glyph glyph-name="ydieresis" unicode="&#xff;" horiz-adv-x="557" 
d="M168 -178h-18t-35 0.5t-35 1t-17 0.5v123h8q1 0 8.5 -0.5t16.5 -0.5h16.5h9.5q71 0 76 54q0 14 -7 42.5t-21 64.5l-165 425h165l68 -204q9 -27 17 -59.5t14 -60.5q7 -33 13 -65h2q7 33 15 66l15 60t17 59l65 204h156l-190 -545q-16 -46 -34 -77.5t-41 -51t-52 -28
t-67 -8.5zM330 744h148v-137h-148v137zM87 744h149v-137h-149v137z" />
    <glyph glyph-name="Amacron" unicode="&#x100;" horiz-adv-x="736" 
d="M278 744h177l269 -744h-180l-47 142h-270l-46 -142h-171zM211 900h312v-111h-312v111zM267 264h191l-45 139q-12 38 -21 73.5t-15 63.5q-7 33 -12 61h-2q-8 -37 -16 -72q-8 -30 -16.5 -64.5t-17.5 -61.5z" />
    <glyph glyph-name="amacron" unicode="&#x101;" horiz-adv-x="580" 
d="M393 0q-6 9 -11 25.5t-7 39.5h-2q-26 -37 -62.5 -58t-98.5 -21q-39 0 -72.5 10.5t-58 30.5t-38 50.5t-13.5 69.5q0 44 16.5 73t44.5 47t66 27.5t82 14.5q71 10 102.5 24t31.5 44q0 29 -19 46.5t-60 17.5q-45 0 -67.5 -19t-25.5 -51h-145q1 34 16 66t44 56.5t73 39
t103 14.5q51 0 88 -7.5t65 -24.5q42 -24 61.5 -64.5t19.5 -94.5v-273q0 -61 20 -74v-9h-153zM137 726h312v-111h-312v111zM261 89q53 0 84.5 29t31.5 73v69q-17 -11 -41.5 -17.5t-50.5 -12.5q-52 -11 -77 -27t-25 -51t23 -49t55 -14z" />
    <glyph glyph-name="Abreve" unicode="&#x102;" horiz-adv-x="736" 
d="M278 744h177l269 -744h-180l-47 142h-270l-46 -142h-171zM370 779q-72 0 -116.5 40t-47.5 102h91q5 -18 22 -31.5t50 -13.5q31 0 48 14.5t22 30.5h89q-1 -30 -12.5 -55.5t-31.5 -45t-49 -30.5t-65 -11zM267 264h191l-45 139q-12 38 -21 73.5t-15 63.5q-7 33 -12 61h-2
q-8 -37 -16 -72q-8 -30 -16.5 -64.5t-17.5 -61.5z" />
    <glyph glyph-name="abreve" unicode="&#x103;" horiz-adv-x="580" 
d="M393 0q-6 9 -11 25.5t-7 39.5h-2q-26 -37 -62.5 -58t-98.5 -21q-39 0 -72.5 10.5t-58 30.5t-38 50.5t-13.5 69.5q0 44 16.5 73t44.5 47t66 27.5t82 14.5q71 10 102.5 24t31.5 44q0 29 -19 46.5t-60 17.5q-45 0 -67.5 -19t-25.5 -51h-145q1 34 16 66t44 56.5t73 39
t103 14.5q51 0 88 -7.5t65 -24.5q42 -24 61.5 -64.5t19.5 -94.5v-273q0 -61 20 -74v-9h-153zM296 606q-35 0 -64.5 11t-51.5 31t-35.5 48.5t-14.5 64.5h91q4 -27 22.5 -42.5t51.5 -15.5q31 0 49.5 16.5t22.5 41.5h89q-1 -35 -13 -63.5t-33 -48.5t-50 -31.5t-64 -11.5z
M261 89q53 0 84.5 29t31.5 73v69q-17 -11 -41.5 -17.5t-50.5 -12.5q-52 -11 -77 -27t-25 -51t23 -49t55 -14z" />
    <glyph glyph-name="Aogonek" unicode="&#x104;" horiz-adv-x="736" 
d="M647 -184q-60 0 -90.5 23t-30.5 61q0 20 7.5 36t18.5 28t25 21t28 15h-61l-47 142h-270l-46 -142h-171l268 744h177l267 -739q-36 -17 -52.5 -38.5t-16.5 -39.5q0 -27 33 -27q9 0 16 1t13 3h2v-79q-10 -4 -26.5 -6.5t-43.5 -2.5zM267 264h191l-45 139q-12 38 -21 73.5
t-15 63.5q-7 33 -12 61h-2q-8 -37 -16 -72q-8 -30 -16.5 -64.5t-17.5 -61.5z" />
    <glyph glyph-name="aogonek" unicode="&#x105;" horiz-adv-x="580" 
d="M480 -184q-60 0 -89.5 23t-29.5 61t23 61.5t50 38.5h-41q-6 9 -11 25.5t-7 39.5h-2q-26 -37 -62.5 -58t-98.5 -21q-39 0 -72.5 10.5t-58 30.5t-38 50.5t-13.5 69.5q0 44 16.5 73t44.5 47t66 27.5t82 14.5q71 10 102.5 24t31.5 44q0 29 -19 46.5t-60 17.5q-45 0 -67.5 -19
t-25.5 -51h-145q1 34 16 66t44 56.5t73 39t103 14.5q51 0 88 -7.5t65 -24.5q42 -24 61.5 -64.5t19.5 -94.5v-273q0 -61 20 -74v-9q-30 -14 -45 -34t-15 -39q0 -27 33 -27q9 0 16 1t13 3h2v-79q-10 -4 -26.5 -6.5t-43.5 -2.5zM261 89q53 0 84.5 29t31.5 73v69
q-17 -11 -41.5 -17.5t-50.5 -12.5q-52 -11 -77 -27t-25 -51t23 -49t55 -14z" />
    <glyph glyph-name="Cacute" unicode="&#x106;" horiz-adv-x="749" 
d="M397 -17q-81 0 -148.5 29t-115.5 80.5t-74.5 122.5t-26.5 154t26 154t73.5 123t115 81.5t150.5 29.5q62 0 114 -14.5t90 -43.5q51 -37 79.5 -90t35.5 -116h-170q-8 53 -47.5 87.5t-102.5 34.5q-48 0 -83.5 -18.5t-59 -51.5t-35.5 -78t-12 -98t13.5 -98t38 -77.5t60 -51
t79.5 -18.5q69 0 109 39t46 97h171q-4 -56 -28 -105.5t-62 -87.5q-42 -42 -100 -63t-136 -21zM359 916h189l-109 -131h-123z" />
    <glyph glyph-name="cacute" unicode="&#x107;" horiz-adv-x="577" 
d="M307 -17q-64 0 -115.5 21.5t-88 59.5t-56.5 89.5t-20 111.5t19.5 111.5t55.5 89.5t87 59.5t114 21.5q53 0 96 -14.5t74.5 -40.5t51.5 -62.5t27 -79.5h-152q-8 37 -32 58.5t-63 21.5q-60 0 -89.5 -45t-29.5 -120q0 -73 29.5 -118t89.5 -45q44 0 69.5 25t30.5 71h151
q-2 -45 -20.5 -84.5t-50.5 -68.5t-77.5 -45.5t-100.5 -16.5zM288 773h183l-119 -161h-117z" />
    <glyph glyph-name="Ccircumflex" unicode="&#x108;" horiz-adv-x="749" 
d="M397 -17q-81 0 -148.5 29t-115.5 80.5t-74.5 122.5t-26.5 154t26 154t73.5 123t115 81.5t150.5 29.5q62 0 114 -14.5t90 -43.5q51 -37 79.5 -90t35.5 -116h-170q-8 53 -47.5 87.5t-102.5 34.5q-48 0 -83.5 -18.5t-59 -51.5t-35.5 -78t-12 -98t13.5 -98t38 -77.5t60 -51
t79.5 -18.5q69 0 109 39t46 97h171q-4 -56 -28 -105.5t-62 -87.5q-42 -42 -100 -63t-136 -21zM305 916h153l109 -131h-136l-46 57h-2l-48 -57h-138z" />
    <glyph glyph-name="ccircumflex" unicode="&#x109;" horiz-adv-x="577" 
d="M307 -17q-64 0 -115.5 21.5t-88 59.5t-56.5 89.5t-20 111.5t19.5 111.5t55.5 89.5t87 59.5t114 21.5q53 0 96 -14.5t74.5 -40.5t51.5 -62.5t27 -79.5h-152q-8 37 -32 58.5t-63 21.5q-60 0 -89.5 -45t-29.5 -120q0 -73 29.5 -118t89.5 -45q44 0 69.5 25t30.5 71h151
q-2 -45 -20.5 -84.5t-50.5 -68.5t-77.5 -45.5t-100.5 -16.5zM217 762h153l109 -148h-135l-47 78h-2l-49 -78h-137z" />
    <glyph glyph-name="Cdotaccent" unicode="&#x10a;" horiz-adv-x="749" 
d="M397 -17q-81 0 -148.5 29t-115.5 80.5t-74.5 122.5t-26.5 154t26 154t73.5 123t115 81.5t150.5 29.5q62 0 114 -14.5t90 -43.5q51 -37 79.5 -90t35.5 -116h-170q-8 53 -47.5 87.5t-102.5 34.5q-48 0 -83.5 -18.5t-59 -51.5t-35.5 -78t-12 -98t13.5 -98t38 -77.5t60 -51
t79.5 -18.5q69 0 109 39t46 97h171q-4 -56 -28 -105.5t-62 -87.5q-42 -42 -100 -63t-136 -21zM306 920h159v-135h-159v135z" />
    <glyph glyph-name="cdotaccent" unicode="&#x10b;" horiz-adv-x="577" 
d="M307 -17q-64 0 -115.5 21.5t-88 59.5t-56.5 89.5t-20 111.5t19.5 111.5t55.5 89.5t87 59.5t114 21.5q53 0 96 -14.5t74.5 -40.5t51.5 -62.5t27 -79.5h-152q-8 37 -32 58.5t-63 21.5q-60 0 -89.5 -45t-29.5 -120q0 -73 29.5 -118t89.5 -45q44 0 69.5 25t30.5 71h151
q-2 -45 -20.5 -84.5t-50.5 -68.5t-77.5 -45.5t-100.5 -16.5zM217 744h159v-137h-159v137z" />
    <glyph glyph-name="Ccaron" unicode="&#x10c;" horiz-adv-x="749" 
d="M397 -17q-81 0 -148.5 29t-115.5 80.5t-74.5 122.5t-26.5 154t26 154t73.5 123t115 81.5t150.5 29.5q62 0 114 -14.5t90 -43.5q51 -37 79.5 -90t35.5 -116h-170q-8 53 -47.5 87.5t-102.5 34.5q-48 0 -83.5 -18.5t-59 -51.5t-35.5 -78t-12 -98t13.5 -98t38 -77.5t60 -51
t79.5 -18.5q69 0 109 39t46 97h171q-4 -56 -28 -105.5t-62 -87.5q-42 -42 -100 -63t-136 -21zM464 785h-153l-109 131h136l46 -57h2l48 57h138z" />
    <glyph glyph-name="ccaron" unicode="&#x10d;" horiz-adv-x="577" 
d="M307 -17q-64 0 -115.5 21.5t-88 59.5t-56.5 89.5t-20 111.5t19.5 111.5t55.5 89.5t87 59.5t114 21.5q53 0 96 -14.5t74.5 -40.5t51.5 -62.5t27 -79.5h-152q-8 37 -32 58.5t-63 21.5q-60 0 -89.5 -45t-29.5 -120q0 -73 29.5 -118t89.5 -45q44 0 69.5 25t30.5 71h151
q-2 -45 -20.5 -84.5t-50.5 -68.5t-77.5 -45.5t-100.5 -16.5zM375 612h-153l-109 148h135l47 -78h2l49 78h137z" />
    <glyph glyph-name="Dcaron" unicode="&#x10e;" horiz-adv-x="748" 
d="M65 744h310q78 0 141.5 -27t108.5 -76t69 -119t24 -155q0 -83 -23 -150.5t-68 -115.5t-111 -74.5t-151 -26.5h-300v744zM352 144q97 0 144.5 58t47.5 165q0 106 -47.5 169.5t-141.5 63.5h-119v-456h116zM425 785h-153l-109 131h136l46 -57h2l48 57h138z" />
    <glyph glyph-name="dcaron" unicode="&#x10f;" horiz-adv-x="622" 
d="M255 -17q-52 0 -94 19.5t-72 56t-46 89t-16 118.5q0 61 16.5 112.5t46.5 89t72.5 58.5t94.5 21q55 0 93 -23.5t65 -65.5h2q-2 25 -3 57t-1 66v163h157v-744h-151v78h-2q-23 -49 -65.5 -72t-96.5 -23zM297 109q57 0 89 43.5t32 113.5q0 35 -7.5 65t-22.5 51.5t-37.5 33.5
t-52.5 12q-56 0 -83.5 -44.5t-27.5 -116.5t27.5 -115t82.5 -43zM607 600q30 3 44 15.5t15 32.5h-59v96h131v-64q0 -69 -34.5 -98t-96.5 -32v50z" />
    <glyph glyph-name="Dcroat" unicode="&#x110;" horiz-adv-x="748" 
d="M5 444h60v300h310q78 0 141.5 -27t108.5 -76t69 -119t24 -155q0 -83 -23 -150.5t-68 -115.5t-111 -74.5t-151 -26.5h-300v311h-60v133zM352 144q97 0 144.5 58t47.5 165q0 106 -47.5 169.5t-141.5 63.5h-121v-156h171v-133h-171v-167h118z" />
    <glyph glyph-name="dcroat" unicode="&#x111;" horiz-adv-x="622" 
d="M276 676h137v68h157v-68h58v-80h-58v-596h-151v78h-2q-23 -49 -65.5 -72t-96.5 -23q-52 0 -94 19.5t-72 56t-46 89t-16 118.5q0 61 16.5 112.5t46.5 89t72.5 58.5t94.5 21q55 0 93 -23.5t65 -65.5h2q-2 25 -3 57t-1 66v15h-137v80zM297 109q57 0 89 43.5t32 113.5
q0 35 -7.5 65t-22.5 51.5t-37.5 33.5t-52.5 12q-56 0 -83.5 -44.5t-27.5 -116.5t27.5 -115t82.5 -43z" />
    <glyph glyph-name="Emacron" unicode="&#x112;" horiz-adv-x="670" 
d="M63 744h558v-142h-388v-148h336v-135h-336v-173h395v-146h-565v744zM196 900h312v-111h-312v111z" />
    <glyph glyph-name="emacron" unicode="&#x113;" horiz-adv-x="596" 
d="M308 -16q-65 0 -117 21.5t-88.5 59.5t-56 89t-19.5 111t20 111.5t56 89.5t86 59.5t111 21.5q57 0 102.5 -18t80.5 -50q45 -44 66 -109t20 -144h-388q8 -60 40 -94t89 -34q37 0 60.5 13.5t36.5 38.5h152q-10 -35 -31.5 -65.5t-53 -53t-73.5 -35t-93 -12.5zM144 726h312
v-111h-312v111zM300 436q-54 0 -82 -32t-36 -87h227q-4 56 -33 87.5t-76 31.5z" />
    <glyph glyph-name="Ebreve" unicode="&#x114;" horiz-adv-x="670" 
d="M63 744h558v-142h-388v-148h336v-135h-336v-173h395v-146h-565v744zM355 779q-72 0 -116.5 40t-47.5 102h91q5 -18 22 -31.5t50 -13.5q31 0 48 14.5t22 30.5h89q-1 -30 -12.5 -55.5t-31.5 -45t-49 -30.5t-65 -11z" />
    <glyph glyph-name="ebreve" unicode="&#x115;" horiz-adv-x="596" 
d="M308 -16q-65 0 -117 21.5t-88.5 59.5t-56 89t-19.5 111t20 111.5t56 89.5t86 59.5t111 21.5q57 0 102.5 -18t80.5 -50q45 -44 66 -109t20 -144h-388q8 -60 40 -94t89 -34q37 0 60.5 13.5t36.5 38.5h152q-10 -35 -31.5 -65.5t-53 -53t-73.5 -35t-93 -12.5zM303 606
q-35 0 -64.5 11t-51.5 31t-35.5 48.5t-14.5 64.5h91q4 -27 22.5 -42.5t51.5 -15.5q31 0 49.5 16.5t22.5 41.5h89q-1 -35 -13 -63.5t-33 -48.5t-50 -31.5t-64 -11.5zM300 436q-54 0 -82 -32t-36 -87h227q-4 56 -33 87.5t-76 31.5z" />
    <glyph glyph-name="Edotaccent" unicode="&#x116;" horiz-adv-x="670" 
d="M63 744h558v-142h-388v-148h336v-135h-336v-173h395v-146h-565v744zM273 920h159v-135h-159v135z" />
    <glyph glyph-name="edotaccent" unicode="&#x117;" horiz-adv-x="596" 
d="M308 -16q-65 0 -117 21.5t-88.5 59.5t-56 89t-19.5 111t20 111.5t56 89.5t86 59.5t111 21.5q57 0 102.5 -18t80.5 -50q45 -44 66 -109t20 -144h-388q8 -60 40 -94t89 -34q37 0 60.5 13.5t36.5 38.5h152q-10 -35 -31.5 -65.5t-53 -53t-73.5 -35t-93 -12.5zM221 744h159
v-137h-159v137zM300 436q-54 0 -82 -32t-36 -87h227q-4 56 -33 87.5t-76 31.5z" />
    <glyph glyph-name="Eogonek" unicode="&#x118;" horiz-adv-x="670" 
d="M63 744h558v-142h-388v-148h336v-135h-336v-173h395v-146h-59q-22 -17 -35.5 -36.5t-13.5 -36.5q0 -27 33 -27q9 0 16 1t13 3h2v-79q-10 -4 -26.5 -6.5t-43.5 -2.5q-60 0 -90.5 23t-30.5 61q0 37 20.5 61.5t48.5 38.5h-399v744z" />
    <glyph glyph-name="eogonek" unicode="&#x119;" horiz-adv-x="596" 
d="M383 -184q-60 0 -89.5 23t-29.5 61q0 30 17.5 50.5t38.5 33.5h-12q-65 0 -117 21.5t-88.5 59.5t-56 89t-19.5 111t20 111.5t56 89.5t86 59.5t111 21.5q57 0 102.5 -18t80.5 -50q45 -44 66 -109t20 -144h-388q8 -60 40 -94t89 -34q37 0 60.5 13.5t36.5 38.5h152
q-10 -35 -28 -60.5t-42 -48.5q-13 -12 -30 -25t-32.5 -27t-26.5 -29.5t-11 -32.5q0 -27 33 -27q9 0 16 1t13 3h2v-79q-10 -4 -26.5 -6.5t-43.5 -2.5zM300 436q-54 0 -82 -32t-36 -87h227q-4 56 -33 87.5t-76 31.5z" />
    <glyph glyph-name="Ecaron" unicode="&#x11a;" horiz-adv-x="670" 
d="M63 744h558v-142h-388v-148h336v-135h-336v-173h395v-146h-565v744zM431 785h-153l-109 131h136l46 -57h2l48 57h138z" />
    <glyph glyph-name="ecaron" unicode="&#x11b;" horiz-adv-x="596" 
d="M308 -16q-65 0 -117 21.5t-88.5 59.5t-56 89t-19.5 111t20 111.5t56 89.5t86 59.5t111 21.5q57 0 102.5 -18t80.5 -50q45 -44 66 -109t20 -144h-388q8 -60 40 -94t89 -34q37 0 60.5 13.5t36.5 38.5h152q-10 -35 -31.5 -65.5t-53 -53t-73.5 -35t-93 -12.5zM379 612h-153
l-109 148h135l47 -78h2l49 78h137zM300 436q-54 0 -82 -32t-36 -87h227q-4 56 -33 87.5t-76 31.5z" />
    <glyph glyph-name="Gcircumflex" unicode="&#x11c;" horiz-adv-x="784" 
d="M603 100h-3q-33 -62 -89 -89.5t-125 -27.5q-80 0 -143.5 27.5t-109.5 76.5q-49 53 -74 124.5t-25 157.5q0 96 33 175.5t96 132.5q45 38 103 59t132 21q70 0 126 -18t97 -50t66.5 -76.5t35.5 -97.5h-170q-14 42 -50 71.5t-100 29.5q-50 0 -86.5 -19t-61 -52t-36.5 -78.5
t-12 -97.5q0 -54 14 -99t39.5 -78t62 -51.5t82.5 -18.5q39 0 70.5 12.5t53 32.5t33.5 46.5t12 54.5v3h-150v127h311v-398h-118zM307 916h153l109 -131h-136l-46 57h-2l-48 -57h-138z" />
    <glyph glyph-name="gcircumflex" unicode="&#x11d;" horiz-adv-x="613" 
d="M299 -185q-110 0 -177 43.5t-79 122.5h153q8 -24 31.5 -39t69.5 -15q56 0 83.5 27t27.5 76v11q0 43 3 70h-4q-47 -78 -144 -78q-46 0 -88 16.5t-74 49t-51 79.5t-19 107q0 58 16.5 106.5t46.5 83t71 53.5t90 19q54 0 92 -19t61 -64h2v68h150v-485q0 -60 -18.5 -102.5
t-50.5 -71.5q-35 -30 -84 -44t-108 -14zM298 151q30 0 51.5 10.5t36 29.5t21 44t6.5 55q0 59 -29 98.5t-87 39.5q-52 0 -82 -37.5t-30 -101.5q0 -63 30 -100.5t83 -37.5zM226 762h153l109 -148h-135l-47 78h-2l-49 -78h-137z" />
    <glyph glyph-name="Gbreve" unicode="&#x11e;" horiz-adv-x="784" 
d="M603 100h-3q-33 -62 -89 -89.5t-125 -27.5q-80 0 -143.5 27.5t-109.5 76.5q-49 53 -74 124.5t-25 157.5q0 96 33 175.5t96 132.5q45 38 103 59t132 21q70 0 126 -18t97 -50t66.5 -76.5t35.5 -97.5h-170q-14 42 -50 71.5t-100 29.5q-50 0 -86.5 -19t-61 -52t-36.5 -78.5
t-12 -97.5q0 -54 14 -99t39.5 -78t62 -51.5t82.5 -18.5q39 0 70.5 12.5t53 32.5t33.5 46.5t12 54.5v3h-150v127h311v-398h-118zM390 779q-72 0 -116.5 40t-47.5 102h91q5 -18 22 -31.5t50 -13.5q31 0 48 14.5t22 30.5h89q-1 -30 -12.5 -55.5t-31.5 -45t-49 -30.5t-65 -11z
" />
    <glyph glyph-name="gbreve" unicode="&#x11f;" horiz-adv-x="613" 
d="M299 -185q-110 0 -177 43.5t-79 122.5h153q8 -24 31.5 -39t69.5 -15q56 0 83.5 27t27.5 76v11q0 43 3 70h-4q-47 -78 -144 -78q-46 0 -88 16.5t-74 49t-51 79.5t-19 107q0 58 16.5 106.5t46.5 83t71 53.5t90 19q54 0 92 -19t61 -64h2v68h150v-485q0 -60 -18.5 -102.5
t-50.5 -71.5q-35 -30 -84 -44t-108 -14zM298 151q30 0 51.5 10.5t36 29.5t21 44t6.5 55q0 59 -29 98.5t-87 39.5q-52 0 -82 -37.5t-30 -101.5q0 -63 30 -100.5t83 -37.5zM308 606q-35 0 -64.5 11t-51.5 31t-35.5 48.5t-14.5 64.5h91q4 -27 22.5 -42.5t51.5 -15.5
q31 0 49.5 16.5t22.5 41.5h89q-1 -35 -13 -63.5t-33 -48.5t-50 -31.5t-64 -11.5z" />
    <glyph glyph-name="Gdotaccent" unicode="&#x120;" horiz-adv-x="784" 
d="M603 100h-3q-33 -62 -89 -89.5t-125 -27.5q-80 0 -143.5 27.5t-109.5 76.5q-49 53 -74 124.5t-25 157.5q0 96 33 175.5t96 132.5q45 38 103 59t132 21q70 0 126 -18t97 -50t66.5 -76.5t35.5 -97.5h-170q-14 42 -50 71.5t-100 29.5q-50 0 -86.5 -19t-61 -52t-36.5 -78.5
t-12 -97.5q0 -54 14 -99t39.5 -78t62 -51.5t82.5 -18.5q39 0 70.5 12.5t53 32.5t33.5 46.5t12 54.5v3h-150v127h311v-398h-118zM308 920h159v-135h-159v135z" />
    <glyph glyph-name="gdotaccent" unicode="&#x121;" horiz-adv-x="613" 
d="M299 -185q-110 0 -177 43.5t-79 122.5h153q8 -24 31.5 -39t69.5 -15q56 0 83.5 27t27.5 76v11q0 43 3 70h-4q-47 -78 -144 -78q-46 0 -88 16.5t-74 49t-51 79.5t-19 107q0 58 16.5 106.5t46.5 83t71 53.5t90 19q54 0 92 -19t61 -64h2v68h150v-485q0 -60 -18.5 -102.5
t-50.5 -71.5q-35 -30 -84 -44t-108 -14zM298 151q30 0 51.5 10.5t36 29.5t21 44t6.5 55q0 59 -29 98.5t-87 39.5q-52 0 -82 -37.5t-30 -101.5q0 -63 30 -100.5t83 -37.5zM226 744h159v-137h-159v137z" />
    <glyph glyph-name="uni0122" unicode="&#x122;" horiz-adv-x="784" 
d="M603 100h-3q-33 -62 -89 -89.5t-125 -27.5q-80 0 -143.5 27.5t-109.5 76.5q-49 53 -74 124.5t-25 157.5q0 96 33 175.5t96 132.5q45 38 103 59t132 21q70 0 126 -18t97 -50t66.5 -76.5t35.5 -97.5h-170q-14 42 -50 71.5t-100 29.5q-50 0 -86.5 -19t-61 -52t-36.5 -78.5
t-12 -97.5q0 -54 14 -99t39.5 -78t62 -51.5t82.5 -18.5q39 0 70.5 12.5t53 32.5t33.5 46.5t12 54.5v3h-150v127h311v-398h-118zM310 -210q32 6 51.5 19.5t19.5 36.5h-67v103h151v-71q0 -36 -12 -61.5t-33 -42.5t-49 -26t-61 -11v53z" />
    <glyph glyph-name="uni0123" unicode="&#x123;" horiz-adv-x="613" 
d="M299 -185q-110 0 -177 43.5t-79 122.5h153q8 -24 31.5 -39t69.5 -15q56 0 83.5 27t27.5 76v11q0 43 3 70h-4q-47 -78 -144 -78q-46 0 -88 16.5t-74 49t-51 79.5t-19 107q0 58 16.5 106.5t46.5 83t71 53.5t90 19q54 0 92 -19t61 -64h2v68h150v-485q0 -60 -18.5 -102.5
t-50.5 -71.5q-35 -30 -84 -44t-108 -14zM298 151q30 0 51.5 10.5t36 29.5t21 44t6.5 55q0 59 -29 98.5t-87 39.5q-52 0 -82 -37.5t-30 -101.5q0 -63 30 -100.5t83 -37.5zM383 766q-32 -6 -51.5 -19.5t-19.5 -36.5h67v-103h-151v71q0 36 12 61.5t33 42.5t49 26t61 11v-53z
" />
    <glyph glyph-name="Hcircumflex" unicode="&#x124;" horiz-adv-x="747" 
d="M63 744h170v-287h281v287h170v-744h-170v315h-281v-315h-170v744zM293 916h153l109 -131h-136l-46 57h-2l-48 -57h-138z" />
    <glyph glyph-name="hcircumflex" unicode="&#x125;" horiz-adv-x="604" 
d="M209 539v-10v-20t-0.5 -26t-0.5 -27h3q24 43 64 67t96 24q88 0 136.5 -53.5t48.5 -143.5v-350h-156v320q0 44 -22.5 70.5t-66.5 26.5q-46 0 -74 -33t-28 -84v-300h-157v744h157v-205zM224 916h153l109 -131h-136l-46 57h-2l-48 -57h-138z" />
    <glyph glyph-name="Hbar" unicode="&#x126;" horiz-adv-x="747" 
d="M2 629h61v115h170v-115h281v115h170v-115h60v-91h-60v-538h-170v315h-281v-315h-170v538h-61v91zM233 451h281v87h-281v-87z" />
    <glyph glyph-name="hbar" unicode="&#x127;" horiz-adv-x="604" 
d="M-6 676h58v68h157v-68h137v-80h-137v-57v-10v-20t-0.5 -26t-0.5 -27h3q24 43 64 67t96 24q88 0 136.5 -53.5t48.5 -143.5v-350h-156v320q0 44 -22.5 70.5t-66.5 26.5q-46 0 -74 -33t-28 -84v-300h-157v596h-58v80z" />
    <glyph glyph-name="Itilde" unicode="&#x128;" horiz-adv-x="298" 
d="M63 744h171v-744h-171v744zM221 786q-23 0 -42 6t-34.5 13.5t-29 14t-24.5 6.5q-13 0 -22.5 -10t-11.5 -31h-86q0 35 8.5 61.5t23.5 44t34.5 26.5t41.5 9q24 0 42 -6.5t33 -14t27.5 -13.5t24.5 -6q30 0 34 38h86q0 -63 -27.5 -100.5t-77.5 -37.5z" />
    <glyph glyph-name="itilde" unicode="&#x129;" horiz-adv-x="261" 
d="M52 532h157v-532h-157v532zM203 613q-23 0 -42 6.5t-35 14t-29.5 14t-24.5 6.5q-13 0 -23 -10.5t-12 -31.5h-84q0 35 8.5 61.5t23.5 44t34.5 26.5t41.5 9q24 0 42.5 -6.5t33.5 -14l28 -14t25 -6.5q30 0 34 39h84q0 -63 -27.5 -100.5t-77.5 -37.5z" />
    <glyph glyph-name="Imacron" unicode="&#x12a;" horiz-adv-x="298" 
d="M63 744h171v-744h-171v744zM4 900h288v-111h-288v111z" />
    <glyph glyph-name="imacron" unicode="&#x12b;" horiz-adv-x="261" 
d="M52 532h157v-532h-157v532zM4 726h252v-111h-252v111z" />
    <glyph glyph-name="Ibreve" unicode="&#x12c;" horiz-adv-x="298" 
d="M63 744h171v-744h-171v744zM151 779q-72 0 -116.5 40t-47.5 102h91q5 -18 22 -31.5t50 -13.5q31 0 48 14.5t22 30.5h89q-1 -30 -12.5 -55.5t-31.5 -45t-49 -30.5t-65 -11z" />
    <glyph glyph-name="ibreve" unicode="&#x12d;" horiz-adv-x="261" 
d="M52 532h157v-532h-157v532zM133 606q-35 0 -64.5 11t-51.5 31t-35.5 48.5t-14.5 64.5h91q4 -27 22.5 -42.5t51.5 -15.5q31 0 49.5 16.5t22.5 41.5h89q-1 -35 -13 -63.5t-33 -48.5t-50 -31.5t-64 -11.5z" />
    <glyph glyph-name="Iogonek" unicode="&#x12e;" horiz-adv-x="298" 
d="M63 744h171v-742q-29 -14 -44.5 -35.5t-15.5 -39.5q0 -27 33 -27q9 0 16 1t13 3h2v-79q-10 -4 -26.5 -6.5t-43.5 -2.5q-60 0 -90.5 23t-30.5 61q0 18 6.5 33.5t16.5 28t23 22t26 16.5h-56v744z" />
    <glyph glyph-name="iogonek" unicode="&#x12f;" horiz-adv-x="261" 
d="M52 532h157v-530q-28 -16 -42.5 -37t-14.5 -38q0 -27 33 -27q9 0 16 1t13 3h2v-79q-10 -4 -26.5 -6.5t-43.5 -2.5q-58 0 -88 23t-30 61t21.5 62.5t47.5 37.5h-45v532zM51 744h159v-137h-159v137z" />
    <glyph glyph-name="Idotaccent" unicode="&#x130;" horiz-adv-x="298" 
d="M63 744h171v-744h-171v744zM69 920h159v-135h-159v135z" />
    <glyph glyph-name="dotlessi" unicode="&#x131;" horiz-adv-x="261" 
d="M52 532h157v-532h-157v532z" />
    <glyph glyph-name="IJ" unicode="&#x132;" horiz-adv-x="860" 
d="M63 744h171v-744h-171v744zM561 -14q-128 0 -191.5 64t-63.5 175v57h157v-53q0 -56 23 -79t65 -23q43 0 63 24.5t20 69.5v523h171v-527q0 -94 -47 -150q-30 -38 -79.5 -59.5t-117.5 -21.5z" />
    <glyph glyph-name="ij" unicode="&#x133;" horiz-adv-x="522" 
d="M313 -181q-21 0 -46 2t-43 6v111h6h20t17 1q23 2 34.5 13.5t11.5 40.5v539h157v-545q0 -51 -10.5 -80.5t-29.5 -47.5q-22 -22 -51.5 -31t-65.5 -9zM52 532h157v-532h-157v532zM312 744h159v-137h-159v137zM51 744h159v-137h-159v137z" />
    <glyph glyph-name="Jcircumflex" unicode="&#x134;" horiz-adv-x="579" 
d="M280 -14q-128 0 -191.5 64t-63.5 175v57h157v-53q0 -56 23 -79t65 -23q43 0 63 24.5t20 69.5v523h171v-527q0 -94 -47 -150q-30 -38 -79.5 -59.5t-117.5 -21.5zM354 916h153l109 -131h-136l-46 57h-2l-48 -57h-138z" />
    <glyph glyph-name="jcircumflex" unicode="&#x135;" horiz-adv-x="261" 
d="M52 -181q-21 0 -46 2t-43 6v111h6h20t17 1q23 2 34.5 13.5t11.5 40.5v539h157v-545q0 -51 -10.5 -80.5t-29.5 -47.5q-22 -22 -51.5 -31t-65.5 -9zM49 762h153l109 -148h-135l-47 78h-2l-49 -78h-137z" />
    <glyph glyph-name="uni0136" unicode="&#x136;" horiz-adv-x="736" 
d="M63 744h170v-122q0 -51 -2 -98.5t-4 -77.5l278 298h204l-287 -299l305 -445h-199l-227 337l-68 -71v-266h-170v744zM290 -210q32 6 51.5 19.5t19.5 36.5h-67v103h151v-71q0 -36 -12 -61.5t-33 -42.5t-49 -26t-61 -11v53z" />
    <glyph glyph-name="uni0137" unicode="&#x137;" horiz-adv-x="590" 
d="M260 232l-53 -55v-177h-155v744h155v-232q0 -59 -1.5 -102t-3.5 -69l175 191h182l-190 -197l212 -335h-182zM217 -210q32 6 51.5 19.5t19.5 36.5h-67v103h151v-71q0 -36 -12 -61.5t-33 -42.5t-49 -26t-61 -11v53z" />
    <glyph glyph-name="kgreenlandic" unicode="&#x138;" horiz-adv-x="590" 
d="M260 232l-53 -55v-177h-155v532h155v-20q0 -59 -1.5 -102t-3.5 -69l175 191h182l-190 -197l212 -335h-182z" />
    <glyph glyph-name="Lacute" unicode="&#x139;" horiz-adv-x="604" 
d="M63 744h170v-598h343v-146h-513v744zM121 916h189l-109 -131h-123z" />
    <glyph glyph-name="lacute" unicode="&#x13a;" horiz-adv-x="265" 
d="M54 744h158v-744h-158v744zM107 916h189l-109 -131h-123z" />
    <glyph glyph-name="uni013B" unicode="&#x13b;" horiz-adv-x="604" 
d="M63 744h170v-598h343v-146h-513v744zM244 -210q32 6 51.5 19.5t19.5 36.5h-67v103h151v-71q0 -36 -12 -61.5t-33 -42.5t-49 -26t-61 -11v53z" />
    <glyph glyph-name="uni013C" unicode="&#x13c;" horiz-adv-x="265" 
d="M54 744h158v-744h-158v744zM56 -210q32 6 51.5 19.5t19.5 36.5h-67v103h151v-71q0 -36 -12 -61.5t-33 -42.5t-49 -26t-61 -11v53z" />
    <glyph glyph-name="Lcaron" unicode="&#x13d;" horiz-adv-x="604" 
d="M359 567q34 3 50.5 19.5t17.5 39.5h-68v118h149v-83q0 -77 -39 -111t-110 -37v54zM63 744h170v-598h343v-146h-513v744z" />
    <glyph glyph-name="lcaron" unicode="&#x13e;" horiz-adv-x="265" 
d="M54 744h158v-744h-158v744zM250 600q30 3 44 15.5t15 32.5h-59v96h131v-64q0 -69 -34.5 -98t-96.5 -32v50z" />
    <glyph glyph-name="Ldot" unicode="&#x13f;" horiz-adv-x="604" 
d="M63 744h170v-598h343v-146h-513v744zM382 432h142v-140h-142v140z" />
    <glyph glyph-name="ldot" unicode="&#x140;" horiz-adv-x="402" 
d="M54 744h158v-744h-158v744zM263 432h142v-140h-142v140z" />
    <glyph glyph-name="Lslash" unicode="&#x141;" horiz-adv-x="610" 
d="M5 311l64 33v400h170v-310l209 110v-116l-209 -110v-172h343v-146h-513v228l-64 -33v116z" />
    <glyph glyph-name="lslash" unicode="&#x142;" horiz-adv-x="315" 
d="M10 316l68 50v378h158v-262l76 56v-116l-76 -56v-366h-158v251l-68 -50v115z" />
    <glyph glyph-name="Nacute" unicode="&#x143;" horiz-adv-x="753" 
d="M63 744h174l196 -323q17 -29 34.5 -62.5t32.5 -63.5l35 -70h2q-3 38 -5 77q-2 33 -3 71t-1 70v301h163v-744h-175l-194 319q-17 28 -35 63t-33 65q-18 35 -35 71h-2l4 -78q2 -33 3.5 -71t1.5 -70v-299h-163v744zM358 916h189l-109 -131h-123z" />
    <glyph glyph-name="nacute" unicode="&#x144;" horiz-adv-x="604" 
d="M204 451h3q25 48 66.5 72t97.5 24q88 0 136.5 -53.5t48.5 -143.5v-350h-156v320q0 44 -22.5 70.5t-66.5 26.5q-46 0 -74 -33t-28 -84v-300h-157v532h152v-81zM298 773h183l-119 -161h-117z" />
    <glyph glyph-name="uni0145" unicode="&#x145;" horiz-adv-x="753" 
d="M63 744h174l196 -323q17 -29 34.5 -62.5t32.5 -63.5l35 -70h2q-3 38 -5 77q-2 33 -3 71t-1 70v301h163v-744h-175l-194 319q-17 28 -35 63t-33 65q-18 35 -35 71h-2l4 -78q2 -33 3.5 -71t1.5 -70v-299h-163v744zM291 -210q32 6 51.5 19.5t19.5 36.5h-67v103h151v-71
q0 -36 -12 -61.5t-33 -42.5t-49 -26t-61 -11v53z" />
    <glyph glyph-name="uni0146" unicode="&#x146;" horiz-adv-x="604" 
d="M204 451h3q25 48 66.5 72t97.5 24q88 0 136.5 -53.5t48.5 -143.5v-350h-156v320q0 44 -22.5 70.5t-66.5 26.5q-46 0 -74 -33t-28 -84v-300h-157v532h152v-81zM229 -210q32 6 51.5 19.5t19.5 36.5h-67v103h151v-71q0 -36 -12 -61.5t-33 -42.5t-49 -26t-61 -11v53z" />
    <glyph glyph-name="Ncaron" unicode="&#x147;" horiz-adv-x="753" 
d="M63 744h174l196 -323q17 -29 34.5 -62.5t32.5 -63.5l35 -70h2q-3 38 -5 77q-2 33 -3 71t-1 70v301h163v-744h-175l-194 319q-17 28 -35 63t-33 65q-18 35 -35 71h-2l4 -78q2 -33 3.5 -71t1.5 -70v-299h-163v744zM463 785h-153l-109 131h136l46 -57h2l48 57h138z" />
    <glyph glyph-name="ncaron" unicode="&#x148;" horiz-adv-x="604" 
d="M204 451h3q25 48 66.5 72t97.5 24q88 0 136.5 -53.5t48.5 -143.5v-350h-156v320q0 44 -22.5 70.5t-66.5 26.5q-46 0 -74 -33t-28 -84v-300h-157v532h152v-81zM385 612h-153l-109 148h135l47 -78h2l49 78h137z" />
    <glyph glyph-name="napostrophe" unicode="&#x149;" horiz-adv-x="604" 
d="M204 451h3q25 48 66.5 72t97.5 24q88 0 136.5 -53.5t48.5 -143.5v-350h-156v320q0 44 -22.5 70.5t-66.5 26.5q-46 0 -74 -33t-28 -84v-300h-157v532h152v-81zM-35 600q30 3 44 15.5t15 32.5h-59v96h131v-64q0 -69 -34.5 -98t-96.5 -32v50z" />
    <glyph glyph-name="Eng" unicode="&#x14a;" horiz-adv-x="753" 
d="M432 -44q33 0 53.5 11t31.5 31l-195 321q-17 28 -35 63t-33 65q-18 35 -35 71h-2l4 -78q2 -33 3.5 -71t1.5 -70v-299h-163v744h174l196 -323q17 -29 34.5 -62.5t32.5 -63.5l35 -70h2q-3 38 -5 77q-2 33 -3 71t-1 70v301h163v-698q0 -47 -8.5 -83t-30.5 -67
q-26 -38 -72 -59.5t-117 -21.5q-23 0 -41.5 1.5t-40.5 5.5v138h7q13 -2 22 -3t22 -1z" />
    <glyph glyph-name="eng" unicode="&#x14b;" horiz-adv-x="604" 
d="M556 -13q0 -51 -10.5 -80.5t-29.5 -47.5q-22 -22 -51.5 -31t-65.5 -9q-21 0 -46 2t-43 6v111h6h20t17 1q23 2 35 13.5t12 40.5v327q0 44 -22.5 70.5t-66.5 26.5q-46 0 -74 -33t-28 -84v-300h-157v532h152v-81h3q25 48 66.5 72t97.5 24q88 0 136.5 -53.5t48.5 -143.5v-363
z" />
    <glyph glyph-name="Omacron" unicode="&#x14c;" horiz-adv-x="799" 
d="M400 -18q-85 0 -153 29t-116 81t-73.5 123t-25.5 154q0 84 25.5 155t73.5 122.5t116 81t153 29.5q84 0 152 -29.5t116 -81t73.5 -122.5t25.5 -155q0 -83 -25.5 -154t-73.5 -123t-116 -81t-152 -29zM401 122q48 0 84 19t60 52t36 78t12 98t-12 98.5t-36 79.5t-60 53
t-84 19t-84.5 -19t-61 -53t-37 -79.5t-12.5 -98.5t12.5 -98t37 -78t61 -52t84.5 -19zM243 900h312v-111h-312v111z" />
    <glyph glyph-name="omacron" unicode="&#x14d;" horiz-adv-x="616" 
d="M309 -17q-64 0 -116 21.5t-89 59.5t-57 89.5t-20 111.5t20 111.5t57 89.5t89 59.5t116 21.5q63 0 115 -21.5t88.5 -59.5t56.5 -89.5t20 -111.5t-20 -111.5t-56.5 -89.5t-88.5 -59.5t-115 -21.5zM308 97q59 0 90.5 46.5t31.5 121.5q0 76 -31.5 123t-90.5 47q-60 0 -91 -47
t-31 -123q0 -75 31 -121.5t91 -46.5zM152 726h312v-111h-312v111z" />
    <glyph glyph-name="Obreve" unicode="&#x14e;" horiz-adv-x="799" 
d="M400 -18q-85 0 -153 29t-116 81t-73.5 123t-25.5 154q0 84 25.5 155t73.5 122.5t116 81t153 29.5q84 0 152 -29.5t116 -81t73.5 -122.5t25.5 -155q0 -83 -25.5 -154t-73.5 -123t-116 -81t-152 -29zM401 122q48 0 84 19t60 52t36 78t12 98t-12 98.5t-36 79.5t-60 53
t-84 19t-84.5 -19t-61 -53t-37 -79.5t-12.5 -98.5t12.5 -98t37 -78t61 -52t84.5 -19zM402 779q-72 0 -116.5 40t-47.5 102h91q5 -18 22 -31.5t50 -13.5q31 0 48 14.5t22 30.5h89q-1 -30 -12.5 -55.5t-31.5 -45t-49 -30.5t-65 -11z" />
    <glyph glyph-name="obreve" unicode="&#x14f;" horiz-adv-x="616" 
d="M309 -17q-64 0 -116 21.5t-89 59.5t-57 89.5t-20 111.5t20 111.5t57 89.5t89 59.5t116 21.5q63 0 115 -21.5t88.5 -59.5t56.5 -89.5t20 -111.5t-20 -111.5t-56.5 -89.5t-88.5 -59.5t-115 -21.5zM308 97q59 0 90.5 46.5t31.5 121.5q0 76 -31.5 123t-90.5 47q-60 0 -91 -47
t-31 -123q0 -75 31 -121.5t91 -46.5zM311 606q-35 0 -64.5 11t-51.5 31t-35.5 48.5t-14.5 64.5h91q4 -27 22.5 -42.5t51.5 -15.5q31 0 49.5 16.5t22.5 41.5h89q-1 -35 -13 -63.5t-33 -48.5t-50 -31.5t-64 -11.5z" />
    <glyph glyph-name="Ohungarumlaut" unicode="&#x150;" horiz-adv-x="799" 
d="M400 -18q-85 0 -153 29t-116 81t-73.5 123t-25.5 154q0 84 25.5 155t73.5 122.5t116 81t153 29.5q84 0 152 -29.5t116 -81t73.5 -122.5t25.5 -155q0 -83 -25.5 -154t-73.5 -123t-116 -81t-152 -29zM401 122q48 0 84 19t60 52t36 78t12 98t-12 98.5t-36 79.5t-60 53
t-84 19t-84.5 -19t-61 -53t-37 -79.5t-12.5 -98.5t12.5 -98t37 -78t61 -52t84.5 -19zM478 916h156l-89 -131h-102zM282 916h156l-90 -131h-102z" />
    <glyph glyph-name="ohungarumlaut" unicode="&#x151;" horiz-adv-x="616" 
d="M309 -17q-64 0 -116 21.5t-89 59.5t-57 89.5t-20 111.5t20 111.5t57 89.5t89 59.5t116 21.5q63 0 115 -21.5t88.5 -59.5t56.5 -89.5t20 -111.5t-20 -111.5t-56.5 -89.5t-88.5 -59.5t-115 -21.5zM308 97q59 0 90.5 46.5t31.5 121.5q0 76 -31.5 123t-90.5 47q-60 0 -91 -47
t-31 -123q0 -75 31 -121.5t91 -46.5zM397 773h153l-102 -161h-99zM204 773h153l-103 -161h-99z" />
    <glyph glyph-name="OE" unicode="&#x152;" horiz-adv-x="1137" 
d="M386 -18q-79 0 -144 29t-111.5 81t-72.5 123t-26 154q0 84 26 155t72.5 122.5t111.5 81t144 29.5q63 0 108.5 -23.5t77.5 -65.5v76h512v-143h-361v-149h308v-134h-308v-168h372v-150h-523v68q-32 -41 -77.5 -63.5t-108.5 -22.5zM395 122q81 0 123.5 59.5t42.5 162.5v49
q0 104 -42.5 165t-123.5 61q-46 0 -81.5 -19t-59.5 -53t-36 -79.5t-12 -98.5t12 -98t36 -78t59.5 -52t81.5 -19z" />
    <glyph glyph-name="oe" unicode="&#x153;" horiz-adv-x="978" 
d="M695 -16q-66 0 -114.5 24.5t-80.5 67.5q-32 -44 -81 -68.5t-117 -24.5q-63 0 -114 21.5t-87 59.5t-55 89.5t-19 111.5t19 111.5t55 89.5t87 59.5t114 21.5q68 0 117 -25t80 -68q32 44 79 68.5t109 24.5q57 0 100.5 -17.5t77.5 -49.5q46 -44 67 -109.5t20 -144.5h-381
q8 -60 40 -94t85 -34q37 0 58.5 13.5t34.5 38.5h153q-11 -35 -32 -65.5t-52 -53t-72 -35t-91 -12.5zM304 97q58 0 88 46.5t30 121.5q0 76 -30 123t-88 47q-60 0 -89 -47t-29 -123q0 -75 29 -121.5t89 -46.5zM687 436q-54 0 -80.5 -32t-34.5 -87h219q-4 56 -31 87.5t-73 31.5
z" />
    <glyph glyph-name="Racute" unicode="&#x154;" horiz-adv-x="715" 
d="M63 744h354q54 0 100.5 -14t80.5 -41.5t53.5 -67t19.5 -90.5q0 -66 -33 -112t-105 -69v-3q56 -17 82.5 -50.5t34.5 -93.5q5 -38 7.5 -71.5t5 -60t6.5 -43t13 -20.5v-8h-168q-8 4 -11.5 20t-6 39.5t-4.5 52.5t-5 60q-7 56 -36.5 84t-91.5 28h-126v-284h-170v744zM233 410
h151q57 0 87 26.5t30 71.5q0 46 -27.5 73.5t-84.5 27.5h-156v-199zM318 916h189l-109 -131h-123z" />
    <glyph glyph-name="racute" unicode="&#x155;" horiz-adv-x="410" 
d="M203 437h3q26 56 62 80t86 24q24 0 33 -4v-137h-4q-17 3 -33 3q-64 1 -102.5 -38.5t-38.5 -117.5v-247h-157v532h151v-95zM214 773h183l-119 -161h-117z" />
    <glyph glyph-name="uni0156" unicode="&#x156;" horiz-adv-x="715" 
d="M63 744h354q54 0 100.5 -14t80.5 -41.5t53.5 -67t19.5 -90.5q0 -66 -33 -112t-105 -69v-3q56 -17 82.5 -50.5t34.5 -93.5q5 -38 7.5 -71.5t5 -60t6.5 -43t13 -20.5v-8h-168q-8 4 -11.5 20t-6 39.5t-4.5 52.5t-5 60q-7 56 -36.5 84t-91.5 28h-126v-284h-170v744zM233 410
h151q57 0 87 26.5t30 71.5q0 46 -27.5 73.5t-84.5 27.5h-156v-199zM285 -210q32 6 51.5 19.5t19.5 36.5h-67v103h151v-71q0 -36 -12 -61.5t-33 -42.5t-49 -26t-61 -11v53z" />
    <glyph glyph-name="uni0157" unicode="&#x157;" horiz-adv-x="410" 
d="M203 437h3q26 56 62 80t86 24q24 0 33 -4v-137h-4q-17 3 -33 3q-64 1 -102.5 -38.5t-38.5 -117.5v-247h-157v532h151v-95zM50 -210q32 6 51.5 19.5t19.5 36.5h-67v103h151v-71q0 -36 -12 -61.5t-33 -42.5t-49 -26t-61 -11v53z" />
    <glyph glyph-name="Rcaron" unicode="&#x158;" horiz-adv-x="715" 
d="M63 744h354q54 0 100.5 -14t80.5 -41.5t53.5 -67t19.5 -90.5q0 -66 -33 -112t-105 -69v-3q56 -17 82.5 -50.5t34.5 -93.5q5 -38 7.5 -71.5t5 -60t6.5 -43t13 -20.5v-8h-168q-8 4 -11.5 20t-6 39.5t-4.5 52.5t-5 60q-7 56 -36.5 84t-91.5 28h-126v-284h-170v744zM233 410
h151q57 0 87 26.5t30 71.5q0 46 -27.5 73.5t-84.5 27.5h-156v-199zM423 785h-153l-109 131h136l46 -57h2l48 57h138z" />
    <glyph glyph-name="rcaron" unicode="&#x159;" horiz-adv-x="410" 
d="M203 437h3q26 56 62 80t86 24q24 0 33 -4v-137h-4q-17 3 -33 3q-64 1 -102.5 -38.5t-38.5 -117.5v-247h-157v532h151v-95zM308 612h-153l-109 148h135l47 -78h2l49 78h137z" />
    <glyph glyph-name="Sacute" unicode="&#x15a;" horiz-adv-x="690" 
d="M355 -18q-75 0 -135 17t-103 49t-66.5 79.5t-25.5 107.5h172q7 -61 46.5 -89t111.5 -28q25 0 48 5t41 15.5t28.5 27t10.5 39.5q0 24 -11.5 40t-33.5 27t-54 19.5t-72 17.5q-54 12 -102 27t-84 39.5t-56.5 62t-20.5 95.5t22 100t61 69.5t92 41t115 13.5q61 0 113 -14
t90 -42t61 -69.5t27 -96.5h-167q-7 44 -40 68t-89 24q-53 0 -85 -21t-32 -56q0 -22 12 -36t35 -24.5t56.5 -18.5t77.5 -18q50 -11 96.5 -26.5t82 -41.5t57 -65t21.5 -98q0 -58 -23 -102.5t-63.5 -75t-95 -46.5t-118.5 -16zM311 916h189l-109 -131h-123z" />
    <glyph glyph-name="sacute" unicode="&#x15b;" horiz-adv-x="539" 
d="M273 -17q-58 0 -104 13t-78.5 37t-51 57.5t-21.5 73.5h148q7 -38 34.5 -58t73.5 -20q42 0 65 16t23 45q0 18 -11 29t-30 18t-43.5 11.5t-52.5 9.5q-36 7 -70 16t-61 27t-43.5 47t-16.5 76q0 41 17.5 72t47.5 52t71 31.5t88 10.5q111 0 168 -43.5t68 -113.5h-146
q-15 57 -90 57q-36 0 -57.5 -14t-21.5 -40q0 -15 10 -24.5t28 -15.5t42 -10t51 -9q36 -6 72 -15.5t65 -28.5t47.5 -50.5t18.5 -81.5q0 -43 -18 -76t-50 -55t-76 -33t-96 -11zM254 773h183l-119 -161h-117z" />
    <glyph glyph-name="Scircumflex" unicode="&#x15c;" horiz-adv-x="690" 
d="M355 -18q-75 0 -135 17t-103 49t-66.5 79.5t-25.5 107.5h172q7 -61 46.5 -89t111.5 -28q25 0 48 5t41 15.5t28.5 27t10.5 39.5q0 24 -11.5 40t-33.5 27t-54 19.5t-72 17.5q-54 12 -102 27t-84 39.5t-56.5 62t-20.5 95.5t22 100t61 69.5t92 41t115 13.5q61 0 113 -14
t90 -42t61 -69.5t27 -96.5h-167q-7 44 -40 68t-89 24q-53 0 -85 -21t-32 -56q0 -22 12 -36t35 -24.5t56.5 -18.5t77.5 -18q50 -11 96.5 -26.5t82 -41.5t57 -65t21.5 -98q0 -58 -23 -102.5t-63.5 -75t-95 -46.5t-118.5 -16zM259 916h153l109 -131h-136l-46 57h-2l-48 -57
h-138z" />
    <glyph glyph-name="scircumflex" unicode="&#x15d;" horiz-adv-x="539" 
d="M273 -17q-58 0 -104 13t-78.5 37t-51 57.5t-21.5 73.5h148q7 -38 34.5 -58t73.5 -20q42 0 65 16t23 45q0 18 -11 29t-30 18t-43.5 11.5t-52.5 9.5q-36 7 -70 16t-61 27t-43.5 47t-16.5 76q0 41 17.5 72t47.5 52t71 31.5t88 10.5q111 0 168 -43.5t68 -113.5h-146
q-15 57 -90 57q-36 0 -57.5 -14t-21.5 -40q0 -15 10 -24.5t28 -15.5t42 -10t51 -9q36 -6 72 -15.5t65 -28.5t47.5 -50.5t18.5 -81.5q0 -43 -18 -76t-50 -55t-76 -33t-96 -11zM183 762h153l109 -148h-135l-47 78h-2l-49 -78h-137z" />
    <glyph glyph-name="Scedilla" unicode="&#x15e;" horiz-adv-x="690" 
d="M309 -210q-35 0 -64 8.5t-49 21.5l20 39q15 -7 32.5 -11.5t36.5 -4.5q20 0 34.5 7.5t14.5 25.5q0 15 -10 22t-25 7q-10 0 -17.5 -2t-15.5 -5l-18 26l56 60q-128 11 -202 75.5t-77 175.5h172q7 -61 46.5 -89t111.5 -28q25 0 48 5t41 15.5t28.5 27t10.5 39.5q0 24 -11.5 40
t-33.5 27t-54 19.5t-72 17.5q-54 12 -102 27t-84 39.5t-56.5 62t-20.5 95.5t22 100t61 69.5t92 41t115 13.5q61 0 113 -14t90 -42t61 -69.5t27 -96.5h-167q-7 44 -40 68t-89 24q-53 0 -85 -21t-32 -56q0 -22 12 -36t35 -24.5t56.5 -18.5t77.5 -18q50 -11 96.5 -26.5
t82 -41.5t57 -65t21.5 -98q0 -57 -22 -101t-61 -74.5t-92 -47t-115 -17.5l-41 -37v-2q22 3 42.5 0.5t36 -11.5t25 -24t9.5 -36q0 -38 -35.5 -60t-92.5 -22z" />
    <glyph glyph-name="scedilla" unicode="&#x15f;" horiz-adv-x="539" 
d="M236 -210q-35 0 -64 8.5t-49 21.5l20 39q15 -7 32.5 -11.5t36.5 -4.5q20 0 34.5 7.5t14.5 25.5q0 15 -10 22t-25 7q-10 0 -17.5 -2t-15.5 -5l-18 26l56 61q-97 9 -152.5 57.5t-60.5 121.5h148q7 -38 34.5 -58t73.5 -20q42 0 65 16t23 45q0 18 -11 29t-30 18t-43.5 11.5
t-52.5 9.5q-36 7 -70 16t-61 27t-43.5 47t-16.5 76q0 41 17.5 72t47.5 52t71 31.5t88 10.5q111 0 168 -43.5t68 -113.5h-146q-15 57 -90 57q-36 0 -57.5 -14t-21.5 -40q0 -15 10 -24.5t28 -15.5t42 -10t51 -9q36 -6 72 -15.5t65 -28.5t47.5 -50.5t18.5 -81.5
q0 -41 -16.5 -72.5t-45.5 -53t-69 -34t-88 -14.5l-43 -39v-2q22 3 42.5 0.5t36 -11.5t25 -24t9.5 -36q0 -38 -35.5 -60t-92.5 -22z" />
    <glyph glyph-name="Scaron" unicode="&#x160;" horiz-adv-x="690" 
d="M355 -18q-75 0 -135 17t-103 49t-66.5 79.5t-25.5 107.5h172q7 -61 46.5 -89t111.5 -28q25 0 48 5t41 15.5t28.5 27t10.5 39.5q0 24 -11.5 40t-33.5 27t-54 19.5t-72 17.5q-54 12 -102 27t-84 39.5t-56.5 62t-20.5 95.5t22 100t61 69.5t92 41t115 13.5q61 0 113 -14
t90 -42t61 -69.5t27 -96.5h-167q-7 44 -40 68t-89 24q-53 0 -85 -21t-32 -56q0 -22 12 -36t35 -24.5t56.5 -18.5t77.5 -18q50 -11 96.5 -26.5t82 -41.5t57 -65t21.5 -98q0 -58 -23 -102.5t-63.5 -75t-95 -46.5t-118.5 -16zM412 785h-153l-109 131h136l46 -57h2l48 57h138z
" />
    <glyph glyph-name="scaron" unicode="&#x161;" horiz-adv-x="539" 
d="M273 -17q-58 0 -104 13t-78.5 37t-51 57.5t-21.5 73.5h148q7 -38 34.5 -58t73.5 -20q42 0 65 16t23 45q0 18 -11 29t-30 18t-43.5 11.5t-52.5 9.5q-36 7 -70 16t-61 27t-43.5 47t-16.5 76q0 41 17.5 72t47.5 52t71 31.5t88 10.5q111 0 168 -43.5t68 -113.5h-146
q-15 57 -90 57q-36 0 -57.5 -14t-21.5 -40q0 -15 10 -24.5t28 -15.5t42 -10t51 -9q36 -6 72 -15.5t65 -28.5t47.5 -50.5t18.5 -81.5q0 -43 -18 -76t-50 -55t-76 -33t-96 -11zM341 612h-153l-109 148h135l47 -78h2l49 78h137z" />
    <glyph glyph-name="uni0162" unicode="&#x162;" horiz-adv-x="668" 
d="M27 744h614v-145h-222v-599h-171v599h-221v145zM257 -210q32 6 51.5 19.5t19.5 36.5h-67v103h151v-71q0 -36 -12 -61.5t-33 -42.5t-49 -26t-61 -11v53z" />
    <glyph glyph-name="uni0163" unicode="&#x163;" horiz-adv-x="389" 
d="M21 532h80v170h154v-170h104v-100h-104v-264q0 -30 15.5 -40.5t43.5 -10.5q8 0 18 0.5t18 1.5h8v-117q-13 -2 -36 -5t-55 -3q-37 0 -67.5 6.5t-52.5 23t-34 43t-12 67.5v298h-80v100zM143 -210q32 6 51.5 19.5t19.5 36.5h-67v103h151v-71q0 -36 -12 -61.5t-33 -42.5
t-49 -26t-61 -11v53z" />
    <glyph glyph-name="Tcaron" unicode="&#x164;" horiz-adv-x="668" 
d="M27 744h614v-145h-222v-599h-171v599h-221v145zM413 785h-153l-109 131h136l46 -57h2l48 57h138z" />
    <glyph glyph-name="tcaron" unicode="&#x165;" horiz-adv-x="389" 
d="M21 532h80v170h154v-170h104v-100h-104v-264q0 -30 15.5 -40.5t43.5 -10.5q8 0 18 0.5t18 1.5h8v-117q-13 -2 -36 -5t-55 -3q-37 0 -67.5 6.5t-52.5 23t-34 43t-12 67.5v298h-80v100zM298 609q30 3 44 14t15 31h-59v90h131v-58q0 -69 -34.5 -96.5t-96.5 -30.5v50z" />
    <glyph glyph-name="Tbar" unicode="&#x166;" horiz-adv-x="668" 
d="M27 744h614v-145h-222v-174h147v-101h-147v-324h-171v324h-146v101h146v174h-221v145z" />
    <glyph glyph-name="tbar" unicode="&#x167;" horiz-adv-x="389" 
d="M21 532h80v170h154v-170h104v-100h-104v-75h104v-92h-104v-97q0 -30 15.5 -40.5t43.5 -10.5q8 0 18 0.5t18 1.5h8v-117q-13 -2 -36 -5t-55 -3q-37 0 -67.5 6.5t-52.5 23t-34 43t-12 67.5v131h-80v92h80v75h-80v100z" />
    <glyph glyph-name="Utilde" unicode="&#x168;" horiz-adv-x="724" 
d="M364 -14q-152 0 -230.5 70.5t-78.5 202.5v485h170v-489q0 -61 33.5 -96t105.5 -35q67 0 101 36.5t34 97.5v486h171v-485q0 -131 -78 -202t-228 -71zM435 786q-23 0 -42 6t-34.5 13.5t-29 14t-24.5 6.5q-13 0 -22.5 -10t-11.5 -31h-86q0 35 8.5 61.5t23.5 44t34.5 26.5
t41.5 9q24 0 42 -6.5t33 -14t27.5 -13.5t24.5 -6q30 0 34 38h86q0 -63 -27.5 -100.5t-77.5 -37.5z" />
    <glyph glyph-name="utilde" unicode="&#x169;" horiz-adv-x="599" 
d="M398 0v76h-3q-29 -47 -67 -69t-93 -22q-91 0 -139 53.5t-48 141.5v352h157v-322q0 -45 21.5 -69t63.5 -24q48 0 75 32t27 82v301h155v-532h-149zM369 613q-23 0 -42 6.5t-35 14t-29.5 14t-24.5 6.5q-13 0 -23 -10.5t-12 -31.5h-84q0 35 8.5 61.5t23.5 44t34.5 26.5
t41.5 9q24 0 42.5 -6.5t33.5 -14l28 -14t25 -6.5q30 0 34 39h84q0 -63 -27.5 -100.5t-77.5 -37.5z" />
    <glyph glyph-name="Umacron" unicode="&#x16a;" horiz-adv-x="724" 
d="M364 -14q-152 0 -230.5 70.5t-78.5 202.5v485h170v-489q0 -61 33.5 -96t105.5 -35q67 0 101 36.5t34 97.5v486h171v-485q0 -131 -78 -202t-228 -71zM206 900h312v-111h-312v111z" />
    <glyph glyph-name="umacron" unicode="&#x16b;" horiz-adv-x="599" 
d="M398 0v76h-3q-29 -47 -67 -69t-93 -22q-91 0 -139 53.5t-48 141.5v352h157v-322q0 -45 21.5 -69t63.5 -24q48 0 75 32t27 82v301h155v-532h-149zM140 726h312v-111h-312v111z" />
    <glyph glyph-name="Ubreve" unicode="&#x16c;" horiz-adv-x="724" 
d="M364 -14q-152 0 -230.5 70.5t-78.5 202.5v485h170v-489q0 -61 33.5 -96t105.5 -35q67 0 101 36.5t34 97.5v486h171v-485q0 -131 -78 -202t-228 -71zM365 779q-72 0 -116.5 40t-47.5 102h91q5 -18 22 -31.5t50 -13.5q31 0 48 14.5t22 30.5h89q-1 -30 -12.5 -55.5
t-31.5 -45t-49 -30.5t-65 -11z" />
    <glyph glyph-name="ubreve" unicode="&#x16d;" horiz-adv-x="599" 
d="M398 0v76h-3q-29 -47 -67 -69t-93 -22q-91 0 -139 53.5t-48 141.5v352h157v-322q0 -45 21.5 -69t63.5 -24q48 0 75 32t27 82v301h155v-532h-149zM299 606q-35 0 -64.5 11t-51.5 31t-35.5 48.5t-14.5 64.5h91q4 -27 22.5 -42.5t51.5 -15.5q31 0 49.5 16.5t22.5 41.5h89
q-1 -35 -13 -63.5t-33 -48.5t-50 -31.5t-64 -11.5z" />
    <glyph glyph-name="Uring" unicode="&#x16e;" horiz-adv-x="724" 
d="M364 -14q-152 0 -230.5 70.5t-78.5 202.5v485h170v-489q0 -61 33.5 -96t105.5 -35q67 0 101 36.5t34 97.5v486h171v-485q0 -131 -78 -202t-228 -71zM363 746q-24 0 -44.5 8.5t-36.5 23t-25 34.5t-9 44q0 23 9 43t25 35t36.5 24t44.5 9q23 0 44 -9t36.5 -24t24.5 -35
t9 -43q0 -24 -9 -44t-24.5 -34.5t-36.5 -23t-44 -8.5zM363 803q23 0 37.5 15t14.5 38t-14.5 39t-37.5 16q-24 0 -38.5 -16t-14.5 -39t14.5 -38t38.5 -15z" />
    <glyph glyph-name="uring" unicode="&#x16f;" horiz-adv-x="599" 
d="M398 0v76h-3q-29 -47 -67 -69t-93 -22q-91 0 -139 53.5t-48 141.5v352h157v-322q0 -45 21.5 -69t63.5 -24q48 0 75 32t27 82v301h155v-532h-149zM297 596q-24 0 -44.5 8.5t-36.5 23t-25 34.5t-9 44q0 23 9 43t25 35t36.5 24t44.5 9q23 0 44 -9t36.5 -24t24.5 -35t9 -43
q0 -24 -9 -44t-24.5 -34.5t-36.5 -23t-44 -8.5zM297 653q23 0 37.5 15t14.5 38t-14.5 39t-37.5 16q-24 0 -38.5 -16t-14.5 -39t14.5 -38t38.5 -15z" />
    <glyph glyph-name="Uhungarumlaut" unicode="&#x170;" horiz-adv-x="724" 
d="M364 -14q-152 0 -230.5 70.5t-78.5 202.5v485h170v-489q0 -61 33.5 -96t105.5 -35q67 0 101 36.5t34 97.5v486h171v-485q0 -131 -78 -202t-228 -71zM441 916h156l-89 -131h-102zM245 916h156l-90 -131h-102z" />
    <glyph glyph-name="uhungarumlaut" unicode="&#x171;" horiz-adv-x="599" 
d="M398 0v76h-3q-29 -47 -67 -69t-93 -22q-91 0 -139 53.5t-48 141.5v352h157v-322q0 -45 21.5 -69t63.5 -24q48 0 75 32t27 82v301h155v-532h-149zM192 773h153l-103 -161h-99zM385 773h153l-102 -161h-99z" />
    <glyph glyph-name="Uogonek" unicode="&#x172;" horiz-adv-x="724" 
d="M403 -184q-60 0 -90.5 23t-30.5 61q0 31 16 52t37 35q-138 7 -209 76.5t-71 195.5v485h170v-489q0 -61 33.5 -96t105.5 -35q67 0 101 36.5t34 97.5v486h171v-485q0 -98 -44 -162t-129 -93q-34 -11 -61 -29.5t-27 -47.5q0 -27 33 -27q9 0 16 1t13 3h2v-79
q-10 -4 -26.5 -6.5t-43.5 -2.5z" />
    <glyph glyph-name="uogonek" unicode="&#x173;" horiz-adv-x="599" 
d="M482 -184q-57 0 -87.5 23t-30.5 61t22 62t49 38h-37v76h-3q-29 -47 -67 -69t-93 -22q-91 0 -139 53.5t-48 141.5v352h157v-322q0 -45 21.5 -69t63.5 -24q48 0 75 32t27 82v301h155v-530q-30 -17 -44.5 -37.5t-14.5 -37.5q0 -27 33 -27q9 0 16 1t13 3h2v-79
q-10 -4 -26.5 -6.5t-43.5 -2.5z" />
    <glyph glyph-name="Wcircumflex" unicode="&#x174;" horiz-adv-x="999" 
d="M9 744h173l71 -291q10 -41 17.5 -89.5t13.5 -92.5l12 -102h2q7 53 16 106q7 45 16 95t17 89l66 285h161l66 -284q8 -39 17 -89.5t16 -95.5q8 -53 15 -106h2q6 52 14 103q6 44 14.5 93t18.5 89l69 290h173l-204 -744h-167l-72 312q-8 35 -15 79t-13 84q-7 47 -13 94h-2
q-6 -47 -13 -94q-6 -40 -13 -84t-15 -79l-73 -312h-168zM414 916h153l109 -131h-136l-46 57h-2l-48 -57h-138z" />
    <glyph glyph-name="wcircumflex" unicode="&#x175;" horiz-adv-x="822" 
d="M7 532h160l56 -207q6 -24 11.5 -52.5t10.5 -53.5q5 -29 9 -59h2q6 29 11 59q5 26 10.5 55t12.5 53l54 205h133l56 -205q7 -24 13 -53t11 -55q5 -30 11 -60h2q4 29 9 59q5 25 10.5 54t12.5 53l57 207h155l-165 -532h-148l-56 217q-6 23 -12 51t-11 53q-5 29 -10 59h-2
q-6 -30 -12 -59q-5 -25 -11 -53t-12 -51l-58 -217h-146zM331 762h153l109 -148h-135l-47 78h-2l-49 -78h-137z" />
    <glyph glyph-name="Ycircumflex" unicode="&#x176;" horiz-adv-x="702" 
d="M266 278l-255 466h187l80 -156q13 -26 26 -56.5t24 -57.5q12 -32 24 -63h2q12 31 25 63q11 27 24.5 57.5t26.5 56.5l81 156h180l-255 -464v-280h-170v278zM271 916h153l109 -131h-136l-46 57h-2l-48 -57h-138z" />
    <glyph glyph-name="ycircumflex" unicode="&#x177;" horiz-adv-x="557" 
d="M168 -178h-18t-35 0.5t-35 1t-17 0.5v123h8q1 0 8.5 -0.5t16.5 -0.5h16.5h9.5q71 0 76 54q0 14 -7 42.5t-21 64.5l-165 425h165l68 -204q9 -27 17 -59.5t14 -60.5q7 -33 13 -65h2q7 33 15 66l15 60t17 59l65 204h156l-190 -545q-16 -46 -34 -77.5t-41 -51t-52 -28
t-67 -8.5zM203 762h153l109 -148h-135l-47 78h-2l-49 -78h-137z" />
    <glyph glyph-name="Ydieresis" unicode="&#x178;" horiz-adv-x="702" 
d="M266 278l-255 466h187l80 -156q13 -26 26 -56.5t24 -57.5q12 -32 24 -63h2q12 31 25 63q11 27 24.5 57.5t26.5 56.5l81 156h180l-255 -464v-280h-170v278zM153 919h153v-134h-153v134zM398 919h152v-134h-152v134z" />
    <glyph glyph-name="Zacute" unicode="&#x179;" horiz-adv-x="688" 
d="M36 138l275 334q17 20 38 42.5t40 42.5q22 23 45 45v3q-29 -2 -57 -3q-24 -1 -51 -1.5t-49 -0.5h-214v144h572v-134l-265 -324q-19 -23 -42 -48t-44 -46l-49 -49v-3q30 1 60 3q26 1 54.5 2t51.5 1h248v-146h-613v138zM323 916h189l-109 -131h-123z" />
    <glyph glyph-name="zacute" unicode="&#x17a;" horiz-adv-x="538" 
d="M36 117l190 215q12 13 27 28t29 27q16 14 33 28v3q-21 -2 -41 -4q-17 -2 -37 -3t-37 -1h-141v122h432v-113l-183 -208q-14 -15 -31 -31t-33 -30q-18 -16 -37 -31v-3q22 1 44 3q19 2 40.5 3t39.5 1h174v-123h-469v117zM268 773h183l-119 -161h-117z" />
    <glyph glyph-name="Zdotaccent" unicode="&#x17b;" horiz-adv-x="688" 
d="M36 138l275 334q17 20 38 42.5t40 42.5q22 23 45 45v3q-29 -2 -57 -3q-24 -1 -51 -1.5t-49 -0.5h-214v144h572v-134l-265 -324q-19 -23 -42 -48t-44 -46l-49 -49v-3q30 1 60 3q26 1 54.5 2t51.5 1h248v-146h-613v138zM270 920h159v-135h-159v135z" />
    <glyph glyph-name="zdotaccent" unicode="&#x17c;" horiz-adv-x="538" 
d="M36 117l190 215q12 13 27 28t29 27q16 14 33 28v3q-21 -2 -41 -4q-17 -2 -37 -3t-37 -1h-141v122h432v-113l-183 -208q-14 -15 -31 -31t-33 -30q-18 -16 -37 -31v-3q22 1 44 3q19 2 40.5 3t39.5 1h174v-123h-469v117zM197 744h159v-137h-159v137z" />
    <glyph glyph-name="Zcaron" unicode="&#x17d;" horiz-adv-x="688" 
d="M36 138l275 334q17 20 38 42.5t40 42.5q22 23 45 45v3q-29 -2 -57 -3q-24 -1 -51 -1.5t-49 -0.5h-214v144h572v-134l-265 -324q-19 -23 -42 -48t-44 -46l-49 -49v-3q30 1 60 3q26 1 54.5 2t51.5 1h248v-146h-613v138zM428 785h-153l-109 131h136l46 -57h2l48 57h138z" />
    <glyph glyph-name="zcaron" unicode="&#x17e;" horiz-adv-x="538" 
d="M36 117l190 215q12 13 27 28t29 27q16 14 33 28v3q-21 -2 -41 -4q-17 -2 -37 -3t-37 -1h-141v122h432v-113l-183 -208q-14 -15 -31 -31t-33 -30q-18 -16 -37 -31v-3q22 1 44 3q19 2 40.5 3t39.5 1h174v-123h-469v117zM355 612h-153l-109 148h135l47 -78h2l49 78h137z" />
    <glyph glyph-name="florin" unicode="&#x192;" horiz-adv-x="466" 
d="M42 432h105l21 141q6 39 19 68t37 49q37 30 94.5 34.5t120.5 -3.5v-112q-26 1 -45.5 0.5t-33.5 -5.5t-22.5 -16.5t-11.5 -32.5l-18 -123h112v-101h-127l-49 -345q-6 -38 -17.5 -66.5t-33.5 -47.5q-17 -15 -38 -22.5t-45.5 -10t-51.5 -1t-55 4.5v104q18 -1 32 0t24 6
t16.5 16.5t9.5 32.5l48 329h-91v101z" />
    <glyph glyph-name="AEacute" unicode="&#x1fc;" horiz-adv-x="1045" 
d="M993 601h-363v-149h311v-134h-311v-168h375v-150h-547v145h-231l-48 -145h-169l255 744h728v-143zM267 266h191v335h-81zM586 916h189l-109 -131h-123z" />
    <glyph glyph-name="aeacute" unicode="&#x1fd;" horiz-adv-x="933" 
d="M233 -15q-97 0 -150 41.5t-53 120.5q0 44 16.5 73t44.5 47t66 27.5t82 14.5q71 10 102.5 24t31.5 44q0 29 -19 46.5t-60 17.5q-45 0 -67.5 -19t-25.5 -51h-145q1 34 16 66t44 56.5t73 39t103 14.5q128 0 181 -66q31 31 73.5 48.5t97.5 17.5q57 0 99.5 -16.5t77.5 -49.5
q48 -44 67 -110t18 -145h-379q7 -60 37.5 -94t87.5 -34q36 0 57.5 13.5t34.5 38.5h153q-10 -35 -30.5 -65.5t-51.5 -53t-72 -35t-92 -12.5q-75 0 -126 27t-81 75q-38 -53 -87 -77t-124 -24zM470 773h183l-119 -161h-117zM261 89q53 0 84.5 29t31.5 73v69
q-17 -11 -41.5 -17.5t-50.5 -12.5q-52 -11 -77 -27t-25 -51t23 -49t55 -14zM642 436q-54 0 -80 -32t-34 -87h218q-4 56 -31.5 87.5t-72.5 31.5z" />
    <glyph glyph-name="Oslashacute" unicode="&#x1fe;" horiz-adv-x="799" 
d="M24 7l92 103q-41 51 -62.5 116.5t-21.5 142.5q0 84 25.5 155t73.5 122.5t116 81t153 29.5q68 0 125.5 -19.5t102.5 -54.5l86 97l60 -51l-90 -102q40 -51 61.5 -116.5t21.5 -141.5q0 -83 -25.5 -154t-73.5 -123t-116 -81t-152 -29q-69 0 -125.5 18.5t-101.5 53.5l-89 -99z
M206 369q0 -77 22 -133l300 335q-23 23 -54.5 35.5t-72.5 12.5q-48 0 -84.5 -19t-61 -53t-37 -79.5t-12.5 -98.5zM401 122q48 0 84 19t60.5 52t36.5 78t12 98q0 37 -5.5 70.5t-16.5 62.5l-298 -335q48 -45 127 -45zM373 916h189l-109 -131h-123z" />
    <glyph glyph-name="oslashacute" unicode="&#x1ff;" horiz-adv-x="616" 
d="M19 -13l77 86q-33 38 -51 86.5t-18 105.5q0 60 20 111.5t57 89.5t89 59.5t116 21.5q50 0 92 -13.5t76 -37.5l71 79l49 -44l-72 -80q31 -37 47.5 -84.5t16.5 -101.5q0 -60 -20 -111.5t-56.5 -89.5t-88.5 -59.5t-115 -21.5q-48 0 -89 12t-74 35l-78 -87zM183 265
q0 -23 2.5 -44t8.5 -39l198 220q-15 16 -36 25t-48 9q-60 0 -92.5 -47.5t-32.5 -123.5zM300 773h183l-119 -161h-117zM308 96q59 0 91.5 47t32.5 122q0 39 -8 74l-195 -216q30 -27 79 -27z" />
    <glyph glyph-name="uni0218" unicode="&#x218;" horiz-adv-x="690" 
d="M355 -18q-75 0 -135 17t-103 49t-66.5 79.5t-25.5 107.5h172q7 -61 46.5 -89t111.5 -28q25 0 48 5t41 15.5t28.5 27t10.5 39.5q0 24 -11.5 40t-33.5 27t-54 19.5t-72 17.5q-54 12 -102 27t-84 39.5t-56.5 62t-20.5 95.5t22 100t61 69.5t92 41t115 13.5q61 0 113 -14
t90 -42t61 -69.5t27 -96.5h-167q-7 44 -40 68t-89 24q-53 0 -85 -21t-32 -56q0 -22 12 -36t35 -24.5t56.5 -18.5t77.5 -18q50 -11 96.5 -26.5t82 -41.5t57 -65t21.5 -98q0 -58 -23 -102.5t-63.5 -75t-95 -46.5t-118.5 -16zM258 -210q32 6 51.5 19.5t19.5 36.5h-67v103h151
v-71q0 -36 -12 -61.5t-33 -42.5t-49 -26t-61 -11v53z" />
    <glyph glyph-name="uni0219" unicode="&#x219;" horiz-adv-x="539" 
d="M273 -17q-58 0 -104 13t-78.5 37t-51 57.5t-21.5 73.5h148q7 -38 34.5 -58t73.5 -20q42 0 65 16t23 45q0 18 -11 29t-30 18t-43.5 11.5t-52.5 9.5q-36 7 -70 16t-61 27t-43.5 47t-16.5 76q0 41 17.5 72t47.5 52t71 31.5t88 10.5q111 0 168 -43.5t68 -113.5h-146
q-15 57 -90 57q-36 0 -57.5 -14t-21.5 -40q0 -15 10 -24.5t28 -15.5t42 -10t51 -9q36 -6 72 -15.5t65 -28.5t47.5 -50.5t18.5 -81.5q0 -43 -18 -76t-50 -55t-76 -33t-96 -11zM185 -210q32 6 51.5 19.5t19.5 36.5h-67v103h151v-71q0 -36 -12 -61.5t-33 -42.5t-49 -26t-61 -11
v53z" />
    <glyph glyph-name="uni021A" unicode="&#x21a;" horiz-adv-x="668" 
d="M27 744h614v-145h-222v-599h-171v599h-221v145zM257 -210q32 6 51.5 19.5t19.5 36.5h-67v103h151v-71q0 -36 -12 -61.5t-33 -42.5t-49 -26t-61 -11v53z" />
    <glyph glyph-name="uni021B" unicode="&#x21b;" horiz-adv-x="389" 
d="M21 532h80v170h154v-170h104v-100h-104v-264q0 -30 15.5 -40.5t43.5 -10.5q8 0 18 0.5t18 1.5h8v-117q-13 -2 -36 -5t-55 -3q-37 0 -67.5 6.5t-52.5 23t-34 43t-12 67.5v298h-80v100zM143 -210q32 6 51.5 19.5t19.5 36.5h-67v103h151v-71q0 -36 -12 -61.5t-33 -42.5
t-49 -26t-61 -11v53z" />
    <glyph glyph-name="uni0237" unicode="&#x237;" horiz-adv-x="261" 
d="M52 -181q-21 0 -46 2t-43 6v111h6h20t17 1q23 2 34.5 13.5t11.5 40.5v539h157v-545q0 -51 -10.5 -80.5t-29.5 -47.5q-22 -22 -51.5 -31t-65.5 -9z" />
    <glyph glyph-name="circumflex" unicode="&#x2c6;" 
d="M173 762h153l109 -148h-135l-47 78h-2l-49 -78h-137z" />
    <glyph glyph-name="caron" unicode="&#x2c7;" 
d="M327 612h-153l-109 148h135l47 -78h2l49 78h137z" />
    <glyph glyph-name="uni02C9" unicode="&#x2c9;" 
d="M96 726h312v-111h-312v111z" />
    <glyph glyph-name="breve" unicode="&#x2d8;" 
d="M272 606q-35 0 -64.5 11t-51.5 31t-35.5 48.5t-14.5 64.5h91q4 -27 22.5 -42.5t51.5 -15.5q31 0 49.5 16.5t22.5 41.5h89q-1 -35 -13 -63.5t-33 -48.5t-50 -31.5t-64 -11.5z" />
    <glyph glyph-name="dotaccent" unicode="&#x2d9;" 
d="M170 744h159v-137h-159v137z" />
    <glyph glyph-name="ring" unicode="&#x2da;" 
d="M251 596q-24 0 -44.5 8.5t-36.5 23t-25 34.5t-9 44q0 23 9 43t25 35t36.5 24t44.5 9q23 0 44 -9t36.5 -24t24.5 -35t9 -43q0 -24 -9 -44t-24.5 -34.5t-36.5 -23t-44 -8.5zM251 653q23 0 37.5 15t14.5 38t-14.5 39t-37.5 16q-24 0 -38.5 -16t-14.5 -39t14.5 -38t38.5 -15z
" />
    <glyph glyph-name="ogonek" unicode="&#x2db;" 
d="M225 -184q-60 0 -90.5 23t-30.5 61q0 20 7.5 36t18.5 28t25 21t28 15h97q-22 -17 -35.5 -36.5t-13.5 -36.5q0 -27 33 -27q9 0 16 1t13 3h2v-79q-10 -4 -26.5 -6.5t-43.5 -2.5z" />
    <glyph glyph-name="tilde" unicode="&#x2dc;" 
d="M326 613q-23 0 -42 6.5t-35 14t-29.5 14t-24.5 6.5q-13 0 -23 -10.5t-12 -31.5h-84q0 35 8.5 61.5t23.5 44t34.5 26.5t41.5 9q24 0 42.5 -6.5t33.5 -14l28 -14t25 -6.5q30 0 34 39h84q0 -63 -27.5 -100.5t-77.5 -37.5z" />
    <glyph glyph-name="hungarumlaut" unicode="&#x2dd;" 
d="M337 773h153l-102 -161h-99zM144 773h153l-103 -161h-99z" />
    <glyph glyph-name="uni0394" unicode="&#x394;" horiz-adv-x="723" 
d="M27 112l240 632h188l241 -632v-112h-669v112zM511 132l-103 283q-13 35 -22.5 69t-15.5 61q-7 32 -12 60h-2q-6 -28 -13 -60q-7 -27 -16 -61t-22 -69l-102 -283h308z" />
    <glyph glyph-name="uni03A9" unicode="&#x3a9;" horiz-adv-x="780" 
d="M40 130h113v2q-60 40 -90.5 106t-30.5 157q0 80 26 146.5t73.5 114.5t113 74.5t145.5 26.5q79 0 145 -26.5t113.5 -74.5t73.5 -114.5t26 -146.5q0 -91 -31 -157t-91 -106v-2h114v-130h-315v125q39 6 67.5 28t47 55.5t27 78t8.5 96.5q0 111 -48 173.5t-137 62.5
t-137 -62.5t-48 -173.5q0 -52 8.5 -96.5t27 -78t47 -55.5t67.5 -28v-125h-315v130z" />
    <glyph glyph-name="uni03BC" unicode="&#x3bc;" horiz-adv-x="603" 
d="M52 532h157v-322q0 -45 21.5 -69t63.5 -24q48 0 75 32t27 82v301h155v-532h-149v76h-3q-20 -36 -55.5 -60t-89.5 -24q-17 0 -29 4.5t-18 10.5h-2q1 -15 2 -32q1 -14 1.5 -32.5t0.5 -35.5v-84h-157v709z" />
    <glyph glyph-name="pi" unicode="&#x3c0;" horiz-adv-x="677" 
d="M96 432h-75v100h626v-100h-81v-277q0 -24 9.5 -33t31.5 -9q8 0 14.5 1t13.5 2h3v-113q-16 -5 -34 -7.5t-44 -2.5q-68 0 -109 30.5t-41 107.5v301h-157v-432h-157v432z" />
    <glyph glyph-name="Wgrave" unicode="&#x1e80;" horiz-adv-x="999" 
d="M9 744h173l71 -291q10 -41 17.5 -89.5t13.5 -92.5l12 -102h2q7 53 16 106q7 45 16 95t17 89l66 285h161l66 -284q8 -39 17 -89.5t16 -95.5q8 -53 15 -106h2q6 52 14 103q6 44 14.5 93t18.5 89l69 290h173l-204 -744h-167l-72 312q-8 35 -15 79t-13 84q-7 47 -13 94h-2
q-6 -47 -13 -94q-6 -40 -13 -84t-15 -79l-73 -312h-168zM320 916h189l43 -131h-122z" />
    <glyph glyph-name="wgrave" unicode="&#x1e81;" horiz-adv-x="822" 
d="M7 532h160l56 -207q6 -24 11.5 -52.5t10.5 -53.5q5 -29 9 -59h2q6 29 11 59q5 26 10.5 55t12.5 53l54 205h133l56 -205q7 -24 13 -53t11 -55q5 -30 11 -60h2q4 29 9 59q5 25 10.5 54t12.5 53l57 207h155l-165 -532h-148l-56 217q-6 23 -12 51t-11 53q-5 29 -10 59h-2
q-6 -30 -12 -59q-5 -25 -11 -53t-12 -51l-58 -217h-146zM240 773h183l53 -161h-116z" />
    <glyph glyph-name="Wacute" unicode="&#x1e82;" horiz-adv-x="999" 
d="M9 744h173l71 -291q10 -41 17.5 -89.5t13.5 -92.5l12 -102h2q7 53 16 106q7 45 16 95t17 89l66 285h161l66 -284q8 -39 17 -89.5t16 -95.5q8 -53 15 -106h2q6 52 14 103q6 44 14.5 93t18.5 89l69 290h173l-204 -744h-167l-72 312q-8 35 -15 79t-13 84q-7 47 -13 94h-2
q-6 -47 -13 -94q-6 -40 -13 -84t-15 -79l-73 -312h-168zM468 916h189l-109 -131h-123z" />
    <glyph glyph-name="wacute" unicode="&#x1e83;" horiz-adv-x="822" 
d="M7 532h160l56 -207q6 -24 11.5 -52.5t10.5 -53.5q5 -29 9 -59h2q6 29 11 59q5 26 10.5 55t12.5 53l54 205h133l56 -205q7 -24 13 -53t11 -55q5 -30 11 -60h2q4 29 9 59q5 25 10.5 54t12.5 53l57 207h155l-165 -532h-148l-56 217q-6 23 -12 51t-11 53q-5 29 -10 59h-2
q-6 -30 -12 -59q-5 -25 -11 -53t-12 -51l-58 -217h-146zM402 773h183l-119 -161h-117z" />
    <glyph glyph-name="Wdieresis" unicode="&#x1e84;" horiz-adv-x="999" 
d="M9 744h173l71 -291q10 -41 17.5 -89.5t13.5 -92.5l12 -102h2q7 53 16 106q7 45 16 95t17 89l66 285h161l66 -284q8 -39 17 -89.5t16 -95.5q8 -53 15 -106h2q6 52 14 103q6 44 14.5 93t18.5 89l69 290h173l-204 -744h-167l-72 312q-8 35 -15 79t-13 84q-7 47 -13 94h-2
q-6 -47 -13 -94q-6 -40 -13 -84t-15 -79l-73 -312h-168zM541 919h152v-134h-152v134zM296 919h153v-134h-153v134z" />
    <glyph glyph-name="wdieresis" unicode="&#x1e85;" horiz-adv-x="822" 
d="M7 532h160l56 -207q6 -24 11.5 -52.5t10.5 -53.5q5 -29 9 -59h2q6 29 11 59q5 26 10.5 55t12.5 53l54 205h133l56 -205q7 -24 13 -53t11 -55q5 -30 11 -60h2q4 29 9 59q5 25 10.5 54t12.5 53l57 207h155l-165 -532h-148l-56 217q-6 23 -12 51t-11 53q-5 29 -10 59h-2
q-6 -30 -12 -59q-5 -25 -11 -53t-12 -51l-58 -217h-146zM458 744h148v-137h-148v137zM215 744h149v-137h-149v137z" />
    <glyph glyph-name="Ygrave" unicode="&#x1ef2;" horiz-adv-x="702" 
d="M266 278l-255 466h187l80 -156q13 -26 26 -56.5t24 -57.5q12 -32 24 -63h2q12 31 25 63q11 27 24.5 57.5t26.5 56.5l81 156h180l-255 -464v-280h-170v278zM177 916h189l43 -131h-122z" />
    <glyph glyph-name="ygrave" unicode="&#x1ef3;" horiz-adv-x="557" 
d="M168 -178h-18t-35 0.5t-35 1t-17 0.5v123h8q1 0 8.5 -0.5t16.5 -0.5h16.5h9.5q71 0 76 54q0 14 -7 42.5t-21 64.5l-165 425h165l68 -204q9 -27 17 -59.5t14 -60.5q7 -33 13 -65h2q7 33 15 66l15 60t17 59l65 204h156l-190 -545q-16 -46 -34 -77.5t-41 -51t-52 -28
t-67 -8.5zM112 773h183l53 -161h-116z" />
    <glyph glyph-name="uni2009" unicode="&#x2009;" horiz-adv-x="110" 
 />
    <glyph glyph-name="endash" unicode="&#x2013;" 
d="M0 332h500v-135h-500v135z" />
    <glyph glyph-name="emdash" unicode="&#x2014;" horiz-adv-x="1000" 
d="M200 332h600v-135h-600v135z" />
    <glyph glyph-name="quoteleft" unicode="&#x2018;" horiz-adv-x="228" 
d="M41 573q0 44 12.5 75.5t33 52.5t47.5 32t56 14v-60q-29 -8 -49.5 -32.5t-20.5 -64.5v-2h67v-147h-146v132z" />
    <glyph glyph-name="quoteright" unicode="&#x2019;" horiz-adv-x="228" 
d="M187 612q0 -44 -12.5 -75.5t-33 -52.5t-47.5 -32t-56 -14v59q29 8 49.5 32.5t20.5 65.5v2h-67v147h146v-132z" />
    <glyph glyph-name="quotesinglbase" unicode="&#x201a;" horiz-adv-x="228" 
d="M187 15q0 -44 -12.5 -75.5t-33 -52.5t-47.5 -32t-56 -14v59q29 8 49.5 32.5t20.5 65.5v2h-67v147h146v-132z" />
    <glyph glyph-name="quotedblleft" unicode="&#x201c;" horiz-adv-x="439" 
d="M252 573q0 44 12.5 75.5t33 52.5t47 32t55.5 14v-60q-29 -8 -49 -32.5t-20 -64.5v-2h67v-147h-146v132zM41 573q0 44 12.5 75.5t33 52.5t47.5 32t56 14v-60q-29 -8 -49.5 -32.5t-20.5 -64.5v-2h67v-147h-146v132z" />
    <glyph glyph-name="quotedblright" unicode="&#x201d;" horiz-adv-x="439" 
d="M187 612q0 -44 -12.5 -75.5t-33 -52.5t-47.5 -32t-56 -14v59q29 8 49.5 32.5t20.5 65.5v2h-67v147h146v-132zM398 612q0 -44 -12.5 -75.5t-33 -52.5t-47.5 -32t-56 -14v59q29 8 49.5 32.5t20.5 65.5v2h-67v147h146v-132z" />
    <glyph glyph-name="quotedblbase" unicode="&#x201e;" horiz-adv-x="439" 
d="M187 15q0 -44 -12.5 -75.5t-33 -52.5t-47.5 -32t-56 -14v59q29 8 49.5 32.5t20.5 65.5v2h-67v147h146v-132zM398 15q0 -44 -12.5 -75.5t-33 -52.5t-47.5 -32t-56 -14v59q29 8 49.5 32.5t20.5 65.5v2h-67v147h146v-132z" />
    <glyph glyph-name="dagger" unicode="&#x2020;" horiz-adv-x="628" 
d="M44 537h186v207h166v-207h187v-130h-187v-550h-166v550h-186v130z" />
    <glyph glyph-name="daggerdbl" unicode="&#x2021;" horiz-adv-x="628" 
d="M44 537h186v207h166v-207h187v-130h-187v-213h187v-131h-187v-206h-166v206h-186v131h186v213h-186v130z" />
    <glyph glyph-name="bullet" unicode="&#x2022;" horiz-adv-x="396" 
d="M198 183q-31 0 -58.5 12t-48 32t-32.5 47.5t-12 58.5t12 58.5t32.5 48.5t48 33t58.5 12t58.5 -12t48 -33t32.5 -48.5t12 -58.5t-12 -58.5t-32.5 -47.5t-48 -32t-58.5 -12z" />
    <glyph glyph-name="ellipsis" unicode="&#x2026;" horiz-adv-x="823" 
d="M44 164h166v-164h-166v164zM328 164h167v-164h-167v164zM613 164h166v-164h-166v164z" />
    <glyph glyph-name="perthousand" unicode="&#x2030;" horiz-adv-x="1346" 
d="M609 712h94l-388 -712h-94zM218 312q-41 0 -75 14.5t-59 41.5t-39 65.5t-14 86.5q0 47 14 85.5t39 65.5t59 41.5t75 14.5t75.5 -14.5t59 -41.5t38 -65t13.5 -86t-14 -86.5t-38.5 -65.5t-59 -41.5t-74.5 -14.5zM706 -18q-40 0 -74 15t-59 42t-39 65.5t-14 86.5
q0 47 14 85.5t39 65.5t59 42t74 15q42 0 76.5 -15t59 -42t38.5 -65.5t14 -85.5q0 -48 -14 -86.5t-39 -65.5t-59.5 -42t-75.5 -15zM218 398q35 0 51 34t16 88q0 53 -16 88t-51 35t-50.5 -34.5t-15.5 -88.5t15.5 -88t50.5 -34zM706 69q35 0 51 34t16 88t-16 89t-51 35
q-34 0 -50 -35t-16 -89t16 -88t50 -34zM1128 -18q-41 0 -75.5 15t-59.5 42t-39 65.5t-14 86.5q0 47 14 85.5t39.5 65.5t59.5 42t75 15t75.5 -15t59 -42t38.5 -65.5t14 -85.5q0 -48 -14 -86.5t-38.5 -65.5t-59 -42t-75.5 -15zM1128 69q35 0 51 34t16 88t-16.5 89t-50.5 35
q-35 0 -50.5 -35t-15.5 -89t15.5 -88t50.5 -34z" />
    <glyph glyph-name="minute" unicode="&#x2032;" horiz-adv-x="241" 
d="M73 744h137l-41 -274h-138z" />
    <glyph glyph-name="second" unicode="&#x2033;" horiz-adv-x="443" 
d="M275 744h137l-41 -274h-138zM73 744h137l-41 -274h-138z" />
    <glyph glyph-name="guilsinglleft" unicode="&#x2039;" horiz-adv-x="301" 
d="M59 189v151l183 163v-142l-104 -97v-2l104 -95v-142z" />
    <glyph glyph-name="guilsinglright" unicode="&#x203a;" horiz-adv-x="301" 
d="M242 339v-150l-183 -164v143l105 96v2l-105 96v141z" />
    <glyph glyph-name="fraction" unicode="&#x2044;" horiz-adv-x="295" 
d="M353 744h104l-628 -874h-103z" />
    <glyph glyph-name="uni2070" unicode="&#x2070;" horiz-adv-x="490" 
d="M245 372q44 0 62 39.5t18 103.5q0 63 -18.5 104t-61.5 41t-61.5 -41t-18.5 -104q0 -64 18.5 -103.5t61.5 -39.5zM245 276q-45 0 -84 16.5t-67.5 47.5t-45 75.5t-16.5 99.5q0 54 16 98.5t44.5 75.5t67.5 48t85 17q48 0 87 -17t67 -48t43.5 -75.5t15.5 -98.5
q0 -55 -16 -99.5t-44.5 -75.5t-67.5 -47.5t-85 -16.5z" />
    <glyph glyph-name="uni2074" unicode="&#x2074;" horiz-adv-x="466" 
d="M252 384h-219v103l219 262h128v-276h67v-89h-67v-96h-128v96zM112 466q14 1 28 3q12 2 25.5 3t24.5 1h62v96q0 10 0.5 21.5t2.5 22.5q2 12 4 25h-2l-14 -21q-13 -20 -27 -37l-46 -57q-18 -19 -37 -37q-11 -10 -21 -18v-2z" />
    <glyph glyph-name="uni2075" unicode="&#x2075;" horiz-adv-x="435" 
d="M213 275q-40 0 -73.5 10t-59 28.5t-41 44t-19.5 56.5h116q5 -19 24.5 -31.5t50.5 -12.5t50.5 20t19.5 52q0 35 -19.5 52t-50.5 17q-23 0 -40.5 -7.5t-27.5 -19.5h-109l48 260h292v-95h-207l-17 -89h2q14 16 37 25t58 9q33 0 62 -10t50.5 -29t33.5 -46.5t12 -63.5
q0 -38 -14 -69.5t-39 -54t-60.5 -34.5t-78.5 -12z" />
    <glyph glyph-name="uni2076" unicode="&#x2076;" horiz-adv-x="461" 
d="M241 277q-48 0 -84.5 14.5t-62.5 40.5q-62 62 -62 184q0 53 13 97.5t41 76.5q54 65 158 65q72 0 117.5 -33t59.5 -93h-124q-4 14 -16 27t-40 13q-36 0 -58.5 -29t-27.5 -85h1q38 47 108 47q34 0 64.5 -11.5t53.5 -32.5t36.5 -51t13.5 -67t-14 -67t-39 -51.5t-60.5 -33
t-77.5 -11.5zM237 369q33 0 53 20t20 51q0 32 -20 52.5t-53 20.5q-34 0 -54.5 -20.5t-20.5 -52.5q0 -31 21 -51t54 -20z" />
    <glyph glyph-name="uni2077" unicode="&#x2077;" horiz-adv-x="403" 
d="M94 288q1 58 15 110t37 96t53 81.5t64 67.5v2q-11 -2 -28 -3q-14 -1 -35 -1.5t-47 -0.5h-128v104h355v-94q-61 -60 -103 -152t-45 -210h-138z" />
    <glyph glyph-name="uni2078" unicode="&#x2078;" horiz-adv-x="456" 
d="M228 276q-93 0 -147 38t-54 102q0 39 24.5 69t72.5 44v3q-76 28 -76 93q0 28 13 51.5t36.5 41t56.5 27t74 9.5q84 0 132.5 -34.5t48.5 -91.5q0 -30 -18.5 -54.5t-56.5 -38.5v-3q48 -14 72 -44.5t24 -68.5q0 -67 -54 -105t-148 -38zM228 567q31 0 47 14.5t16 39.5
q0 23 -16 38t-47 15q-30 0 -46 -15t-16 -38q0 -25 16 -39.5t46 -14.5zM228 363q35 0 55 17t20 45q0 29 -19.5 47.5t-54.5 18.5q-34 0 -54.5 -18.5t-20.5 -47.5t20.5 -45.5t53.5 -16.5z" />
    <glyph glyph-name="uni2079" unicode="&#x2079;" horiz-adv-x="458" 
d="M223 276q-75 0 -124.5 35t-60.5 92h120q5 -14 19.5 -27t42.5 -13q36 0 56 26q11 13 17 33.5t8 50.5h-2q-17 -20 -41.5 -33t-59.5 -13t-65.5 11.5t-53.5 32.5t-36.5 51t-13.5 68q0 37 14.5 67.5t40 52t61 33t77.5 11.5q41 0 75 -12t60 -33q37 -29 53 -77t16 -117
q0 -53 -13 -100.5t-41 -79.5q-53 -59 -149 -59zM224 516q33 0 53.5 21t20.5 53q0 31 -20.5 52t-53.5 21t-54 -21t-21 -52q0 -32 21 -53t54 -21z" />
    <glyph glyph-name="uni2080" unicode="&#x2080;" horiz-adv-x="490" 
d="M245 -76q44 0 62 39.5t18 103.5q0 63 -18.5 104t-61.5 41t-61.5 -41t-18.5 -104q0 -64 18.5 -103.5t61.5 -39.5zM245 -172q-45 0 -84 16.5t-67.5 47.5t-45 75.5t-16.5 99.5q0 54 16 98.5t44.5 75.5t67.5 48t85 17q48 0 87 -17t67 -48t43.5 -75.5t15.5 -98.5
q0 -55 -16 -99.5t-44.5 -75.5t-67.5 -47.5t-85 -16.5z" />
    <glyph glyph-name="uni2081" unicode="&#x2081;" horiz-adv-x="342" 
d="M144 116h-115v87q60 2 96 26t46 72h102v-461h-129v276z" />
    <glyph glyph-name="uni2082" unicode="&#x2082;" horiz-adv-x="436" 
d="M28 -160q1 67 31 109t75 74q30 21 56.5 36.5t46.5 29.5t31.5 29t11.5 35q0 25 -14 40.5t-43 15.5q-32 0 -50.5 -21.5t-18.5 -56.5h-120q0 42 14 74.5t39 54.5t60.5 33.5t78.5 11.5q42 0 75.5 -11.5t56 -31t34.5 -46t12 -55.5q0 -24 -5.5 -43t-15 -34t-23 -27.5
t-28.5 -24.5q-17 -14 -37 -26t-39 -23t-36 -21.5t-28 -22.5h213v-99h-377v0z" />
    <glyph glyph-name="uni2083" unicode="&#x2083;" horiz-adv-x="444" 
d="M227 -172q-51 0 -89 12.5t-63.5 34.5t-39 50.5t-13.5 61.5h121q2 -25 19 -45t57 -20q33 0 50.5 15t17.5 42q0 31 -20 43t-57 12h-26v84h22q34 0 53 12t19 37q0 23 -16 36.5t-42 13.5q-34 0 -48.5 -18t-16.5 -39h-120q2 30 15.5 56.5t37.5 46.5t58.5 31.5t78.5 11.5
q39 0 71 -9t55 -25.5t36 -41t13 -55.5q0 -34 -21 -55t-59 -35v-1q45 -13 70 -39.5t25 -72.5q0 -37 -15 -64t-40.5 -45t-59.5 -26.5t-73 -8.5z" />
    <glyph glyph-name="uni2084" unicode="&#x2084;" horiz-adv-x="466" 
d="M252 -64h-219v103l219 262h128v-276h67v-89h-67v-96h-128v96zM112 18q14 1 28 3q12 2 25.5 3t24.5 1h62v96q0 10 0.5 21.5t2.5 22.5q2 12 4 25h-2l-14 -21q-13 -20 -27 -37l-46 -57q-18 -19 -37 -37q-11 -10 -21 -18v-2z" />
    <glyph glyph-name="uni2085" unicode="&#x2085;" horiz-adv-x="435" 
d="M213 -173q-40 0 -73.5 10t-59 28.5t-41 44t-19.5 56.5h116q5 -19 24.5 -31.5t50.5 -12.5t50.5 20t19.5 52q0 35 -19.5 52t-50.5 17q-23 0 -40.5 -7.5t-27.5 -19.5h-109l48 260h292v-95h-207l-17 -89h2q14 16 37 25t58 9q33 0 62 -10t50.5 -29t33.5 -46.5t12 -63.5
q0 -38 -14 -69.5t-39 -54t-60.5 -34.5t-78.5 -12z" />
    <glyph glyph-name="uni2086" unicode="&#x2086;" horiz-adv-x="461" 
d="M241 -171q-48 0 -84.5 14.5t-62.5 40.5q-62 62 -62 184q0 53 13 97.5t41 76.5q54 65 158 65q72 0 117.5 -33t59.5 -93h-124q-4 14 -16 27t-40 13q-36 0 -58.5 -29t-27.5 -85h1q38 47 108 47q34 0 64.5 -11.5t53.5 -32.5t36.5 -51t13.5 -67t-14 -67t-39 -51.5t-60.5 -33
t-77.5 -11.5zM237 -79q33 0 53 20t20 51q0 32 -20 52.5t-53 20.5q-34 0 -54.5 -20.5t-20.5 -52.5q0 -31 21 -51t54 -20z" />
    <glyph glyph-name="uni2087" unicode="&#x2087;" horiz-adv-x="403" 
d="M94 -160q1 58 15 110t37 96t53 81.5t64 67.5v2q-11 -2 -28 -3q-14 -1 -35 -1.5t-47 -0.5h-128v104h355v-94q-61 -60 -103 -152t-45 -210h-138z" />
    <glyph glyph-name="uni2088" unicode="&#x2088;" horiz-adv-x="456" 
d="M228 -172q-93 0 -147 38t-54 102q0 39 24.5 69t72.5 44v3q-76 28 -76 93q0 28 13 51.5t36.5 41t56.5 27t74 9.5q84 0 132.5 -34.5t48.5 -91.5q0 -30 -18.5 -54.5t-56.5 -38.5v-3q48 -14 72 -44.5t24 -68.5q0 -67 -54 -105t-148 -38zM228 119q31 0 47 14.5t16 39.5
q0 23 -16 38t-47 15q-30 0 -46 -15t-16 -38q0 -25 16 -39.5t46 -14.5zM228 -85q35 0 55 17t20 45q0 29 -19.5 47.5t-54.5 18.5q-34 0 -54.5 -18.5t-20.5 -47.5t20.5 -45.5t53.5 -16.5z" />
    <glyph glyph-name="uni2089" unicode="&#x2089;" horiz-adv-x="458" 
d="M223 -172q-75 0 -124.5 35t-60.5 92h120q5 -14 19.5 -27t42.5 -13q36 0 56 26q11 13 17 33.5t8 50.5h-2q-17 -20 -41.5 -33t-59.5 -13t-65.5 11.5t-53.5 32.5t-36.5 51t-13.5 68q0 37 14.5 67.5t40 52t61 33t77.5 11.5q41 0 75 -12t60 -33q37 -29 53 -77t16 -117
q0 -53 -13 -100.5t-41 -79.5q-53 -59 -149 -59zM224 68q33 0 53.5 21t20.5 53q0 31 -20.5 52t-53.5 21t-54 -21t-21 -52q0 -32 21 -53t54 -21z" />
    <glyph glyph-name="Euro" unicode="&#x20ac;" horiz-adv-x="687" 
d="M27 453h53q12 61 39 111.5t66 86.5t89.5 56t110.5 20q62 0 110.5 -18.5t83 -51t54 -78t24.5 -99.5h-160q-8 54 -36.5 86.5t-79.5 32.5q-56 0 -89 -39.5t-46 -106.5h167v-65h-174q-1 -8 -1 -16.5v-16.5v-21t1 -19h174v-65h-165q14 -66 48.5 -100.5t90.5 -34.5t85.5 38.5
t34.5 95.5h156q-3 -58 -22.5 -106.5t-54.5 -84t-85 -55.5t-114 -20q-59 0 -109.5 19t-90 53.5t-66.5 84t-40 110.5h-54v65h45q-1 10 -1 19.5v20.5v16.5t1 16.5h-45v65z" />
    <glyph glyph-name="uni2113" unicode="&#x2113;" horiz-adv-x="435" 
d="M68 583q0 45 13 77t36.5 52.5t56 30t71.5 9.5q75 0 117.5 -40t42.5 -138q0 -125 -50.5 -203.5t-139.5 -127.5v-52q0 -42 16 -56.5t55 -14.5q20 0 33 3t28 7h3v-120q-20 -7 -48 -11.5t-60 -4.5q-39 0 -71.5 7.5t-55 26.5t-35 51.5t-12.5 81.5v22q-12 -4 -28 -9t-28 -8v91
q13 4 29 9t27 10v307zM215 350q7 5 17 15t21 25q21 29 34 74t13 117q0 42 -10.5 56t-29.5 14q-17 0 -31 -13.5t-14 -46.5v-241z" />
    <glyph glyph-name="trademark" unicode="&#x2122;" horiz-adv-x="965" 
d="M450 744h151l35 -117q6 -20 11.5 -45t10.5 -46q5 -26 11 -50h2q5 24 10 50q5 21 11 46t12 45l35 117h153v-382h-100v113v51.5t1 53.5q1 29 2 57h-3q-6 -28 -13 -54q-6 -23 -13 -49t-15 -49l-38 -123h-88l-38 123q-8 23 -14.5 49.5t-12.5 49.5q-7 26 -13 53h-2
q0 -28 1 -57q1 -25 1.5 -53.5t0.5 -51.5v-113h-98v382zM51 744h334v-92h-111v-290h-112v290h-111v92z" />
    <glyph glyph-name="Omega" unicode="&#x2126;" horiz-adv-x="780" 
d="M40 130h113v2q-60 40 -90.5 106t-30.5 157q0 80 26 146.5t73.5 114.5t113 74.5t145.5 26.5q79 0 145 -26.5t113.5 -74.5t73.5 -114.5t26 -146.5q0 -91 -31 -157t-91 -106v-2h114v-130h-315v125q39 6 67.5 28t47 55.5t27 78t8.5 96.5q0 111 -48 173.5t-137 62.5
t-137 -62.5t-48 -173.5q0 -52 8.5 -96.5t27 -78t47 -55.5t67.5 -28v-125h-315v130z" />
    <glyph glyph-name="estimated" unicode="&#x212e;" horiz-adv-x="751" 
d="M216 364v-275q32 -23 76.5 -36.5t102.5 -13.5q109 0 172 49t92 137h58q-12 -52 -39 -95.5t-67.5 -75.5t-94.5 -50t-121 -18q-87 0 -155 28.5t-115 80t-71.5 122.5t-24.5 156t27 156t75 122t114 79t144 28q66 0 121 -18.5t95 -53.5q66 -56 91.5 -136.5t24.5 -185.5h-505z
M389 709q-54 0 -98 -14.5t-75 -37.5v-244h321v258q-27 16 -64.5 27t-83.5 11z" />
    <glyph glyph-name="onethird" unicode="&#x2153;" horiz-adv-x="965" 
d="M147 564h-115v87q60 2 96 26t46 72h102v-461h-129v276zM694 744h104l-628 -874h-103zM745 -122q-51 0 -89 12.5t-63.5 34.5t-39 50.5t-13.5 61.5h121q2 -25 19 -45t57 -20q33 0 50.5 15t17.5 42q0 31 -20 43t-57 12h-26v84h22q34 0 53 12t19 37q0 23 -16 36.5t-42 13.5
q-34 0 -48.5 -18t-16.5 -39h-120q2 30 15.5 56.5t37.5 46.5t58.5 31.5t78.5 11.5q39 0 71 -9t55 -25.5t36 -41t13 -55.5q0 -34 -21 -55t-59 -35v-1q45 -13 70 -39.5t25 -72.5q0 -37 -15 -64t-40.5 -45t-59.5 -26.5t-73 -8.5z" />
    <glyph glyph-name="twothirds" unicode="&#x2154;" horiz-adv-x="1053" 
d="M31 288q1 67 31 109t75 74q30 21 56.5 36.5t46.5 29.5t31.5 29t11.5 35q0 25 -14 40.5t-43 15.5q-32 0 -50.5 -21.5t-18.5 -56.5h-120q0 42 14 74.5t39 54.5t60.5 33.5t78.5 11.5q42 0 75.5 -11.5t56 -31t34.5 -46t12 -55.5q0 -24 -5.5 -43t-15 -34t-23 -27.5
t-28.5 -24.5q-17 -14 -37 -26t-39 -23t-36 -21.5t-28 -22.5h213v-99h-377zM798 744h104l-628 -874h-103zM833 -122q-51 0 -89 12.5t-63.5 34.5t-39 50.5t-13.5 61.5h121q2 -25 19 -45t57 -20q33 0 50.5 15t17.5 42q0 31 -20 43t-57 12h-26v84h22q34 0 53 12t19 37
q0 23 -16 36.5t-42 13.5q-34 0 -48.5 -18t-16.5 -39h-120q2 30 15.5 56.5t37.5 46.5t58.5 31.5t78.5 11.5q39 0 71 -9t55 -25.5t36 -41t13 -55.5q0 -34 -21 -55t-59 -35v-1q45 -13 70 -39.5t25 -72.5q0 -37 -15 -64t-40.5 -45t-59.5 -26.5t-73 -8.5z" />
    <glyph glyph-name="oneeighth" unicode="&#x215b;" horiz-adv-x="943" 
d="M147 564h-115v87q60 2 96 26t46 72h102v-461h-129v276zM684 744h104l-628 -874h-103zM712 -122q-93 0 -147 38t-54 102q0 39 24.5 69t72.5 44v3q-76 28 -76 93q0 28 13 51.5t36.5 41t56.5 27t74 9.5q84 0 132.5 -34.5t48.5 -91.5q0 -30 -18.5 -54.5t-56.5 -38.5v-3
q48 -14 72 -44.5t24 -68.5q0 -67 -54 -105t-148 -38zM712 169q31 0 47 14.5t16 39.5q0 23 -16 38t-47 15q-30 0 -46 -15t-16 -38q0 -25 16 -39.5t46 -14.5zM712 -35q35 0 55 17t20 45q0 29 -19.5 47.5t-54.5 18.5q-34 0 -54.5 -18.5t-20.5 -47.5t20.5 -45.5t53.5 -16.5z" />
    <glyph glyph-name="threeeighths" unicode="&#x215c;" horiz-adv-x="1022" 
d="M230 276q-51 0 -89 12.5t-63.5 34.5t-39 50.5t-13.5 61.5h121q2 -25 19 -45t57 -20q33 0 50.5 15t17.5 42q0 31 -20 43t-57 12h-26v84h22q34 0 53 12t19 37q0 23 -16 36.5t-42 13.5q-34 0 -48.5 -18t-16.5 -39h-120q2 30 15.5 56.5t37.5 46.5t58.5 31.5t78.5 11.5
q39 0 71 -9t55 -25.5t36 -41t13 -55.5q0 -34 -21 -55t-59 -35v-1q45 -13 70 -39.5t25 -72.5q0 -37 -15 -64t-40.5 -45t-59.5 -26.5t-73 -8.5zM764 744h104l-628 -874h-103zM791 -122q-93 0 -147 38t-54 102q0 39 24.5 69t72.5 44v3q-76 28 -76 93q0 28 13 51.5t36.5 41
t56.5 27t74 9.5q84 0 132.5 -34.5t48.5 -91.5q0 -30 -18.5 -54.5t-56.5 -38.5v-3q48 -14 72 -44.5t24 -68.5q0 -67 -54 -105t-148 -38zM791 169q31 0 47 14.5t16 39.5q0 23 -16 38t-47 15q-30 0 -46 -15t-16 -38q0 -25 16 -39.5t46 -14.5zM791 -35q35 0 55 17t20 45
q0 29 -19.5 47.5t-54.5 18.5q-34 0 -54.5 -18.5t-20.5 -47.5t20.5 -45.5t53.5 -16.5z" />
    <glyph glyph-name="fiveeighths" unicode="&#x215d;" horiz-adv-x="999" 
d="M216 275q-40 0 -73.5 10t-59 28.5t-41 44t-19.5 56.5h116q5 -19 24.5 -31.5t50.5 -12.5t50.5 20t19.5 52q0 35 -19.5 52t-50.5 17q-23 0 -40.5 -7.5t-27.5 -19.5h-109l48 260h292v-95h-207l-17 -89h2q14 16 37 25t58 9q33 0 62 -10t50.5 -29t33.5 -46.5t12 -63.5
q0 -38 -14 -69.5t-39 -54t-60.5 -34.5t-78.5 -12zM748 744h104l-628 -874h-103zM768 -122q-93 0 -147 38t-54 102q0 39 24.5 69t72.5 44v3q-76 28 -76 93q0 28 13 51.5t36.5 41t56.5 27t74 9.5q84 0 132.5 -34.5t48.5 -91.5q0 -30 -18.5 -54.5t-56.5 -38.5v-3
q48 -14 72 -44.5t24 -68.5q0 -67 -54 -105t-148 -38zM768 169q31 0 47 14.5t16 39.5q0 23 -16 38t-47 15q-30 0 -46 -15t-16 -38q0 -25 16 -39.5t46 -14.5zM768 -35q35 0 55 17t20 45q0 29 -19.5 47.5t-54.5 18.5q-34 0 -54.5 -18.5t-20.5 -47.5t20.5 -45.5t53.5 -16.5z" />
    <glyph glyph-name="seveneighths" unicode="&#x215e;" horiz-adv-x="969" 
d="M738 -122q-93 0 -147 38t-54 102q0 39 24.5 69t72.5 44v3q-76 28 -76 93q0 28 13 51.5t36.5 41t56.5 27t74 9.5q84 0 132.5 -34.5t48.5 -91.5q0 -30 -18.5 -54.5t-56.5 -38.5v-3q48 -14 72 -44.5t24 -68.5q0 -67 -54 -105t-148 -38zM689 744h104l-628 -874h-103zM97 288
q1 58 15 110t37 96t53 81.5t64 67.5v2q-11 -2 -28 -3q-14 -1 -35 -1.5t-47 -0.5h-128v104h355v-94q-61 -60 -103 -152t-45 -210h-138zM738 -35q35 0 55 17t20 45q0 29 -19.5 47.5t-54.5 18.5q-34 0 -54.5 -18.5t-20.5 -47.5t20.5 -45.5t53.5 -16.5zM738 169q31 0 47 14.5
t16 39.5q0 23 -16 38t-47 15q-30 0 -46 -15t-16 -38q0 -25 16 -39.5t46 -14.5z" />
    <glyph glyph-name="partialdiff" unicode="&#x2202;" horiz-adv-x="616" 
d="M416 446q-17 75 -75.5 116.5t-167.5 56.5v132q107 -8 184 -40t126.5 -86t73 -130t23.5 -173q0 -74 -18 -136t-54.5 -107t-92 -70t-130.5 -25q-61 0 -108 17.5t-79.5 49t-49.5 73.5t-17 92q0 59 19 109.5t53.5 87t83 57t107.5 20.5q38 0 69.5 -10.5t52.5 -33.5zM287 94
q32 0 56 15t39.5 39.5t23.5 55t8 62.5q0 54 -25 85t-73 31q-59 0 -93.5 -45.5t-34.5 -118.5q0 -57 25 -90.5t74 -33.5z" />
    <glyph glyph-name="Delta" unicode="&#x2206;" horiz-adv-x="723" 
d="M27 112l240 632h188l241 -632v-112h-669v112zM511 132l-103 283q-13 35 -22.5 69t-15.5 61q-7 32 -12 60h-2q-6 -28 -13 -60q-7 -27 -16 -61t-22 -69l-102 -283h308z" />
    <glyph glyph-name="product" unicode="&#x220f;" horiz-adv-x="764" 
d="M695 744v-848h-172v703h-283v-703h-171v848h626z" />
    <glyph glyph-name="summation" unicode="&#x2211;" horiz-adv-x="672" 
d="M49 -104v143l256 289v2l-256 279v135h571v-134h-376v-2l228 -243v-67l-235 -260v-2h393v-140h-581z" />
    <glyph glyph-name="minus" unicode="&#x2212;" horiz-adv-x="606" 
d="M53 405h500v-126h-500v126z" />
    <glyph glyph-name="uni2215" unicode="&#x2215;" horiz-adv-x="295" 
d="M353 744h104l-628 -874h-103z" />
    <glyph glyph-name="uni2219" unicode="&#x2219;" horiz-adv-x="257" 
d="M45 412h167v-165h-167v165z" />
    <glyph glyph-name="radical" unicode="&#x221a;" horiz-adv-x="683" 
d="M18 345h185l56 -143q10 -26 18.5 -50.5t14.5 -44.5q7 -23 13 -43h2q5 20 11 43q5 20 11.5 44.5t14.5 50.5l170 542h160l-278 -848h-168l-134 315h-76v134z" />
    <glyph glyph-name="infinity" unicode="&#x221e;" horiz-adv-x="749" 
d="M194 127q-41 0 -72 15t-52 41t-32 60.5t-11 73.5t11 73.5t32.5 60.5t52.5 41t71 15q32 0 58.5 -9t48.5 -24t41 -35.5t36 -44.5q16 24 34.5 44.5t39.5 35.5t46.5 24t56.5 9q37 0 67.5 -13.5t52.5 -38t34.5 -60t12.5 -78.5q0 -44 -12.5 -79t-34.5 -59.5t-52.5 -38
t-67.5 -13.5q-62 0 -103 32.5t-74 81.5q-17 -24 -36 -45t-41 -36.5t-48.5 -24t-58.5 -8.5zM205 395q-32 0 -46.5 -23t-14.5 -55t14.5 -55.5t46.5 -23.5q31 0 54 24t41 54q-18 32 -41 55.5t-54 23.5zM544 238q32 0 47.5 23.5t15.5 55.5t-15.5 55t-47.5 23q-29 0 -50.5 -23.5
t-40.5 -55.5q19 -30 40.5 -54t50.5 -24z" />
    <glyph glyph-name="integral" unicode="&#x222b;" horiz-adv-x="387" 
d="M-1 -54h3q10 -2 20.5 -3t24.5 -1q33 0 49 12.5t16 47.5v585q0 93 44 134.5t133 41.5q22 0 47 -2.5t46 -8.5v-119h-2q-15 5 -41 5q-35 0 -52 -12.5t-17 -47.5v-586q0 -91 -43.5 -133.5t-132.5 -42.5q-23 0 -48.5 2.5t-46.5 7.5v120z" />
    <glyph glyph-name="approxequal" unicode="&#x2248;" horiz-adv-x="606" 
d="M422 356q-29 0 -60 5.5t-60.5 12t-56 12t-45.5 5.5q-36 0 -42 -42h-103q1 91 38 131t96 40q29 0 60 -6t60 -12.5t54 -12.5t43 -6q22 0 30.5 9.5t10.5 29.5h104q0 -82 -31 -124t-98 -42zM422 136q-29 0 -60 5.5t-60.5 12t-56 12t-45.5 5.5q-36 0 -42 -42h-103q1 91 38 131
t96 40q29 0 60 -5.5t60 -12.5t54 -12.5t43 -5.5q22 0 30.5 9t10.5 29h104q0 -81 -31 -123.5t-98 -42.5z" />
    <glyph glyph-name="notequal" unicode="&#x2260;" horiz-adv-x="603" 
d="M61 491h277l53 104h103l-53 -104h106v-119h-166l-51 -99h217v-119h-277l-53 -104h-103l53 104h-106v119h166l51 99h-217v119z" />
    <glyph glyph-name="lessequal" unicode="&#x2264;" horiz-adv-x="541" 
d="M55 120h426v-120h-426v120zM55 290v153l426 144v-131l-176 -52q-22 -7 -47 -13.5t-48 -11.5q-26 -6 -53 -13v-2q27 -6 53 -11q23 -5 48.5 -11t46.5 -12l176 -50v-134z" />
    <glyph glyph-name="greaterequal" unicode="&#x2265;" horiz-adv-x="541" 
d="M486 0h-426v120h426v-120zM486 443v-153l-426 -144v131l176 52q21 6 46.5 13t48.5 12q26 6 53 13v2q-27 5 -53 11q-23 5 -48.5 11t-46.5 12l-176 50v134z" />
    <glyph glyph-name="uni24C5" unicode="&#x24c5;" horiz-adv-x="867" 
d="M434 -18q-80 0 -150 29t-122 81t-81.5 123t-29.5 154q0 84 29.5 155t81.5 122.5t122 81t150 29.5t150 -29.5t121.5 -81t81 -122.5t29.5 -155q0 -83 -29.5 -154t-81 -123t-121.5 -81t-150 -29zM434 32q69 0 128 25.5t102 70.5t67.5 107t24.5 134q0 73 -24.5 134.5
t-67.5 106.5t-102 70.5t-128 25.5t-128.5 -25.5t-103 -70.5t-68 -106.5t-24.5 -134.5q0 -72 24.5 -134t68 -107t103 -70.5t128.5 -25.5zM279 582h193q38 0 66 -10t48 -29q42 -39 42 -102q0 -61 -38.5 -100t-102.5 -39h-99v-138h-109v418zM388 387h73q28 0 43.5 13.5
t15.5 38.5q0 26 -15.5 40t-44.5 14h-72v-106z" />
    <glyph glyph-name="lozenge" unicode="&#x25ca;" horiz-adv-x="633" 
d="M610 371l-209 -371h-168l-210 372l209 372h168zM268 216q13 -25 22 -44t15 -33q7 -16 11 -28h2q4 12 11 28q11 29 36 77l80 152l-82 158q-13 24 -21.5 43t-14.5 33q-7 16 -12 28h-2q-5 -12 -11 -28q-6 -14 -14.5 -33t-21.5 -43l-81 -152z" />
    <glyph glyph-name="uniF001" unicode="&#xf001;" horiz-adv-x="644" 
d="M20 532h80v45q0 49 15 80t47 50q32 26 86 33.5t120 -0.5v-112q-30 1 -51 0t-34.5 -7.5t-19.5 -19.5t-6 -35v-34h111v-102h-111v-430h-157v430h-80v102zM435 532h156v-532h-156v532zM434 744h158v-137h-158v137z" />
    <glyph glyph-name="uniF002" unicode="&#xf002;" horiz-adv-x="647" 
d="M20 532h80v45q0 49 15 80t47 50q32 26 86 33.5t120 -0.5v-112q-30 1 -51 0t-34.5 -7.5t-19.5 -19.5t-6 -35v-34h111v-102h-111v-430h-157v430h-80v102zM435 744h158v-744h-158v744z" />
    <glyph glyph-name="uniF8FF" unicode="&#xf8ff;" horiz-adv-x="880" 
d="M68 745h745v-745h-745v745zM190 299h175v-176h150v176h175v149h-175v170h-150v-170h-175v-149z" />
    <glyph glyph-name="glyph326" horiz-adv-x="261" 
d="M52 -181q-21 0 -46 2t-43 6v111h6h20t17 1q23 2 34.5 13.5t11.5 40.5v539h157v-545q0 -51 -10.5 -80.5t-29.5 -47.5q-22 -22 -51.5 -31t-65.5 -9z" />
    <glyph glyph-name="glyph336" 
d="M173 -210q32 6 51.5 19.5t19.5 36.5h-67v103h151v-71q0 -36 -12 -61.5t-33 -42.5t-49 -26t-61 -11v53z" />
    <glyph glyph-name="zero.dnom" horiz-adv-x="490" 
d="M245 -26q44 0 62 39.5t18 103.5q0 63 -18.5 104t-61.5 41t-61.5 -41t-18.5 -104q0 -64 18.5 -103.5t61.5 -39.5zM245 -122q-45 0 -84 16.5t-67.5 47.5t-45 75.5t-16.5 99.5q0 54 16 98.5t44.5 75.5t67.5 48t85 17q48 0 87 -17t67 -48t43.5 -75.5t15.5 -98.5
q0 -55 -16 -99.5t-44.5 -75.5t-67.5 -47.5t-85 -16.5z" />
    <glyph glyph-name="one.dnom" horiz-adv-x="342" 
d="M144 166h-115v87q60 2 96 26t46 72h102v-461h-129v276z" />
    <glyph glyph-name="two.dnom" horiz-adv-x="436" 
d="M28 -110q1 67 31 109t75 74q30 21 56.5 36.5t46.5 29.5t31.5 29t11.5 35q0 25 -14 40.5t-43 15.5q-32 0 -50.5 -21.5t-18.5 -56.5h-120q0 42 14 74.5t39 54.5t60.5 33.5t78.5 11.5q42 0 75.5 -11.5t56 -31t34.5 -46t12 -55.5q0 -24 -5.5 -43t-15 -34t-23 -27.5
t-28.5 -24.5q-17 -14 -37 -26t-39 -23t-36 -21.5t-28 -22.5h213v-99h-377v0z" />
    <glyph glyph-name="three.dnom" horiz-adv-x="444" 
d="M227 -122q-51 0 -89 12.5t-63.5 34.5t-39 50.5t-13.5 61.5h121q2 -25 19 -45t57 -20q33 0 50.5 15t17.5 42q0 31 -20 43t-57 12h-26v84h22q34 0 53 12t19 37q0 23 -16 36.5t-42 13.5q-34 0 -48.5 -18t-16.5 -39h-120q2 30 15.5 56.5t37.5 46.5t58.5 31.5t78.5 11.5
q39 0 71 -9t55 -25.5t36 -41t13 -55.5q0 -34 -21 -55t-59 -35v-1q45 -13 70 -39.5t25 -72.5q0 -37 -15 -64t-40.5 -45t-59.5 -26.5t-73 -8.5z" />
    <glyph glyph-name="four.dnom" horiz-adv-x="466" 
d="M252 -14h-219v103l219 262h128v-276h67v-89h-67v-96h-128v96zM112 68q14 1 28 3q12 2 25.5 3t24.5 1h62v96q0 10 0.5 21.5t2.5 22.5q2 12 4 25h-2l-14 -21q-13 -20 -27 -37l-46 -57q-18 -19 -37 -37q-11 -10 -21 -18v-2z" />
    <glyph glyph-name="five.dnom" horiz-adv-x="435" 
d="M213 -123q-40 0 -73.5 10t-59 28.5t-41 44t-19.5 56.5h116q5 -19 24.5 -31.5t50.5 -12.5t50.5 20t19.5 52q0 35 -19.5 52t-50.5 17q-23 0 -40.5 -7.5t-27.5 -19.5h-109l48 260h292v-95h-207l-17 -89h2q14 16 37 25t58 9q33 0 62 -10t50.5 -29t33.5 -46.5t12 -63.5
q0 -38 -14 -69.5t-39 -54t-60.5 -34.5t-78.5 -12z" />
    <glyph glyph-name="six.dnom" horiz-adv-x="461" 
d="M241 -121q-48 0 -84.5 14.5t-62.5 40.5q-62 62 -62 184q0 53 13 97.5t41 76.5q54 65 158 65q72 0 117.5 -33t59.5 -93h-124q-4 14 -16 27t-40 13q-36 0 -58.5 -29t-27.5 -85h1q38 47 108 47q34 0 64.5 -11.5t53.5 -32.5t36.5 -51t13.5 -67t-14 -67t-39 -51.5t-60.5 -33
t-77.5 -11.5zM237 -29q33 0 53 20t20 51q0 32 -20 52.5t-53 20.5q-34 0 -54.5 -20.5t-20.5 -52.5q0 -31 21 -51t54 -20z" />
    <glyph glyph-name="seven.dnom" horiz-adv-x="403" 
d="M94 -110q1 58 15 110t37 96t53 81.5t64 67.5v2q-11 -2 -28 -3q-14 -1 -35 -1.5t-47 -0.5h-128v104h355v-94q-61 -60 -103 -152t-45 -210h-138z" />
    <glyph glyph-name="eight.dnom" horiz-adv-x="456" 
d="M228 -122q-93 0 -147 38t-54 102q0 39 24.5 69t72.5 44v3q-76 28 -76 93q0 28 13 51.5t36.5 41t56.5 27t74 9.5q84 0 132.5 -34.5t48.5 -91.5q0 -30 -18.5 -54.5t-56.5 -38.5v-3q48 -14 72 -44.5t24 -68.5q0 -67 -54 -105t-148 -38zM228 169q31 0 47 14.5t16 39.5
q0 23 -16 38t-47 15q-30 0 -46 -15t-16 -38q0 -25 16 -39.5t46 -14.5zM228 -35q35 0 55 17t20 45q0 29 -19.5 47.5t-54.5 18.5q-34 0 -54.5 -18.5t-20.5 -47.5t20.5 -45.5t53.5 -16.5z" />
    <glyph glyph-name="nine.dnom" horiz-adv-x="458" 
d="M223 -122q-75 0 -124.5 35t-60.5 92h120q5 -14 19.5 -27t42.5 -13q36 0 56 26q11 13 17 33.5t8 50.5h-2q-17 -20 -41.5 -33t-59.5 -13t-65.5 11.5t-53.5 32.5t-36.5 51t-13.5 68q0 37 14.5 67.5t40 52t61 33t77.5 11.5q41 0 75 -12t60 -33q37 -29 53 -77t16 -117
q0 -53 -13 -100.5t-41 -79.5q-53 -59 -149 -59zM224 118q33 0 53.5 21t20.5 53q0 31 -20.5 52t-53.5 21t-54 -21t-21 -52q0 -32 21 -53t54 -21z" />
    <glyph glyph-name="zero.numr" horiz-adv-x="490" 
d="M245 372q44 0 62 39.5t18 103.5q0 63 -18.5 104t-61.5 41t-61.5 -41t-18.5 -104q0 -64 18.5 -103.5t61.5 -39.5zM245 276q-45 0 -84 16.5t-67.5 47.5t-45 75.5t-16.5 99.5q0 54 16 98.5t44.5 75.5t67.5 48t85 17q48 0 87 -17t67 -48t43.5 -75.5t15.5 -98.5
q0 -55 -16 -99.5t-44.5 -75.5t-67.5 -47.5t-85 -16.5z" />
    <glyph glyph-name="one.numr" horiz-adv-x="342" 
d="M144 564h-115v87q60 2 96 26t46 72h102v-461h-129v276z" />
    <glyph glyph-name="two.numr" horiz-adv-x="436" 
d="M28 288q1 67 31 109t75 74q30 21 56.5 36.5t46.5 29.5t31.5 29t11.5 35q0 25 -14 40.5t-43 15.5q-32 0 -50.5 -21.5t-18.5 -56.5h-120q0 42 14 74.5t39 54.5t60.5 33.5t78.5 11.5q42 0 75.5 -11.5t56 -31t34.5 -46t12 -55.5q0 -24 -5.5 -43t-15 -34t-23 -27.5
t-28.5 -24.5q-17 -14 -37 -26t-39 -23t-36 -21.5t-28 -22.5h213v-99h-377v0z" />
    <glyph glyph-name="three.numr" horiz-adv-x="444" 
d="M227 276q-51 0 -89 12.5t-63.5 34.5t-39 50.5t-13.5 61.5h121q2 -25 19 -45t57 -20q33 0 50.5 15t17.5 42q0 31 -20 43t-57 12h-26v84h22q34 0 53 12t19 37q0 23 -16 36.5t-42 13.5q-34 0 -48.5 -18t-16.5 -39h-120q2 30 15.5 56.5t37.5 46.5t58.5 31.5t78.5 11.5
q39 0 71 -9t55 -25.5t36 -41t13 -55.5q0 -34 -21 -55t-59 -35v-1q45 -13 70 -39.5t25 -72.5q0 -37 -15 -64t-40.5 -45t-59.5 -26.5t-73 -8.5z" />
    <glyph glyph-name="four.numr" horiz-adv-x="466" 
d="M252 384h-219v103l219 262h128v-276h67v-89h-67v-96h-128v96zM112 466q14 1 28 3q12 2 25.5 3t24.5 1h62v96q0 10 0.5 21.5t2.5 22.5q2 12 4 25h-2l-14 -21q-13 -20 -27 -37l-46 -57q-18 -19 -37 -37q-11 -10 -21 -18v-2z" />
    <glyph glyph-name="five.numr" horiz-adv-x="435" 
d="M213 275q-40 0 -73.5 10t-59 28.5t-41 44t-19.5 56.5h116q5 -19 24.5 -31.5t50.5 -12.5t50.5 20t19.5 52q0 35 -19.5 52t-50.5 17q-23 0 -40.5 -7.5t-27.5 -19.5h-109l48 260h292v-95h-207l-17 -89h2q14 16 37 25t58 9q33 0 62 -10t50.5 -29t33.5 -46.5t12 -63.5
q0 -38 -14 -69.5t-39 -54t-60.5 -34.5t-78.5 -12z" />
    <glyph glyph-name="six.numr" horiz-adv-x="461" 
d="M241 277q-48 0 -84.5 14.5t-62.5 40.5q-62 62 -62 184q0 53 13 97.5t41 76.5q54 65 158 65q72 0 117.5 -33t59.5 -93h-124q-4 14 -16 27t-40 13q-36 0 -58.5 -29t-27.5 -85h1q38 47 108 47q34 0 64.5 -11.5t53.5 -32.5t36.5 -51t13.5 -67t-14 -67t-39 -51.5t-60.5 -33
t-77.5 -11.5zM237 369q33 0 53 20t20 51q0 32 -20 52.5t-53 20.5q-34 0 -54.5 -20.5t-20.5 -52.5q0 -31 21 -51t54 -20z" />
    <glyph glyph-name="seven.numr" horiz-adv-x="403" 
d="M94 288q1 58 15 110t37 96t53 81.5t64 67.5v2q-11 -2 -28 -3q-14 -1 -35 -1.5t-47 -0.5h-128v104h355v-94q-61 -60 -103 -152t-45 -210h-138z" />
    <glyph glyph-name="eight.numr" horiz-adv-x="456" 
d="M228 276q-93 0 -147 38t-54 102q0 39 24.5 69t72.5 44v3q-76 28 -76 93q0 28 13 51.5t36.5 41t56.5 27t74 9.5q84 0 132.5 -34.5t48.5 -91.5q0 -30 -18.5 -54.5t-56.5 -38.5v-3q48 -14 72 -44.5t24 -68.5q0 -67 -54 -105t-148 -38zM228 567q31 0 47 14.5t16 39.5
q0 23 -16 38t-47 15q-30 0 -46 -15t-16 -38q0 -25 16 -39.5t46 -14.5zM228 363q35 0 55 17t20 45q0 29 -19.5 47.5t-54.5 18.5q-34 0 -54.5 -18.5t-20.5 -47.5t20.5 -45.5t53.5 -16.5z" />
    <glyph glyph-name="nine.numr" horiz-adv-x="458" 
d="M223 276q-75 0 -124.5 35t-60.5 92h120q5 -14 19.5 -27t42.5 -13q36 0 56 26q11 13 17 33.5t8 50.5h-2q-17 -20 -41.5 -33t-59.5 -13t-65.5 11.5t-53.5 32.5t-36.5 51t-13.5 68q0 37 14.5 67.5t40 52t61 33t77.5 11.5q41 0 75 -12t60 -33q37 -29 53 -77t16 -117
q0 -53 -13 -100.5t-41 -79.5q-53 -59 -149 -59zM224 516q33 0 53.5 21t20.5 53q0 31 -20.5 52t-53.5 21t-54 -21t-21 -52q0 -32 21 -53t54 -21z" />
    <glyph glyph-name="acute.aalt" 
d="M217 916h189l-109 -131h-123z" />
    <glyph glyph-name="breve.aalt" 
d="M272 779q-72 0 -116.5 40t-47.5 102h91q5 -18 22 -31.5t50 -13.5q31 0 48 14.5t22 30.5h89q-1 -30 -12.5 -55.5t-31.5 -45t-49 -30.5t-65 -11z" />
    <glyph glyph-name="glyph432" 
d="M176 600q30 3 44 15.5t15 32.5h-59v96h131v-64q0 -69 -34.5 -98t-96.5 -32v50z" />
    <glyph glyph-name="glyph433" 
d="M327 785h-153l-109 131h136l46 -57h2l48 57h138z" />
    <glyph glyph-name="circumflex.aalt" 
d="M173 916h153l109 -131h-136l-46 57h-2l-48 -57h-138z" />
    <glyph glyph-name="glyph435" 
d="M173 -210q32 6 51.5 19.5t19.5 36.5h-67v103h151v-71q0 -36 -12 -61.5t-33 -42.5t-49 -26t-61 -11v53z" />
    <glyph glyph-name="dieresis.aalt" 
d="M296 919h152v-134h-152v134zM51 919h153v-134h-153v134z" />
    <glyph glyph-name="dotaccent.aalt" 
d="M170 920h159v-135h-159v135z" />
    <glyph glyph-name="grave.aalt" 
d="M93 916h189l43 -131h-122z" />
    <glyph glyph-name="hungarumlaut.aalt" 
d="M324 916h156l-89 -131h-102zM128 916h156l-90 -131h-102z" />
    <glyph glyph-name="macron.aalt" 
d="M96 900h312v-111h-312v111z" />
    <glyph glyph-name="ring.aalt" 
d="M251 766q-24 0 -44.5 8.5t-36.5 23t-25 34.5t-9 44q0 23 9 43t25 35t36.5 24t44.5 9q23 0 44 -9t36.5 -24t24.5 -35t9 -43q0 -24 -9 -44t-24.5 -34.5t-36.5 -23t-44 -8.5zM251 823q23 0 37.5 15t14.5 38t-14.5 39t-37.5 16q-24 0 -38.5 -16t-14.5 -39t14.5 -38t38.5 -15z
" />
    <glyph glyph-name="tilde.aalt" 
d="M326 786q-23 0 -42 6t-34.5 13.5t-29 14t-24.5 6.5q-13 0 -22.5 -10t-11.5 -31h-86q0 35 8.5 61.5t23.5 44t34.5 26.5t41.5 9q24 0 42 -6.5t33 -14t27.5 -13.5t24.5 -6q30 0 34 38h86q0 -63 -27.5 -100.5t-77.5 -37.5z" />
    <glyph glyph-name="glyph445" horiz-adv-x="668" 
d="M27 744h614v-145h-222v-599h-171v599h-221v145zM257 -210q32 6 51.5 19.5t19.5 36.5h-67v103h151v-71q0 -36 -12 -61.5t-33 -42.5t-49 -26t-61 -11v53z" />
    <glyph glyph-name="glyph447" horiz-adv-x="261" 
d="M51 744h159v-137h-159v137zM52 532h157v-532h-157v532z" />
    <glyph glyph-name="glyph450" horiz-adv-x="389" 
d="M21 532h80v170h154v-170h104v-100h-104v-264q0 -30 15.5 -40.5t43.5 -10.5q8 0 18 0.5t18 1.5h8v-117q-13 -2 -36 -5t-55 -3q-37 0 -67.5 6.5t-52.5 23t-34 43t-12 67.5v298h-80v100zM143 -210q32 6 51.5 19.5t19.5 36.5h-67v103h151v-71q0 -36 -12 -61.5t-33 -42.5
t-49 -26t-61 -11v53z" />
    <glyph glyph-name="glyph451" 
d="M172 -210q32 6 51.5 19.5t19.5 36.5h-67v103h151v-71q0 -36 -12 -61.5t-33 -42.5t-49 -26t-61 -11v53z" />
    <glyph glyph-name="glyph452" 
d="M347 766q-32 -6 -51.5 -19.5t-19.5 -36.5h67v-103h-151v71q0 36 12 61.5t33 42.5t49 26t61 11v-53z" />
    <glyph glyph-name="R.aalt" horiz-adv-x="716" 
d="M360 270h-124v-270h-173v744h337q132 0 200 -69q34 -33 52.5 -76t18.5 -97q0 -75 -37.5 -129t-103.5 -80l174 -293h-192zM236 405h153q54 0 82.5 24.5t28.5 72.5t-29 72.5t-82 24.5h-153v-194z" />
    <glyph glyph-name="Racute.aalt" horiz-adv-x="716" 
d="M360 270h-124v-270h-173v744h337q132 0 200 -69q34 -33 52.5 -76t18.5 -97q0 -75 -37.5 -129t-103.5 -80l174 -293h-192zM236 405h153q54 0 82.5 24.5t28.5 72.5t-29 72.5t-82 24.5h-153v-194zM325 916h189l-109 -131h-123z" />
    <glyph glyph-name="Rcaron.aalt" horiz-adv-x="716" 
d="M360 270h-124v-270h-173v744h337q132 0 200 -69q34 -33 52.5 -76t18.5 -97q0 -75 -37.5 -129t-103.5 -80l174 -293h-192zM236 405h153q54 0 82.5 24.5t28.5 72.5t-29 72.5t-82 24.5h-153v-194zM430 785h-153l-109 131h136l46 -57h2l48 57h138z" />
    <glyph glyph-name="uni0156.aalt" horiz-adv-x="716" 
d="M360 270h-124v-270h-173v744h337q132 0 200 -69q34 -33 52.5 -76t18.5 -97q0 -75 -37.5 -129t-103.5 -80l174 -293h-192zM236 405h153q54 0 82.5 24.5t28.5 72.5t-29 72.5t-82 24.5h-153v-194zM283 -210q32 6 51.5 19.5t19.5 36.5h-67v103h151v-71q0 -36 -12 -61.5
t-33 -42.5t-49 -26t-61 -11v53z" />
    <glyph glyph-name="Ccedilla.aalt" horiz-adv-x="749" 
d="M305 -129q35 2 53 12.5t18 33.5h-67v76q-63 14 -114 47.5t-87.5 82.5t-56 111.5t-19.5 134.5q0 83 26 154t73.5 123t115 81.5t150.5 29.5q62 0 114 -14.5t90 -43.5q51 -37 79.5 -90t35.5 -116h-170q-8 53 -47.5 87.5t-102.5 34.5q-48 0 -83.5 -18.5t-59 -51.5t-35.5 -78
t-12 -98t13.5 -98t38 -77.5t60 -51t79.5 -18.5q69 0 109 39t46 97h171q-4 -56 -28 -105.5t-62 -87.5q-67 -65 -173 -80v-48q0 -68 -39.5 -94t-115.5 -27v53z" />
    <glyph glyph-name="Scedilla.aalt" horiz-adv-x="690" 
d="M266 -129q35 2 53 12.5t18 33.5h-67v71q-113 17 -177.5 80.5t-67.5 166.5h172q7 -61 46.5 -89t111.5 -28q25 0 48 5t41 15.5t28.5 27t10.5 39.5q0 24 -11.5 40t-33.5 27t-54 19.5t-72 17.5q-54 12 -102 27t-84 39.5t-56.5 62t-20.5 95.5t22 100t61 69.5t92 41t115 13.5
q61 0 113 -14t90 -42t61 -69.5t27 -96.5h-167q-7 44 -40 68t-89 24q-53 0 -85 -21t-32 -56q0 -22 12 -36t35 -24.5t56.5 -18.5t77.5 -18q50 -11 96.5 -26.5t82 -41.5t57 -65t21.5 -98q0 -50 -17.5 -90.5t-48.5 -70t-74 -48.5t-94 -26v-48q0 -68 -39.5 -94t-115.5 -27v53z
" />
    <glyph glyph-name="ccedilla.aalt" horiz-adv-x="577" 
d="M215 -129q35 2 53 12.5t18 33.5h-67v78q-45 13 -80.5 38.5t-60 60.5t-38 78.5t-13.5 92.5q0 60 19.5 111.5t55.5 89.5t87 59.5t114 21.5q53 0 96 -14.5t74.5 -40.5t51.5 -62.5t27 -79.5h-152q-8 37 -32 58.5t-63 21.5q-60 0 -89.5 -45t-29.5 -120q0 -73 29.5 -118
t89.5 -45q44 0 69.5 25t30.5 71h151q-4 -78 -52.5 -135t-133.5 -74v-50q0 -68 -39.5 -94t-115.5 -27v53z" />
    <glyph glyph-name="scedilla.aalt" horiz-adv-x="539" 
d="M191 -129q35 2 53 12.5t18 33.5h-67v73q-81 16 -126.5 62t-50.5 112h148q7 -38 34.5 -58t73.5 -20q42 0 65 16t23 45q0 18 -11 29t-30 18t-43.5 11.5t-52.5 9.5q-36 7 -70 16t-61 27t-43.5 47t-16.5 76q0 41 17.5 72t47.5 52t71 31.5t88 10.5q111 0 168 -43.5t68 -113.5
h-146q-15 57 -90 57q-36 0 -57.5 -14t-21.5 -40q0 -15 10 -24.5t28 -15.5t42 -10t51 -9q36 -6 72 -15.5t65 -28.5t47.5 -50.5t18.5 -81.5q0 -71 -46 -113t-121 -56v-50q0 -68 -39.5 -94t-115.5 -27v53z" />
    <glyph glyph-name="hyphen.aalt" horiz-adv-x="376" 
d="M35 405h306v-151h-306v151z" />
    <glyph glyph-name="endash.aalt" 
d="M0 397h500v-135h-500v135z" />
    <glyph glyph-name="emdash.aalt" horiz-adv-x="1000" 
d="M200 398h600v-135h-600v135z" />
    <glyph glyph-name="questiondown.aalt" horiz-adv-x="580" 
d="M391 580h-166v164h166v-164zM376 485q0 -32 -4 -56t-13 -43.5t-23.5 -36.5t-35.5 -34q-17 -15 -35.5 -27.5t-34.5 -26.5t-26 -30.5t-10 -38.5q0 -35 27 -55t69 -20q51 0 81.5 31t32.5 78h155q-2 -50 -20.5 -94t-54 -76t-86 -50.5t-114.5 -18.5q-59 0 -106 14.5t-80 40.5
t-51 63.5t-18 82.5q0 56 23 92.5t52 59.5q41 32 68 49t43 34q12 14 16.5 27t4.5 35h140z" />
    <glyph glyph-name="exclamdown.aalt" horiz-adv-x="289" 
d="M226 186v-186h-163v186l41 299h81zM228 580h-167v164h167v-164z" />
    <glyph glyph-name="parenleft.aalt" horiz-adv-x="366" 
d="M223 -103q-33 40 -62.5 89.5t-51.5 107t-35 122t-13 135.5q0 73 13 141.5t35 128.5t51.5 111t62.5 90h130q-57 -91 -94 -206.5t-37 -264.5q0 -71 10 -134t28 -119t41.5 -106t50.5 -95h-129v0z" />
    <glyph glyph-name="parenright.aalt" horiz-adv-x="366" 
d="M14 -103q27 45 51 95t41.5 106t28 119t10.5 134q0 149 -37 264.5t-95 206.5h131q33 -39 62.5 -90t51.5 -111t35 -128.5t13 -141.5q0 -71 -13 -135.5t-35 -122t-51.5 -107t-62.5 -89.5h-130v0z" />
    <glyph glyph-name="bracketleft.aalt" horiz-adv-x="427" 
d="M71 822h312v-122h-162v-682h162v-121h-312v925z" />
    <glyph glyph-name="bracketright.aalt" horiz-adv-x="427" 
d="M43 18h162v682h-162v122h313v-925h-313v121z" />
    <glyph glyph-name="braceleft.aalt" horiz-adv-x="424" 
d="M355 -103q-58 0 -101 9t-71.5 31.5t-42.5 60.5t-14 96v132q0 38 -21 56.5t-75 20.5v117q54 2 75 20.5t21 56.5v130q0 57 14 95t42.5 60t71.5 31t101 9h28v-122h-22q-44 0 -64.5 -13.5t-20.5 -59.5v-149q0 -51 -20.5 -76.5t-63.5 -38.5v-3q43 -13 63.5 -38t20.5 -76v-153
q0 -45 20 -60t65 -15h22v-121h-28v0z" />
    <glyph glyph-name="braceright.aalt" horiz-adv-x="424" 
d="M43 18h21q45 0 65 14.5t20 60.5v152q0 51 20.5 76t63.5 38v3q-43 14 -63.5 39.5t-20.5 75.5v150q0 46 -20 59.5t-65 13.5h-21v122h27q58 0 101 -9t71.5 -31.5t42.5 -60t14 -95.5v-130q0 -37 21 -56t74 -21v-116q-53 -2 -74 -20.5t-21 -56.5v-132q0 -58 -14 -96
t-42.5 -60.5t-71.5 -31.5t-101 -9h-27v121z" />
    <glyph glyph-name="guillemotleft.aalt" horiz-adv-x="510" 
d="M59 256v146l167 152v-144l-86 -82v-2l86 -82v-140zM284 256v146l167 152v-144l-86 -82v-2l86 -82v-140z" />
    <glyph glyph-name="guillemotright.aalt" horiz-adv-x="510" 
d="M284 104v140l86 82v2l-86 82v144l167 -152v-146zM59 104v140l86 82v2l-86 82v144l167 -152v-146z" />
    <glyph glyph-name="guilsinglleft.aalt" horiz-adv-x="301" 
d="M59 253v151l183 163v-152l-94 -87v-2l94 -85v-152z" />
    <glyph glyph-name="guilsinglright.aalt" horiz-adv-x="301" 
d="M59 89v152l94 85v2l-94 87v152l183 -163v-151z" />
    <glyph glyph-name="registered.aalt" horiz-adv-x="867" 
d="M434 -18q-80 0 -150 29t-122 81t-81.5 123t-29.5 154q0 84 29.5 155t81.5 122.5t122 81t150 29.5t150 -29.5t121.5 -81t81 -122.5t29.5 -155q0 -83 -29.5 -154t-81 -123t-121.5 -81t-150 -29zM434 32q69 0 128 25.5t102 70.5t67.5 107t24.5 134q0 73 -24.5 134.5
t-67.5 106.5t-102 70.5t-128 25.5t-128.5 -25.5t-103 -70.5t-68 -106.5t-24.5 -134.5q0 -72 24.5 -134t68 -107t103 -70.5t128.5 -25.5zM267 583h203q31 0 58 -8t47.5 -23t32 -38t11.5 -53q0 -36 -18.5 -62t-56.5 -39v-2q55 -17 64 -75q3 -20 4.5 -39.5t2.5 -35t3 -25.5
t7 -12v-7h-106q-5 3 -7 12.5t-3 23.5t-2 30.5t-4 31.5q-4 27 -19 41.5t-47 14.5h-61v-154h-109v419zM376 397h74q30 0 45 13t15 36t-14 37.5t-43 14.5h-77v-101z" />
    <glyph glyph-name="dollar.case" horiz-adv-x="692" 
d="M318 -7q-140 8 -213.5 73.5t-77.5 171.5h170q12 -101 121 -116v192l-5 2q-55 14 -103 29t-83.5 39t-56 61t-20.5 95q0 50 20.5 89t56.5 65.5t85 41.5t106 17v83h67v-84q115 -9 181.5 -64t73.5 -153h-161q-12 74 -94 91v-176l13 -3q54 -13 101.5 -29t82 -41.5t54.5 -63
t20 -93.5q0 -53 -20.5 -94t-57 -69.5t-86 -44.5t-107.5 -19v-123h-67v123zM486 210q0 36 -25.5 54t-75.5 32v-174q42 5 71.5 27.5t29.5 60.5zM219 549q0 -32 23.5 -49.5t75.5 -32.5v162q-48 -5 -73.5 -26.5t-25.5 -53.5z" />
    <glyph glyph-name="Euro.case" horiz-adv-x="718" 
d="M28 473h55q13 64 41 117t69 90.5t94 58.5t115 21q65 0 116 -19t87 -53.5t56.5 -82t25.5 -103.5h-168q-8 57 -37.5 90.5t-83.5 33.5q-58 0 -92 -41.5t-48 -111.5h174v-68h-182q-1 -8 -1 -17v-17v-21.5t1 -20.5h182v-68h-173q15 -69 51 -105t94 -36q30 0 52 11t37.5 29.5
t24.5 44t12 55.5h163q-3 -60 -23.5 -111t-57 -88t-89 -58t-119.5 -21q-62 0 -114.5 19.5t-93.5 56t-69.5 88t-41.5 115.5h-57v68h47q-1 11 -1 21v21v17t1 17h-47v68z" />
    <glyph glyph-name="sterling.case" horiz-adv-x="655" 
d="M41 412h47q-13 26 -22.5 54t-9.5 64q0 48 18.5 90t54.5 73t89 49t122 18q60 0 109.5 -14.5t87.5 -45.5q41 -34 63 -81.5t24 -121.5h-165q0 68 -32.5 99t-84.5 31q-54 0 -80.5 -28t-26.5 -73q0 -32 10 -59t22 -55h151v-96h-123q1 -6 1 -12v-12q0 -42 -21.5 -79t-74.5 -75
l2 -3q30 16 54.5 22.5t51.5 6.5q28 0 46.5 -4.5t34 -9.5t31.5 -9.5t38 -4.5q31 0 57.5 14.5t43.5 31.5l72 -132q-32 -28 -76.5 -47t-94.5 -19q-40 0 -68.5 8.5t-53.5 18.5t-49.5 18.5t-56.5 8.5q-33 0 -60.5 -14t-53.5 -33l-84 124q47 30 76.5 67.5t29.5 85.5q0 13 -2 25
t-5 23h-92v96z" />
    <glyph glyph-name="yen.case" horiz-adv-x="707" 
d="M86 347h155l-228 398h188l75 -143q14 -26 27.5 -57.5t24.5 -59.5q13 -33 25 -66h2l26 66q11 28 25 59.5t28 57.5l74 143h185l-230 -398h157v-67h-185v-75h185v-68h-185v-137h-164v137h-185v68h185v75h-185v67z" />
    <glyph glyph-name="zero.case" horiz-adv-x="723" 
d="M361 -18q-72 0 -131.5 27.5t-102 78t-66 122.5t-23.5 161t23.5 161t66 122.5t102.5 78t132 27.5q73 0 133 -27.5t102 -78t65 -122.5t23 -161t-23 -161t-65.5 -122.5t-102.5 -78t-133 -27.5zM362 117q40 0 68 18t46 51.5t26.5 80.5t8.5 104t-8.5 104.5t-26.5 81t-46.5 52
t-67.5 18.5t-67.5 -18.5t-47 -52t-27 -81t-8.5 -104.5t8.5 -104t27 -80t47 -51.5t67.5 -18.5z" />
    <glyph glyph-name="one.case" horiz-adv-x="457" 
d="M206 486h-173v114q82 2 138.5 38t69.5 113h135v-751h-170v486z" />
    <glyph glyph-name="two.case" horiz-adv-x="637" 
d="M32 0q1 69 21.5 117t57.5 90q26 28 56.5 54t62.5 49.5t63.5 45t59.5 41.5q36 26 56 53.5t20 66.5q0 48 -26.5 76.5t-75.5 28.5q-58 0 -87 -35q-18 -20 -26 -47t-8 -61h-162q0 56 12 98.5t38 78.5q32 48 91.5 76t146.5 28q65 0 115.5 -18.5t85 -50.5t52 -75.5t17.5 -93.5
q0 -64 -26 -108.5t-67 -79.5q-29 -26 -63 -49t-68 -45t-65 -45t-53 -50v-3h341v-142h-569v0z" />
    <glyph glyph-name="three.case" horiz-adv-x="664" 
d="M339 -18q-74 0 -128 16.5t-95 48.5q-45 35 -67 86.5t-23 111.5h161q2 -27 11 -51t26.5 -42t44 -28t63.5 -10q60 0 93 29.5t33 81.5t-35.5 78t-101.5 26h-45v119h41q57 0 90 24t33 69q0 42 -29 67t-78 25q-32 0 -55 -9.5t-38 -25.5t-23.5 -36.5t-9.5 -42.5h-159
q1 51 20.5 95t56.5 76.5t90 51t121 18.5q59 0 109 -14t86 -41t56 -66t20 -88q0 -59 -34 -94.5t-92 -55.5v-2q71 -20 110 -65.5t39 -120.5q0 -59 -23.5 -102.5t-63.5 -72t-93 -42.5t-111 -14z" />
    <glyph glyph-name="four.case" horiz-adv-x="683" 
d="M404 168h-349v152l350 432h163v-458h111v-126h-111v-168h-164v168zM169 287q19 1 38 3q16 2 34.5 3t34.5 1h128v179q0 17 0.5 36.5t2.5 36.5q1 20 3 41h-2q-13 -19 -25 -37q-11 -16 -24 -34t-25 -32l-79 -99q-11 -14 -25.5 -31t-28.5 -31l-32 -34v-2z" />
    <glyph glyph-name="five.case" horiz-adv-x="658" 
d="M327 -18q-63 0 -117 16t-94 45.5t-64.5 72t-28.5 95.5h168q9 -42 42.5 -67t87.5 -25q58 0 94.5 36t36.5 95q0 60 -37 94t-91 34q-40 0 -69.5 -14.5t-46.5 -34.5h-160l77 415h453v-137h-330l-34 -164h2q26 29 62.5 45t91.5 16q51 0 97 -18t81 -51t55.5 -80.5t20.5 -105.5
q0 -61 -22 -110t-61.5 -84t-94 -54t-119.5 -19z" />
    <glyph glyph-name="six.case" horiz-adv-x="682" 
d="M359 -18q-78 0 -136.5 27.5t-98.5 75.5q-43 51 -63.5 122.5t-20.5 160.5q-1 91 19.5 166t66.5 130q41 47 97 71.5t135 24.5q58 0 104.5 -15t80 -41t55 -61t29.5 -76h-163q-4 13 -11.5 25.5t-20 22.5t-30 16t-40.5 6q-149 0 -161 -221h2q32 44 75.5 68.5t106.5 24.5
q53 0 101 -19t84 -53.5t57.5 -83t21.5 -106.5q0 -59 -22 -107.5t-60.5 -83.5t-91.5 -54.5t-116 -19.5zM353 110q28 0 52.5 10t42.5 28t28.5 43t10.5 54q0 30 -10.5 55t-28.5 43t-42.5 28t-52.5 10q-63 0 -101.5 -37.5t-38.5 -97.5q0 -30 11 -55t29.5 -43t44 -28t55.5 -10z
" />
    <glyph glyph-name="seven.case" horiz-adv-x="602" 
d="M131 0q4 101 31 192.5t66.5 169t87 139t94.5 103.5v2q-28 -2 -58 -3q-26 -2 -58 -2.5t-64 -0.5h-201v144h547v-131q-51 -50 -97.5 -115t-83 -143t-59.5 -167.5t-26 -187.5h-179v0z" />
    <glyph glyph-name="eight.case" horiz-adv-x="676" 
d="M340 -18q-67 0 -123.5 15.5t-98 45.5t-64.5 72.5t-23 96.5q0 66 38 115.5t110 71.5v3q-60 22 -88 61t-28 91q0 46 19.5 84t55.5 65t87 42t114 15t113.5 -14t86 -40.5t54.5 -64t19 -84.5q0 -51 -28 -90.5t-87 -60.5v-3q75 -20 112 -70.5t37 -116.5q0 -56 -23 -99.5
t-63.5 -73.5t-97 -45.5t-122.5 -15.5zM338 451q55 0 84 26t29 68q0 44 -29 70.5t-84 26.5t-84.5 -26.5t-29.5 -70.5q0 -42 29.5 -68t84.5 -26zM340 110q60 0 96.5 31t36.5 82q0 54 -35 85.5t-98 31.5t-99.5 -31.5t-36.5 -85.5q0 -52 36 -82.5t100 -30.5z" />
    <glyph glyph-name="nine.case" horiz-adv-x="683" 
d="M334 -18q-59 0 -107.5 15.5t-84 42t-57.5 62t-28 76.5h163q4 -13 12 -26t21.5 -23t32.5 -16.5t44 -6.5q38 0 66 14t48 46q33 53 39 156h-2q-32 -41 -75.5 -64.5t-102.5 -23.5q-56 0 -104.5 19t-85.5 53.5t-58 82.5t-21 107q0 58 22 107t61.5 83.5t93.5 54t118 19.5
q65 0 118 -18.5t91 -53.5q105 -95 105 -312q0 -95 -20 -174.5t-67 -130.5q-38 -43 -92.5 -66t-129.5 -23zM332 361q62 0 100.5 37.5t38.5 97.5q0 30 -10.5 55t-28.5 43.5t-43.5 28.5t-55.5 10q-31 0 -56.5 -10.5t-43.5 -28.5t-28 -43t-10 -54t9.5 -54t27.5 -43t43.5 -28.5
t56.5 -10.5z" />
    <glyph glyph-name="percent.case" horiz-adv-x="973" 
d="M228 326q-42 0 -78 15.5t-62.5 43.5t-41 68t-14.5 90q0 49 14.5 89.5t41 68.5t62.5 43.5t78 15.5q43 0 79 -15t61.5 -43.5t39.5 -68.5t14 -90t-14.5 -90t-40 -68t-61.5 -43.5t-78 -15.5zM640 744h98l-406 -744h-98zM744 -19q-42 0 -78 15.5t-62 44t-40.5 69t-14.5 90.5
q0 49 14.5 89t41 68.5t62 44t77.5 15.5q43 0 79.5 -15.5t62 -44t40 -68.5t14.5 -89q0 -50 -14.5 -90.5t-40.5 -69t-62 -44t-79 -15.5zM228 416q36 0 53 35t17 92q0 56 -17 92.5t-53 36.5t-52.5 -36t-16.5 -93q0 -56 16.5 -91.5t52.5 -35.5zM745 72q36 0 52.5 35.5t16.5 92.5
q0 56 -17 92.5t-52 36.5q-37 0 -53.5 -36.5t-16.5 -92.5q0 -57 16.5 -92.5t53.5 -35.5z" />
    <glyph glyph-name="perthousand.case" horiz-adv-x="1406" 
d="M636 744h99l-406 -744h-98zM228 326q-42 0 -78 15.5t-62.5 43.5t-41 68t-14.5 90q0 49 14.5 89.5t41 68.5t62.5 43.5t78 15.5q43 0 79 -15t61.5 -43.5t39.5 -68.5t14 -90t-14.5 -90t-40 -68t-61.5 -43.5t-78 -15.5zM738 -19q-42 0 -77.5 15.5t-62 44t-41 69t-14.5 90.5
q0 49 14.5 89t41 68.5t62 44t77.5 15.5q43 0 79.5 -15.5t62 -44t40 -68.5t14.5 -89q0 -50 -14.5 -90.5t-40.5 -69t-62 -44t-79 -15.5zM228 416q36 0 53 35t17 92q0 56 -17 92.5t-53 36.5t-52.5 -36t-16.5 -93q0 -56 16.5 -91.5t52.5 -35.5zM738 72q37 0 53.5 35.5t16.5 92.5
q0 56 -17 92.5t-53 36.5q-35 0 -52 -36.5t-17 -92.5q0 -57 17 -92.5t52 -35.5zM1179 -19q-43 0 -79 15.5t-62.5 44t-41 69t-14.5 90.5q0 49 15 89t41 68.5t62.5 44t78.5 15.5q43 0 79 -15.5t61.5 -44t40 -68.5t14.5 -89q0 -50 -14.5 -90.5t-40.5 -69t-61.5 -44t-78.5 -15.5z
M1179 72q36 0 53 35.5t17 92.5q0 56 -17.5 92.5t-52.5 36.5q-37 0 -53 -36.5t-16 -92.5q0 -57 16 -92.5t53 -35.5z" />
    <glyph glyph-name="dollar.tnum" horiz-adv-x="650" 
d="M298 -7q-127 8 -195.5 70t-72.5 165h163q5 -48 30.5 -76t74.5 -35v184q-57 15 -103 30.5t-77.5 39t-48.5 58.5t-17 88q0 48 19 85t52 62.5t78 40t97 16.5v79h64v-80q104 -9 166 -61.5t68 -146.5h-154q-11 71 -80 86v-167q60 -15 106.5 -32t78.5 -42t48.5 -60t16.5 -86
t-19.5 -90t-53 -66.5t-79.5 -43t-98 -18.5v-117h-64v117zM449 201q0 36 -22.5 53t-64.5 30v-167q36 6 61.5 27t25.5 57zM214 525q0 -33 20 -49.5t64 -28.5v155q-42 -5 -63 -25.5t-21 -51.5z" />
    <glyph glyph-name="Euro.tnum" horiz-adv-x="650" 
d="M20 453h53q12 61 38 111.5t64 86.5t87 56t106 20q59 0 106 -18.5t80 -51t52 -78t24 -99.5h-160q-8 54 -32.5 86.5t-73.5 32.5q-53 0 -83.5 -39.5t-42.5 -106.5h148v-65h-155v-33q0 -11 0.5 -21t0.5 -19h154v-65h-146q13 -66 45 -100.5t85 -34.5t79 38.5t31 95.5h156
q-3 -58 -22 -106.5t-53 -84t-82 -55.5t-109 -20q-57 0 -105.5 19t-87 53.5t-65 84t-38.5 110.5h-54v65h45q-1 10 -1 19.5v20.5v16.5t1 16.5h-45v65z" />
    <glyph glyph-name="sterling.tnum" horiz-adv-x="650" 
d="M51 394h46q-13 24 -22 51t-9 62q0 46 17.5 86.5t51.5 70t84.5 46.5t116.5 17q116 0 186 -57q39 -32 60 -78t23 -116h-158q0 65 -30.5 94.5t-80.5 29.5q-51 0 -75 -26.5t-24 -70.5q0 -31 10 -57t21 -52h140v-92h-114q0 -6 0.5 -11.5t0.5 -11.5q0 -40 -20.5 -75t-71.5 -72
l2 -3q29 15 52.5 21.5t49.5 6.5q27 0 44 -4t31 -9.5t28.5 -9.5t35.5 -4q30 0 55 13.5t42 30.5l69 -126q-31 -27 -73.5 -45t-90.5 -18q-38 0 -65 8t-49.5 17.5t-45.5 17.5t-54 8q-32 0 -58 -13.5t-51 -31.5l-80 119q45 29 73 65t28 81q0 12 -2 23.5t-5 22.5h-88v92z" />
    <glyph glyph-name="yen.tnum" horiz-adv-x="650" 
d="M69 332h166l-204 381h173l63 -130q11 -25 21.5 -53.5t18.5 -52.5q10 -28 18 -56h2q8 28 19 56q8 24 19.5 52.5t22.5 53.5l62 130h168l-206 -381h168v-64h-177v-72h177v-65h-177v-131h-157v131h-177v65h177v72h-177v64z" />
    <glyph glyph-name="cent.aalt" horiz-adv-x="650" 
d="M308 -15q-57 6 -102.5 29.5t-77.5 61t-49 85.5t-17 104t17 105t49 86.5t77.5 61t102.5 28.5v89h63v-89q47 -4 85.5 -20.5t66.5 -42.5t45 -61t23 -76h-149q-6 31 -24.5 52t-46.5 29v-323q32 8 51 32t24 64h148q-2 -44 -18.5 -81.5t-45 -66t-69 -46.5t-90.5 -22v-113h-63
v114zM219 265q0 -63 22 -105.5t67 -54.5v321q-45 -12 -67 -54t-22 -107z" />
    <glyph glyph-name="florin.aalt" horiz-adv-x="650" 
d="M119 432h120l21 141q6 39 19 68t37 49q37 30 94.5 34.5t120.5 -3.5v-112q-26 1 -45.5 0.5t-33.5 -5.5t-22.5 -16.5t-11.5 -32.5l-18 -123h127v-101h-142l-49 -345q-6 -38 -17.5 -66.5t-33.5 -47.5q-17 -15 -38 -22.5t-45.5 -10t-51.5 -1t-55 4.5v104q18 -1 32 0t24 6
t16.5 16.5t9.5 32.5l48 329h-106v101z" />
    <glyph glyph-name="currency.aalt" horiz-adv-x="650" 
d="M75 169l68 68q-29 49 -29 113q0 63 29 112l-68 70l79 77l69 -71q45 25 102 25t102 -25l70 71l79 -77l-70 -70q15 -24 22 -52t7 -60q0 -62 -28 -112l69 -69l-79 -78l-70 71q-44 -24 -102 -24t-101 24l-70 -71zM325 232q45 0 69.5 32t24.5 86t-24.5 87t-69.5 33t-70.5 -33
t-25.5 -87t25.5 -86t70.5 -32z" />
    <glyph glyph-name="zero.tnum" horiz-adv-x="650" 
d="M324 -17q-62 0 -114.5 25.5t-90.5 73.5t-59.5 117t-21.5 156t21.5 156t59.5 117t91 73.5t115 25.5q63 0 116 -25.5t91 -73.5t59 -117t21 -156t-21 -156t-59.5 -117t-91.5 -73.5t-116 -25.5zM325 112q32 0 54.5 17.5t37 49.5t21 76.5t6.5 99.5t-6.5 100t-21 77t-37 50
t-54.5 18t-54.5 -18t-36.5 -50t-21 -77t-7 -100q0 -54 7 -99t21 -77t36.5 -49.5t54.5 -17.5z" />
    <glyph glyph-name="one.tnum" horiz-adv-x="650" 
d="M304 457h-182v109q92 2 147 37.5t69 115.5h129v-719h-163v457z" />
    <glyph glyph-name="two.tnum" horiz-adv-x="650" 
d="M51 0q1 66 20.5 112t54.5 86q25 27 54 51.5t59.5 47t61 43t57.5 40.5q35 25 54 51t19 64q0 45 -25.5 72.5t-72.5 27.5q-56 0 -83 -33q-17 -19 -25 -45.5t-8 -58.5h-155q0 54 11.5 94.5t36.5 75.5q31 45 88 72t140 27q62 0 110 -17.5t81 -48.5t50 -72t17 -89
q0 -62 -25 -104.5t-64 -75.5q-28 -25 -60.5 -47t-65 -43t-62 -43t-50.5 -48v-3h326v-136h-544v0z" />
    <glyph glyph-name="three.tnum" horiz-adv-x="650" 
d="M333 -17q-70 0 -120.5 16t-89.5 46q-43 34 -64 83t-22 106h154q2 -26 10 -48.5t24 -39.5t41 -27t61 -10q57 0 87 28t30 78q0 100 -128 100h-43v114h39q55 0 85 22.5t30 66.5q0 40 -26 64t-73 24q-30 0 -52 -9.5t-36 -24.5t-21.5 -34.5t-8.5 -40.5h-152q1 48 19 90
t52.5 73t85 49t116.5 18q57 0 104 -13.5t80.5 -39t52.5 -63t19 -84.5q0 -56 -32.5 -90t-88.5 -53v-2q68 -19 105.5 -62.5t37.5 -115.5q0 -57 -22 -98.5t-60 -68.5t-88 -40.5t-106 -13.5z" />
    <glyph glyph-name="four.tnum" horiz-adv-x="650" 
d="M379 161h-334v145l335 414h156v-439h86v-120h-86v-161h-157v161zM154 275q18 1 36 3q15 1 33 2t33 1h123v172q0 16 0.5 34.5t1.5 35.5q1 19 3 39h-2l-24 -36q-11 -15 -23 -32t-23 -31l-76 -95q-11 -14 -25 -29.5t-27 -29.5l-30 -32v-2z" />
    <glyph glyph-name="five.tnum" horiz-adv-x="650" 
d="M323 -17q-60 0 -111.5 15t-90 43.5t-62 69t-27.5 91.5h161q8 -40 40.5 -64t83.5 -24q56 0 91 34.5t35 90.5q0 58 -35.5 90.5t-87.5 32.5q-38 0 -66.5 -13.5t-44.5 -33.5h-153l74 397h433v-131h-316l-32 -157h2q25 27 59.5 42.5t87.5 15.5q49 0 93 -17t77.5 -48.5t53 -77
t19.5 -101.5q0 -58 -21 -105t-58.5 -80.5t-90 -51.5t-114.5 -18z" />
    <glyph glyph-name="six.tnum" horiz-adv-x="650" 
d="M341 -17q-74 0 -128 26t-92 72q-42 49 -61.5 117.5t-19.5 153.5q-1 87 18.5 159t64.5 124q38 45 91 68.5t126 23.5q55 0 99.5 -14t76.5 -39t52.5 -58.5t28.5 -72.5h-156q-8 25 -30.5 46t-67.5 21q-137 0 -149 -212h2q30 42 69.5 65.5t99.5 23.5q51 0 96 -18.5t78.5 -51.5
t53 -79t19.5 -102t-20.5 -102.5t-56.5 -80t-86 -52t-108 -18.5zM335 105q54 0 88 36.5t34 92.5q0 57 -34 94t-88 37q-60 0 -94.5 -36.5t-34.5 -93.5q0 -29 9.5 -52.5t27 -41t41 -27t51.5 -9.5z" />
    <glyph glyph-name="seven.tnum" horiz-adv-x="650" 
d="M162 0q4 97 30 184.5t63.5 161.5t83 133t90.5 99v2q-27 -2 -56 -3q-25 -2 -55.5 -2.5t-60.5 -0.5h-192v138h523v-125q-48 -48 -93 -110.5t-79.5 -137t-56.5 -160t-25 -179.5h-172v0z" />
    <glyph glyph-name="eight.tnum" horiz-adv-x="650" 
d="M327 -17q-63 0 -116 15t-91.5 43.5t-60 69t-21.5 92.5q0 63 34.5 110.5t103.5 68.5v3q-57 20 -84.5 57.5t-27.5 87.5q0 44 19 80.5t53.5 62.5t82.5 40t107 14t107 -13.5t82 -38.5t52.5 -61t18.5 -81q0 -48 -27.5 -86t-83.5 -58v-3q71 -20 105 -68t34 -111
q0 -53 -21.5 -95t-59.5 -70.5t-90.5 -43.5t-115.5 -15zM325 432q52 0 79.5 24.5t27.5 65.5q0 42 -27.5 67t-79.5 25q-51 0 -79 -25t-28 -67q0 -41 28 -65.5t79 -24.5zM327 105q56 0 89 29.5t33 78.5q0 52 -32 82t-90 30t-91 -30t-33 -82q0 -50 32.5 -79t91.5 -29z" />
    <glyph glyph-name="nine.tnum" horiz-adv-x="650" 
d="M322 -17q-57 0 -103.5 14.5t-80.5 40t-54.5 59.5t-26.5 73h156q7 -25 32.5 -47t72.5 -22q36 0 61.5 12.5t44.5 42.5q16 25 23.5 63t10.5 89h-2q-31 -39 -69 -61.5t-95 -22.5q-53 0 -99.5 18t-80.5 51t-53.5 79t-19.5 103q0 56 21 102.5t58 79.5t88 51.5t111 18.5
q62 0 111.5 -18t86.5 -51q51 -46 73.5 -120t22.5 -178q0 -92 -17.5 -168t-62.5 -125q-37 -42 -87.5 -63t-121.5 -21zM320 345q58 0 92.5 36.5t34.5 93.5q0 28 -9 52.5t-25.5 41.5t-40 27t-51.5 10q-59 0 -93.5 -37t-34.5 -93t33.5 -93.5t93.5 -37.5z" />
    <glyph glyph-name="percent.tnum" horiz-adv-x="900" 
d="M216 320q-39 0 -73 14.5t-58.5 41.5t-38.5 64.5t-14 83.5t14 83.5t38.5 64t58.5 41t73 14.5q40 0 73.5 -14.5t58 -41t38 -64t13.5 -83.5t-14 -83.5t-38.5 -64.5t-58 -41.5t-72.5 -14.5zM597 712h94l-388 -712h-94zM216 406q34 0 50.5 32.5t16.5 85.5q0 51 -16.5 85
t-50.5 34t-50 -33t-16 -86q0 -52 16 -85t50 -33zM685 -18q-39 0 -73 14.5t-58.5 41.5t-38.5 64.5t-14 83.5t14 83.5t38.5 64t58.5 41t73 14.5q40 0 73.5 -14.5t58 -41t38 -64t13.5 -83.5t-14 -83.5t-38.5 -64.5t-58 -41.5t-72.5 -14.5zM685 68q34 0 50.5 32.5t16.5 85.5
q0 51 -16.5 85t-50.5 34t-50 -33t-16 -86q0 -52 16 -85t50 -33z" />
    <glyph glyph-name="perthousand.tnum" horiz-adv-x="1200" 
d="M557 712h94l-388 -712h-94zM196 332q-37 0 -69 14t-55 39.5t-36.5 62.5t-13.5 82t13.5 81.5t36.5 62t55 39.5t69 14q38 0 69.5 -14t54.5 -39.5t36 -62t13 -81.5t-13 -82t-36.5 -62.5t-55 -39.5t-68.5 -14zM196 417q28 0 42 31t14 82q0 50 -14 82t-42 32t-41.5 -31.5
t-13.5 -82.5t13.5 -82t41.5 -31zM625 -18q-37 0 -69 14t-55 39.5t-36.5 62.5t-13.5 82t13.5 81.5t36.5 62t55 39.5t69 14q38 0 69.5 -14t54.5 -39.5t36 -62t13 -81.5t-13 -82t-36.5 -62.5t-55 -39.5t-68.5 -14zM625 67q28 0 42 31t14 82q0 50 -14 82t-42 32t-41.5 -31.5
t-13.5 -82.5t13.5 -82t41.5 -31zM1005 -18q-37 0 -69 14t-55 39.5t-36.5 62.5t-13.5 82t13.5 81.5t36.5 62t55 39.5t69 14q38 0 69.5 -14t54.5 -39.5t36 -62t13 -81.5t-13 -82t-36.5 -62.5t-55 -39.5t-68.5 -14zM1005 67q28 0 42 31t14 82q0 50 -14 82t-42 32t-41.5 -31.5
t-13.5 -82.5t13.5 -82t41.5 -31z" />
    <glyph glyph-name="minus.aalt" horiz-adv-x="650" 
d="M75 405h500v-126h-500v126z" />
    <glyph glyph-name="multiply.aalt" horiz-adv-x="650" 
d="M78 178l160 161l-159 160l87 88l159 -160l160 160l88 -88l-160 -160l160 -160l-88 -88l-160 160l-160 -160z" />
    <glyph glyph-name="divide.aalt" horiz-adv-x="650" 
d="M243 624h166v-147h-166v147zM83 406h486v-127h-486v127zM243 207h166v-147h-166v147z" />
    <glyph glyph-name="plusminus.aalt" horiz-adv-x="650" 
d="M75 474h183v164h134v-164h183v-124h-183v-166h-134v166h-183v124zM75 120h500v-120h-500v120z" />
    <glyph glyph-name="notequal.aalt" horiz-adv-x="650" 
d="M85 491h277l53 104h103l-53 -104h106v-119h-166l-51 -99h217v-119h-277l-53 -104h-103l53 104h-106v119h166l51 99h-217v119z" />
    <glyph glyph-name="approxequal.aalt" horiz-adv-x="650" 
d="M444 356q-29 0 -60 5.5t-60.5 12t-56 12t-45.5 5.5q-36 0 -42 -42h-103q1 91 38 131t96 40q29 0 60 -6t60 -12.5t54 -12.5t43 -6q22 0 30.5 9.5t10.5 29.5h104q0 -82 -31 -124t-98 -42zM444 136q-29 0 -60 5.5t-60.5 12t-56 12t-45.5 5.5q-36 0 -42 -42h-103q1 91 38 131
t96 40q29 0 60 -5.5t60 -12.5t54 -12.5t43 -5.5q22 0 30.5 9t10.5 29h104q0 -81 -31 -123.5t-98 -42.5z" />
    <glyph glyph-name="lessequal.aalt" horiz-adv-x="650" 
d="M90 120h466v-120h-466v120zM90 286v161l466 140v-131l-196 -53q-29 -8 -60.5 -14.5t-57.5 -11.5q-31 -6 -60 -11v-2q29 -4 60 -9q26 -5 57.5 -10.5t60.5 -13.5l196 -51v-134z" />
    <glyph glyph-name="greaterequal.aalt" horiz-adv-x="650" 
d="M560 0h-466v120h466v-120zM94 146v134l196 51q29 8 60 13.5t57 10.5q31 5 61 9v2q-30 5 -61 11q-26 5 -57 11.5t-60 14.5l-196 53v131l466 -140v-161z" />
    <glyph glyph-name="less.aalt" horiz-adv-x="650" 
d="M90 249v145l466 179v-139l-207 -67q-22 -8 -49 -15.5t-50 -14.5q-27 -8 -55 -16v-2q29 -8 56 -15q23 -6 49.5 -13.5t48.5 -13.5l207 -64v-143z" />
    <glyph glyph-name="equal.aalt" horiz-adv-x="650" 
d="M85 491h486v-123h-486v123zM85 277h486v-123h-486v123z" />
    <glyph glyph-name="greater.aalt" horiz-adv-x="650" 
d="M560 394v-145l-466 -179v139l207 67q22 7 49 15t50 15q27 8 55 16v2q-29 8 -56 15q-23 6 -50 13t-48 14l-207 64v143z" />
    <glyph glyph-name="space.aalt" horiz-adv-x="325" 
 />
    <glyph glyph-name="comma.aalt" horiz-adv-x="325" 
d="M81 -111q35 9 56 36.5t21 72.5v2h-78v164h166v-154q0 -47 -13 -82t-35 -58t-52.5 -35.5t-64.5 -15.5v70z" />
    <glyph glyph-name="period.aalt" horiz-adv-x="325" 
d="M80 164h166v-164h-166v164z" />
    <glyph glyph-name="colon.aalt" horiz-adv-x="325" 
d="M79 485h166v-164h-166v164zM79 164h166v-164h-166v164z" />
    <glyph glyph-name="semicolon.aalt" horiz-adv-x="325" 
d="M79 485h166v-164h-166v164zM80 -111q35 9 56 36.5t21 72.5v2h-78v164h166v-154q0 -47 -13 -82t-35 -58t-52.5 -35.5t-64.5 -15.5v70z" />
    </font>
</defs>
</svg>
