<?xml version="1.0" standalone="no"?>
<!DOCTYPE svg PUBLIC "-//W3C//DTD SVG 1.1//EN" "http://www.w3.org/Graphics/SVG/1.1/DTD/svg11.dtd" >
<svg xmlns="http://www.w3.org/2000/svg" xmlns:xlink="http://www.w3.org/1999/xlink" version="1.1">
<metadata>
Created by FontForge 20201107 at Mon Oct  3 14:58:40 2016
 By 
Copyright (c) 2011 - 2012 Linotype Corp., www.linotype.com. All rights reserved. This font software may not be reproduced, modified, disclosed or transferred without the express written approval of Linotype Corp. 
</metadata>
<defs>
<font id="NeueHaasGroteskTextPro-BoldItalic" horiz-adv-x="528" >
  <font-face 
    font-family="Neue Haas Grotesk Text Pro"
    font-weight="700"
    font-style="italic"
    font-stretch="normal"
    units-per-em="1000"
    panose-1="2 11 8 4 2 2 2 9 2 4"
    ascent="780"
    descent="-220"
    x-height="532"
    cap-height="744"
    bbox="-283 -263 1349 987"
    underline-thickness="50"
    underline-position="-100"
    slope="-11"
    unicode-range="U+000D-FB04"
  />
<missing-glyph horiz-adv-x="500" 
 />
    <glyph glyph-name="uniFB00" unicode="ff" horiz-adv-x="718" 
d="M150 532l9 46q9 48 25 76.5t42 48.5q22 17 55.5 26t72.5 9q44 0 87 -10l-20 -108q-29 3 -48.5 2.5t-32 -6t-19.5 -17.5t-11 -32l-7 -35h179l10 52q9 49 25 77.5t42 48.5q23 17 56.5 25.5t73.5 8.5q46 0 89 -10l-20 -108q-30 3 -50 2.5t-33.5 -6t-21 -17.5t-11.5 -32
l-8 -41h110l-19 -99h-110l-84 -433h-153l84 433h-178l-84 -433h-154l84 433h-76l19 99h77z" />
    <glyph glyph-name="uniFB01" unicode="fi" horiz-adv-x="634" 
d="M150 532l10 52q9 48 24.5 76.5t41.5 48.5q24 18 60.5 27t79.5 8q20 -1 40 -3t40 -7l-19 -108q-59 6 -84 -3.5t-32 -49.5l-8 -41h109l-19 -99h-109l-84 -433h-154l84 433h-76l19 99h77zM482 532h154l-104 -532h-153zM496 607l27 137h155l-27 -137h-155z" />
    <glyph glyph-name="uniFB02" unicode="fl" horiz-adv-x="636" 
d="M160 584q9 49 25.5 77.5t42.5 48.5q22 17 55.5 25.5t74.5 8.5q21 0 43 -2.5t45 -7.5l-19 -108q-59 6 -84 -3.5t-32 -49.5l-8 -41h109l-19 -99h-109l-84 -433h-154l84 433h-76l19 99h77zM524 744h153l-145 -744h-153z" />
    <glyph glyph-name="uniFB03" unicode="ffi" horiz-adv-x="966" 
d="M150 532l9 46q9 48 25 76.5t42 48.5q22 17 55.5 26t72.5 9q44 0 87 -10l-20 -108q-29 3 -48.5 2.5t-32 -6t-19.5 -17.5t-11 -32l-7 -35h179l10 52q9 48 24.5 76.5t41.5 48.5q24 18 60.5 27t79.5 8q20 -1 40 -3t40 -7l-19 -108q-59 6 -84 -3.5t-32 -49.5l-8 -41h109
l-19 -99h-109l-84 -433h-154l84 433h-178l-84 -433h-154l84 433h-76l19 99h77zM814 532h154l-104 -532h-153zM828 607l27 137h155l-27 -137h-155z" />
    <glyph glyph-name="uniFB04" unicode="ffl" horiz-adv-x="968" 
d="M150 532l9 46q9 48 25 76.5t42 48.5q22 17 55.5 26t72.5 9q44 0 87 -10l-20 -108q-29 3 -48.5 2.5t-32 -6t-19.5 -17.5t-11 -32l-7 -35h179l10 52q9 49 25.5 77.5t42.5 48.5q22 17 55.5 25.5t74.5 8.5q21 0 43 -2.5t45 -7.5l-19 -108q-59 6 -84 -3.5t-32 -49.5l-8 -41
h109l-19 -99h-109l-84 -433h-154l84 433h-178l-84 -433h-154l84 433h-76l19 99h77zM856 744h153l-145 -744h-153z" />
    <glyph glyph-name=".notdef" horiz-adv-x="500" 
 />
    <glyph glyph-name="glyph1" horiz-adv-x="0" 
 />
    <glyph glyph-name="glyph1" horiz-adv-x="0" 
 />
    <glyph glyph-name="uni000D" unicode="&#xd;" horiz-adv-x="0" 
 />
    <glyph glyph-name="space" unicode=" " horiz-adv-x="224" 
 />
    <glyph glyph-name="exclam" unicode="!" horiz-adv-x="284" 
d="M121 561l36 183h160l-38 -191l-100 -294h-79zM42 164h163l-32 -164h-163z" />
    <glyph glyph-name="quotedbl" unicode="&#x22;" horiz-adv-x="443" 
d="M354 744h133l-56 -286h-133zM146 744h133l-56 -286h-133z" />
    <glyph glyph-name="numbersign" unicode="#" horiz-adv-x="618" 
d="M348 186h-112l-40 -186h-98l40 186h-97l28 114h93l27 124h-96l27 115h93l38 174h98l-38 -174h113l37 174h98l-37 -174h99l-27 -115h-97l-26 -124h99l-28 -114h-96l-39 -186h-98zM260 300h113l26 124h-112z" />
    <glyph glyph-name="dollar" unicode="$" horiz-adv-x="638" 
d="M238 -2q-107 16 -165.5 75t-60.5 155h160q11 -88 89 -110l36 185q-44 14 -81.5 31t-66 40t-44.5 55t-16 77q0 48 19 87.5t55 68t88.5 44.5t118.5 16h9l16 78h63l-17 -84q90 -14 141.5 -66.5t59.5 -137.5h-154q-4 30 -21 52.5t-49 33.5l-32 -165q6 -2 14 -4
q40 -13 77.5 -30.5t65.5 -42.5t45 -59t17 -79q0 -51 -20 -92.5t-57 -71t-90 -46t-119 -16.5h-19l-22 -116h-64zM440 199q0 29 -20.5 47.5t-62.5 35.5l-34 -171q51 1 84 24t33 64zM250 529q-1 -26 18 -43t59 -32l30 153q-55 -2 -80.5 -24t-26.5 -54z" />
    <glyph glyph-name="percent" unicode="%" horiz-adv-x="919" 
d="M677 712h92l-489 -712h-92zM244 311q-36 0 -67 12t-53.5 34.5t-35 55t-12.5 73.5q0 53 16 97.5t43.5 76.5t65 49.5t80.5 17.5q76 0 121 -46.5t45 -129.5q0 -53 -16 -97t-43.5 -75.5t-64.5 -49.5t-79 -18zM246 395q21 0 37 15.5t27.5 40.5t17.5 56t6 62q0 35 -13.5 56
t-41.5 21q-21 0 -37 -15.5t-27.5 -40.5t-17.5 -56t-6 -62q0 -35 13 -56t42 -21zM677 -18q-36 0 -67 12t-53.5 34.5t-35 55t-12.5 73.5q0 53 16 97.5t43.5 76.5t64.5 50t80 18q77 0 122 -47t45 -130q0 -53 -16 -97t-44 -75.5t-64.5 -49.5t-78.5 -18zM679 66q21 0 37 15.5
t27 40.5t17 56.5t6 62.5q0 35 -13 55.5t-42 20.5q-21 0 -37 -15.5t-27 -40.5t-17 -56t-6 -62q0 -35 13 -56t42 -21z" />
    <glyph glyph-name="ampersand" unicode="&#x26;" horiz-adv-x="711" 
d="M276 -14q-57 0 -105 13t-82 38.5t-53 63.5t-19 88q0 47 15 84.5t42 67t65 52.5t84 40q-17 25 -26 55.5t-9 68.5q0 41 15 76t43 61t68 41t91 15q41 0 75.5 -11t59.5 -31.5t39 -50t14 -67.5q0 -36 -13.5 -66t-37 -54.5t-55.5 -43.5t-68 -32l30 -47q12 -20 28 -49t27 -49
q16 29 27 61t18 61h133q-14 -65 -38.5 -123t-62.5 -107l90 -141h-176l-11 17q-4 6 -7.5 11.5t-6.5 11.5q-39 -24 -87 -39t-107 -15zM295 108q32 0 58 8.5t50 23.5l-125 204q-48 -24 -72 -60t-24 -78q0 -48 32 -73t81 -25zM332 565q0 -49 36 -90q48 22 67.5 49.5t19.5 58.5
q0 29 -15.5 44.5t-38.5 15.5q-32 0 -50.5 -21.5t-18.5 -56.5z" />
    <glyph glyph-name="quotesingle" unicode="'" horiz-adv-x="235" 
d="M146 744h133l-56 -286h-133z" />
    <glyph glyph-name="parenleft" unicode="(" horiz-adv-x="360" 
d="M157 -141q-42 70 -69 161.5t-27 195.5q0 89 20.5 170.5t55.5 153.5t83 133.5t102 110.5h133q-110 -125 -174 -271t-64 -324q0 -93 16 -176.5t44 -153.5h-120v0z" />
    <glyph glyph-name="parenright" unicode=")" horiz-adv-x="360" 
d="M-71 -141q55 63 99.5 130.5t75.5 141t47.5 154t16.5 169.5q0 93 -16.5 176.5t-44.5 153.5h121q42 -70 69 -161.5t27 -195.5q0 -89 -20.5 -170.5t-55.5 -153.5t-83 -133.5t-102 -110.5h-134v0z" />
    <glyph glyph-name="asterisk" unicode="*" horiz-adv-x="465" 
d="M118 424l94 107l-109 40l41 80l111 -40l27 133h92l-27 -133l120 39l19 -82l-131 -40l59 -108l-79 -49l-56 111l-96 -111z" />
    <glyph glyph-name="plus" unicode="+" horiz-adv-x="595" 
d="M81 403h179l38 195h131l-38 -195h181l-24 -122h-181l-38 -197h-131l38 197h-179z" />
    <glyph glyph-name="comma" unicode="," horiz-adv-x="250" 
d="M-28 -114q37 5 62.5 30.5t33.5 79.5l1 4h-76l32 164h164l-34 -173q-9 -46 -26.5 -77.5t-42.5 -52t-57 -30t-70 -12.5z" />
    <glyph glyph-name="hyphen" unicode="-" horiz-adv-x="357" 
d="M54 331h278l-26 -132h-278z" />
    <glyph glyph-name="period" unicode="." horiz-adv-x="250" 
d="M25 164h164l-32 -164h-164z" />
    <glyph glyph-name="slash" unicode="/" horiz-adv-x="458" 
d="M408 784h144l-504 -925h-144z" />
    <glyph glyph-name="zero" unicode="0" horiz-adv-x="679" 
d="M318 -17q-66 0 -117 21.5t-85.5 60t-52 92t-17.5 117.5q0 92 26 174.5t73 144t113 97.5t146 36q64 0 113.5 -20.5t84 -58t52.5 -90.5t18 -117q0 -95 -25 -178t-71 -145t-111.5 -98t-146.5 -36zM321 108q47 0 82 31t58.5 79.5t35.5 108t12 117.5q0 75 -27 117t-85 42
q-45 0 -80 -31t-59 -79.5t-36.5 -108.5t-12.5 -117q0 -76 26.5 -117.5t85.5 -41.5z" />
    <glyph glyph-name="one" unicode="1" horiz-adv-x="429" 
d="M234 468h-162l20 106q81 2 137 34t87 111h127l-140 -719h-159z" />
    <glyph glyph-name="two" unicode="2" horiz-adv-x="599" 
d="M-21 0q11 78 41 127.5t72 85.5q59 51 129 89.5t131 73.5q45 26 73 56t28 78q0 38 -22.5 63.5t-67.5 25.5q-25 0 -44 -5.5t-35 -21.5q-20 -17 -32.5 -47t-19.5 -67h-153q11 67 29 110.5t48 75.5q35 38 89 60.5t124 22.5q61 0 107.5 -16t77.5 -44.5t46.5 -66.5t15.5 -82
q0 -38 -10 -68t-27.5 -55.5t-41 -46.5t-50.5 -40q-32 -24 -68 -43.5t-73 -39t-71.5 -41t-61.5 -49.5v-2h324l-26 -133h-532v0z" />
    <glyph glyph-name="three" unicode="3" horiz-adv-x="643" 
d="M326 -17q-76 0 -131.5 20.5t-93.5 57.5q-36 36 -50.5 85.5t-12.5 97.5h154q0 -27 6 -51.5t21.5 -44t41.5 -31t64 -11.5q57 0 87.5 33t30.5 84q0 42 -27.5 68.5t-79.5 26.5h-45l21 111h36q63 0 96 22.5t33 73.5q0 38 -24 61.5t-72 23.5q-56 0 -87.5 -34.5t-40.5 -87.5
h-155q16 113 92.5 176t201.5 63q49 0 94 -11.5t78.5 -35t53.5 -58.5t20 -83q0 -65 -37 -106.5t-108 -59.5v-2q52 -17 83 -58.5t31 -95.5q0 -59 -22 -102.5t-60 -73t-89 -44t-110 -14.5z" />
    <glyph glyph-name="four" unicode="4" horiz-adv-x="639" 
d="M343 161h-327l28 142l409 417h154l-87 -442h103l-22 -117h-104l-31 -161h-154zM147 274l36 2q15 1 32.5 1.5t32.5 0.5h118l35 177q2 16 6.5 34t9.5 35q5 18 11 38h-2q-14 -18 -29 -36q-13 -15 -27.5 -31.5t-28.5 -30.5l-94 -96q-14 -14 -31.5 -30t-32.5 -30
q-18 -17 -36 -32v-2z" />
    <glyph glyph-name="five" unicode="5" horiz-adv-x="619" 
d="M297 -17q-63 0 -113.5 16t-86.5 45.5t-56.5 69.5t-22.5 88h160q6 -40 34.5 -66t82.5 -26q28 0 52.5 10.5t42 29.5t27.5 46t10 60q0 48 -27.5 79t-75.5 31q-35 1 -66 -14.5t-49 -37.5h-148l133 398h425l-24 -128h-308l-52 -155h2q23 23 58.5 38t89.5 15q36 0 72 -12.5
t65 -39.5t47.5 -68.5t18.5 -98.5q0 -65 -21.5 -116.5t-60 -88t-92 -56t-117.5 -19.5z" />
    <glyph glyph-name="six" unicode="6" horiz-adv-x="640" 
d="M312 102q30 0 56 11.5t45 32t30 49t11 61.5q0 53 -33 85t-83 32q-31 0 -58 -10.5t-46.5 -30t-31 -46.5t-11.5 -60q0 -54 33 -89t88 -35zM317 -17q-128 0 -199 76q-72 75 -72 219q0 52 10 105.5t29 103.5t47 93t65 74q42 35 92 54t116 19q55 0 97 -14.5t71.5 -39.5
t46 -58.5t19.5 -70.5h-152q-2 13 -7.5 25.5t-15.5 22.5t-26 16t-38 6q-65 0 -112 -54t-73 -147h2q31 34 72.5 53t95.5 19q46 0 86 -16.5t70 -45.5t47 -70.5t17 -90.5q0 -60 -22 -111t-61 -88.5t-91.5 -58.5t-113.5 -21z" />
    <glyph glyph-name="seven" unicode="7" horiz-adv-x="564" 
d="M83 0q19 97 57.5 184.5t88.5 162t106.5 134t112.5 100.5v2q-26 -2 -55 -3q-25 -2 -55.5 -2.5t-59.5 -0.5h-189l27 135h511l-23 -122q-59 -48 -115 -111t-103 -138t-82.5 -161t-52.5 -180h-168v0z" />
    <glyph glyph-name="eight" unicode="8" horiz-adv-x="635" 
d="M306 100q61 0 97 34.5t36 91.5q0 46 -33.5 74.5t-89.5 28.5q-61 0 -98 -33t-37 -90q0 -49 34 -77.5t91 -28.5zM365 428q52 0 82 27.5t30 72.5q0 40 -27.5 64.5t-76.5 24.5q-51 0 -82 -28.5t-31 -73.5q0 -42 29 -64.5t76 -22.5zM307 -18q-62 0 -114.5 15t-91 43.5t-60 68
t-21.5 89.5q0 81 48 129.5t124 65.5v3q-41 22 -62 56t-21 75q0 45 20 82t55 63t84 40.5t106 14.5t104 -13t80.5 -37.5t51.5 -59.5t18 -78q0 -58 -32 -102t-102 -63v-3q53 -22 79 -65t26 -94q0 -56 -22.5 -99t-61.5 -72t-92.5 -44t-115.5 -15z" />
    <glyph glyph-name="nine" unicode="9" horiz-adv-x="642" 
d="M338 340q31 0 58 10.5t47 30.5t31.5 47.5t11.5 62.5q0 56 -33 87t-85 31q-32 0 -58.5 -11.5t-46 -31.5t-30 -48t-10.5 -61q0 -53 30.5 -85t84.5 -32zM283 -18q-58 0 -103 15t-77 41t-50 61.5t-21 77.5h152q2 -15 8 -29t18 -25.5t30 -18t43 -6.5q50 0 91 34
q27 23 49.5 63.5t36.5 99.5l-2 1q-31 -32 -73 -51.5t-91 -19.5q-47 0 -88 16.5t-71 46t-47.5 70.5t-17.5 89q0 61 23 112t63.5 88.5t95.5 58.5t120 21q59 0 103 -15t76 -42q42 -34 63 -85.5t21 -128.5q0 -58 -10.5 -117.5t-30.5 -114t-49.5 -101t-67.5 -77.5
q-42 -34 -89.5 -49t-104.5 -15z" />
    <glyph glyph-name="colon" unicode=":" horiz-adv-x="256" 
d="M91 485h163l-31 -164h-164zM28 164h164l-32 -164h-164z" />
    <glyph glyph-name="semicolon" unicode=";" horiz-adv-x="256" 
d="M91 485h163l-31 -164h-164zM-25 -114q37 5 62.5 30.5t33.5 79.5l1 4h-76l32 164h164l-34 -173q-9 -46 -26.5 -77.5t-42.5 -52t-57 -30t-70 -12.5z" />
    <glyph glyph-name="less" unicode="&#x3c;" horiz-adv-x="531" 
d="M53 253l28 144l452 176l-27 -143l-179 -63q-24 -9 -50.5 -17t-49.5 -14q-26 -7 -52 -13v-2q23 -7 47 -15q20 -7 43.5 -15t43.5 -17l154 -65l-28 -139z" />
    <glyph glyph-name="equal" unicode="=" horiz-adv-x="592" 
d="M105 489h477l-23 -119h-477zM64 275h477l-24 -119h-476z" />
    <glyph glyph-name="greater" unicode="&#x3e;" horiz-adv-x="531" 
d="M51 213l179 63q23 8 49.5 16.5t49.5 14.5q26 7 52 13v2q-22 6 -46 14q-20 7 -44 15.5t-44 17.5l-154 65l28 139l382 -183l-28 -144l-452 -176z" />
    <glyph glyph-name="question" unicode="?" horiz-adv-x="569" 
d="M166 164h164l-32 -164h-164zM196 259q6 36 15.5 62t23 45.5t31.5 35t42 30.5q22 15 45 26.5t41.5 25t30 31.5t11.5 46q0 32 -23 50.5t-66 18.5q-48 0 -82 -30.5t-43 -88.5h-153q16 117 89.5 181t200.5 64q51 0 95 -12t76.5 -35.5t50.5 -59t18 -82.5q0 -35 -9 -62t-24 -48
t-34 -36.5t-38 -27.5q-23 -15 -41 -25t-32.5 -17.5t-25.5 -14t-20 -13.5q-17 -13 -24.5 -27t-12.5 -37h-142z" />
    <glyph glyph-name="at" unicode="@" horiz-adv-x="932" 
d="M409 98q-67 0 -108 47.5t-41 127.5q0 54 15 101t42 81.5t64 54t81 19.5q45 0 71 -19.5t39 -54.5h2l12 63h131l-52 -268q-8 -38 0.5 -56.5t37.5 -18.5q18 0 37.5 10t36 34t27.5 63.5t11 98.5q0 69 -22.5 121t-63.5 86.5t-97.5 51.5t-125.5 17q-74 0 -139.5 -26.5
t-114.5 -76t-77.5 -121t-28.5 -160.5q0 -66 20.5 -121.5t60 -96t97 -63t132.5 -22.5q45 0 89.5 9t88.5 24l26 -77q-49 -20 -99 -29.5t-102 -9.5q-89 0 -164.5 26.5t-131 76t-86.5 121.5t-31 164q0 112 39.5 199t104.5 147t148.5 91t171.5 31q81 0 153.5 -23.5t126.5 -69.5
t86 -114t32 -157q0 -72 -17.5 -126t-47 -89.5t-68.5 -53.5t-83 -18q-60 0 -98 22t-48 68h-3q-24 -42 -56.5 -63t-77.5 -21zM454 197q43 0 71 41.5t28 110.5q0 35 -16 58t-46 23q-22 0 -39 -11.5t-29 -31.5t-18.5 -47t-6.5 -58q0 -36 13 -60.5t43 -24.5z" />
    <glyph glyph-name="A" unicode="A" horiz-adv-x="722" 
d="M367 744h174l119 -744h-173l-18 143h-264l-73 -143h-172zM267 262h188l-17 137q-4 28 -5.5 64t-2.5 69q-1 38 -1 78h-2q-14 -38 -29 -75q-13 -32 -28.5 -67.5t-29.5 -63.5z" />
    <glyph glyph-name="B" unicode="B" horiz-adv-x="697" 
d="M157 744h313q55 0 96.5 -13.5t67.5 -37.5q51 -46 51 -122q0 -133 -133 -176v-4q56 -16 87.5 -56t31.5 -98q0 -60 -24 -106.5t-67 -78.5q-36 -27 -82 -39.5t-106 -12.5h-380zM391 131q57 0 86.5 30.5t29.5 80.5q0 42 -28 64t-70 22h-168l-38 -197h188zM414 444
q47 0 77 23.5t30 72.5q0 33 -23 54t-63 21h-138l-33 -171h150z" />
    <glyph glyph-name="C" unicode="C" horiz-adv-x="735" 
d="M375 -17q-74 0 -133.5 22.5t-102.5 65.5t-66 104t-23 138q0 93 29.5 174t82 141t126 94.5t162.5 34.5q70 0 122.5 -18.5t89.5 -50.5q44 -38 63 -88.5t21 -106.5h-166q-3 26 -12 49t-26 40t-42 27t-60 10q-53 0 -94 -26.5t-68.5 -69.5t-41.5 -97t-14 -109q0 -91 38.5 -144
t119.5 -53q63 0 107.5 38t57.5 102h170q-16 -71 -44.5 -120.5t-73.5 -85.5q-42 -35 -96.5 -53t-125.5 -18z" />
    <glyph glyph-name="D" unicode="D" horiz-adv-x="734" 
d="M159 744h275q73 0 128.5 -23t93.5 -63t57.5 -95t19.5 -119q0 -100 -27 -182t-78.5 -140t-126.5 -90t-172 -32h-315zM332 139q56 0 99 21t72.5 59.5t44.5 93.5t15 123q0 77 -36.5 123.5t-118.5 46.5h-108l-92 -467h124z" />
    <glyph glyph-name="E" unicode="E" horiz-adv-x="658" 
d="M157 744h548l-27 -138h-381l-30 -153h330l-26 -132h-330l-34 -178h387l-28 -143h-554z" />
    <glyph glyph-name="F" unicode="F" horiz-adv-x="628" 
d="M157 744h535l-28 -142h-368l-32 -166h308l-26 -136h-309l-58 -300h-167z" />
    <glyph glyph-name="G" unicode="G" horiz-adv-x="768" 
d="M340 -16q-84 0 -141 28.5t-94 81.5q-30 41 -44.5 94.5t-14.5 111.5q0 61 13 118.5t37.5 107.5t59.5 92t79 72q49 35 105.5 51t121.5 16q66 0 117 -17.5t87.5 -49t57.5 -76.5t27 -99h-168q-6 45 -37.5 75t-95.5 30q-59 0 -102.5 -28.5t-72.5 -73.5t-43.5 -100.5
t-14.5 -109.5q0 -91 39 -140.5t117 -49.5q38 0 71 12t58.5 33t42.5 48.5t22 58.5l1 4h-150l25 124h305l-78 -398h-115l5 99h-3q-35 -54 -92 -84.5t-125 -30.5z" />
    <glyph glyph-name="H" unicode="H" horiz-adv-x="733" 
d="M156 744h167l-56 -288h275l56 288h167l-145 -744h-167l62 317h-275l-62 -317h-167z" />
    <glyph glyph-name="I" unicode="I" horiz-adv-x="292" 
d="M157 744h168l-145 -744h-168z" />
    <glyph glyph-name="J" unicode="J" horiz-adv-x="568" 
d="M241 -14q-63 0 -110 16t-76.5 48t-39.5 79.5t2 110.5l8 42h153l-8 -48q-11 -59 8 -84.5t63 -25.5q39 0 62 26t31 68l103 526h167l-106 -544q-18 -90 -72 -147q-31 -32 -78.5 -49.5t-106.5 -17.5z" />
    <glyph glyph-name="K" unicode="K" horiz-adv-x="708" 
d="M314 336l-85 -75l-50 -261h-167l145 744h167l-24 -122q-11 -51 -22 -98.5t-19 -77.5l330 298h201l-346 -308l219 -436h-182z" />
    <glyph glyph-name="L" unicode="L" horiz-adv-x="593" 
d="M157 744h167l-117 -601h335l-28 -143h-502z" />
    <glyph glyph-name="M" unicode="M" horiz-adv-x="867" 
d="M157 744h221l31 -309q3 -35 4 -81.5t2 -88.5v-100h3q15 48 32 96q14 41 31.5 85.5t34.5 79.5l154 318h230l-145 -744h-152l63 325q6 35 16.5 85t21.5 96q12 54 25 111h-2q-19 -50 -37 -98q-16 -42 -34.5 -87t-33.5 -78l-171 -354h-137l-36 354q-3 33 -4.5 77.5t-2.5 86.5
q-1 48 -1 99h-2q-7 -57 -15 -111q-7 -46 -14.5 -96t-14.5 -85l-63 -325h-149z" />
    <glyph glyph-name="N" unicode="N" horiz-adv-x="739" 
d="M157 744h171l127 -334q11 -29 22 -64.5t20 -66.5q11 -36 21 -73h2q5 41 10 81q5 35 10 74.5t12 71.5l61 311h159l-145 -744h-171l-126 330q-11 29 -23 65t-21 68q-11 37 -21 74h-2q-4 -42 -9 -82q-5 -35 -10.5 -74.5t-11.5 -71.5l-60 -309h-160z" />
    <glyph glyph-name="O" unicode="O" horiz-adv-x="784" 
d="M380 -18q-76 0 -137.5 24.5t-104.5 68.5t-66.5 105t-23.5 135q0 91 29.5 171.5t83 140.5t127.5 95t164 35q76 0 136.5 -24t103.5 -68t66 -105t23 -134q0 -93 -29 -174t-81.5 -141t-126.5 -94.5t-164 -34.5zM384 118q55 0 97.5 25.5t71 68.5t43 98.5t14.5 114.5
q0 45 -11 81.5t-32 62.5t-52 40.5t-72 14.5q-54 0 -95.5 -26.5t-70 -69.5t-43.5 -98.5t-15 -112.5q0 -44 10.5 -80.5t31 -63t51.5 -41t72 -14.5z" />
    <glyph glyph-name="P" unicode="P" horiz-adv-x="675" 
d="M157 744h304q66 0 113 -18.5t75 -50.5q24 -29 38 -66.5t14 -82.5q0 -64 -20.5 -114t-57.5 -84t-89 -51.5t-115 -17.5h-187l-51 -259h-169zM258 391h147q60 0 93 33t33 90q0 39 -23 63.5t-71 24.5h-138z" />
    <glyph glyph-name="Q" unicode="Q" horiz-adv-x="784" 
d="M560 24q-39 -20 -84 -31t-96 -11q-76 0 -137.5 24.5t-104.5 68.5t-66.5 105t-23.5 135q0 91 29.5 171.5t83 140.5t127.5 95t164 35q76 0 136.5 -24t103.5 -68t66 -105t23 -134q0 -102 -33.5 -187.5t-94.5 -146.5l73 -77l-83 -79zM384 118q21 0 40 3.5t36 9.5l-82 88
l81 79l90 -96q31 44 46 102t15 121q0 45 -11 81.5t-32 62.5t-52 40.5t-72 14.5q-54 0 -95.5 -26.5t-70 -69.5t-43.5 -98.5t-15 -112.5q0 -44 10.5 -80.5t31 -63t51.5 -41t72 -14.5z" />
    <glyph glyph-name="R" unicode="R" horiz-adv-x="697" 
d="M157 744h306q54 0 99 -15t77 -43.5t47.5 -69t9.5 -91.5q-7 -67 -47.5 -112.5t-117.5 -67.5v-3q49 -16 72.5 -49t23.5 -90q0 -41 -3 -80.5t-3 -67.5q0 -40 12 -46v-9h-161q-5 4 -9 17.5t-4 31.5q0 29 3.5 66.5t3.5 76.5q0 45 -24.5 69t-84.5 24h-123l-55 -285h-167z
M258 409h144q60 0 91 27.5t36 73.5q2 22 -2 41t-15.5 32.5t-31 21t-49.5 7.5h-133z" />
    <glyph glyph-name="S" unicode="S" horiz-adv-x="671" 
d="M336 -18q-155 0 -238.5 67.5t-86.5 185.5h170q8 -59 44.5 -89.5t111.5 -30.5q56 0 91.5 24t35.5 68q0 20 -9.5 34.5t-29 26t-47.5 22.5t-64 23q-47 16 -87.5 33.5t-70.5 41.5t-47.5 57.5t-17.5 81.5q0 51 19 93.5t55.5 72.5t90.5 47t124 17q129 0 202 -58t82 -164h-164
q-5 43 -37.5 69.5t-88.5 26.5q-54 0 -84.5 -22.5t-30.5 -57.5q0 -18 9.5 -32t30 -26t50.5 -23.5t71 -24.5q43 -14 82.5 -32t69.5 -43t47.5 -60t17.5 -84q0 -53 -21 -98t-60 -77.5t-94.5 -50.5t-125.5 -18z" />
    <glyph glyph-name="T" unicode="T" horiz-adv-x="657" 
d="M121 744h603l-28 -142h-219l-116 -602h-167l116 602h-217z" />
    <glyph glyph-name="U" unicode="U" horiz-adv-x="710" 
d="M336 -14q-74 0 -131.5 19t-94.5 56.5t-50.5 92t0.5 126.5l91 464h166l-93 -479q-12 -66 14.5 -105t103.5 -39q62 0 99 33.5t49 96.5l96 493h167l-98 -505q-25 -130 -103 -191.5t-216 -61.5z" />
    <glyph glyph-name="V" unicode="V" horiz-adv-x="677" 
d="M104 744h169l35 -348q3 -32 5 -72.5t3 -77.5q1 -43 2 -87h2q15 41 30 81q13 35 28.5 73.5t31.5 70.5l178 360h174l-387 -744h-174z" />
    <glyph glyph-name="W" unicode="W" horiz-adv-x="977" 
d="M104 744h167l12 -274q2 -41 0.5 -94.5t-3.5 -102.5q-3 -57 -6 -117h2q16 58 34 113q15 48 32.5 99.5t34.5 90.5l120 285h158l9 -284q1 -39 1 -91t-1 -100q-1 -55 -2 -113h2q15 60 33 117q14 49 32.5 103t35.5 95l119 273h171l-345 -744h-163l-11 313q-1 35 0 79.5t3 85.5
q2 48 5 96h-2l-30 -96q-13 -41 -28.5 -85.5t-29.5 -79.5l-133 -313h-163z" />
    <glyph glyph-name="X" unicode="X" horiz-adv-x="716" 
d="M286 390l-155 354h184l39 -100q8 -22 16 -48t15 -49q8 -27 15 -54h2q16 27 34 53q15 23 33 49t35 48l79 101h190l-290 -355l167 -389h-190l-49 131q-8 22 -15.5 48.5t-13.5 49.5q-7 27 -13 55h-2q-17 -27 -35 -54q-15 -23 -33.5 -49.5t-35.5 -49.5l-100 -131h-197z" />
    <glyph glyph-name="Y" unicode="Y" horiz-adv-x="692" 
d="M265 278l-158 466h176l48 -156q8 -26 15 -56.5t13 -57.5q7 -32 13 -63h2q17 31 35 63q15 27 34 57.5t36 56.5l110 156h183l-339 -462l-55 -282h-167z" />
    <glyph glyph-name="Z" unicode="Z" horiz-adv-x="673" 
d="M12 135l334 338q20 20 45.5 43t48.5 43q26 23 53 46l1 3q-28 -2 -56 -3q-24 -1 -51 -1.5t-48 -0.5h-210l28 141h559l-26 -131l-322 -327q-23 -23 -50.5 -48.5t-52.5 -47.5q-29 -26 -59 -50v-3q29 1 59 3q25 1 53.5 2t51.5 1h243l-28 -143h-600z" />
    <glyph glyph-name="bracketleft" unicode="[" horiz-adv-x="427" 
d="M172 784h315l-23 -120h-169l-133 -686h169l-24 -119h-314z" />
    <glyph glyph-name="backslash" unicode="\" horiz-adv-x="573" 
d="M98 784h136l300 -925h-136z" />
    <glyph glyph-name="bracketright" unicode="]" horiz-adv-x="428" 
d="M-12 -22h168l133 686h-167l23 120h315l-180 -925h-315z" />
    <glyph glyph-name="asciicircum" unicode="^" horiz-adv-x="495" 
d="M281 744h123l113 -306h-139l-59 163h-2l-122 -163h-145z" />
    <glyph glyph-name="underscore" unicode="_" horiz-adv-x="437" 
d="M-67 -80h441l-19 -96h-441z" />
    <glyph glyph-name="grave" unicode="`" 
d="M196 773h172l38 -161h-109z" />
    <glyph glyph-name="a" unicode="a" horiz-adv-x="568" 
d="M169 -14q-75 0 -120 40t-45 108q0 49 18 80.5t50 50.5t77 28.5t99 14.5q77 7 108.5 23t31.5 52q0 26 -20 43.5t-59 17.5q-41 0 -67 -19t-34 -54h-144q15 80 79 128t171 48q125 0 178 -59.5t33 -163.5l-40 -206q-10 -50 -7 -74t13 -35l-1 -9h-146q-6 13 -9.5 29t-3.5 36
h-3q-27 -36 -66.5 -57.5t-92.5 -21.5zM231 81q52 0 82.5 30t38.5 75l15 72q-14 -8 -27.5 -13t-28 -8.5t-30.5 -6t-35 -6.5q-47 -9 -68.5 -27.5t-21.5 -52.5t22.5 -48.5t52.5 -14.5z" />
    <glyph glyph-name="b" unicode="b" horiz-adv-x="612" 
d="M145 744h153l-32 -163q-6 -32 -13.5 -63t-13.5 -55h3q30 40 70.5 62.5t92.5 22.5q44 0 78.5 -17t58 -47t36 -71.5t12.5 -90.5q0 -74 -19.5 -136.5t-54 -107.5t-82 -70.5t-103.5 -25.5q-65 0 -107 28t-59 71h-3l-15 -81h-147zM298 102q30 0 55 17t42.5 45.5t27.5 67
t10 80.5q0 54 -24 84t-72 30q-33 0 -59 -17t-44.5 -44.5t-28 -63.5t-9.5 -73q0 -53 26 -89.5t76 -36.5z" />
    <glyph glyph-name="c" unicode="c" horiz-adv-x="567" 
d="M272 -18q-56 0 -101.5 16.5t-78 47.5t-50.5 75t-18 100q0 70 21.5 129.5t61 103t94.5 68.5t122 25q54 0 95.5 -15t70.5 -41.5t45.5 -62.5t19.5 -78h-149q-5 37 -25 60t-61 23q-34 0 -60 -18t-44 -48.5t-27 -70t-9 -82.5q0 -57 24.5 -87t69.5 -30q84 0 113 101h153
q-23 -109 -93 -162.5t-174 -53.5z" />
    <glyph glyph-name="d" unicode="d" horiz-adv-x="611" 
d="M215 -18q-44 1 -80 17.5t-61.5 47.5t-39 75.5t-11.5 101.5q2 78 24 138.5t58 101.5t83 62.5t98 20.5q63 0 101 -26t59 -69h2l5 40t15 87l33 165h153l-145 -744h-147l13 69h-2q-27 -41 -66 -64t-92 -23zM272 103q32 0 57.5 15t44 41t29 60.5t12.5 73.5q2 59 -22 96t-76 38
q-30 1 -54.5 -13.5t-42.5 -40t-28.5 -61.5t-11.5 -79q-2 -59 20.5 -94t71.5 -36z" />
    <glyph glyph-name="e" unicode="e" horiz-adv-x="584" 
d="M277 -16q-62 0 -109 18.5t-79 51t-48 76.5t-16 95q0 68 22 127t61.5 102.5t94 68.5t119.5 25q60 0 105 -19.5t74.5 -53.5t44 -80t14.5 -100q0 -17 -1.5 -34t-3.5 -34h-384v-2q0 -62 28.5 -96.5t85.5 -34.5q32 0 57 14.5t39 41.5h154q-32 -79 -98.5 -122.5t-159.5 -43.5z
M319 439q-27 0 -48.5 -9.5t-38.5 -26t-29.5 -39.5t-19.5 -49h228q7 57 -17.5 90.5t-74.5 33.5z" />
    <glyph glyph-name="f" unicode="f" horiz-adv-x="387" 
d="M73 532h77l10 52q9 48 24.5 76.5t41.5 48.5q23 18 58.5 27t77.5 8q20 0 41.5 -2.5t42.5 -7.5l-19 -108q-59 6 -84 -3.5t-32 -49.5l-8 -41h109l-19 -99h-109l-84 -433h-154l84 433h-76z" />
    <glyph glyph-name="g" unicode="g" horiz-adv-x="602" 
d="M236 -185q-109 0 -174 44t-72 122h150q8 -24 29.5 -41.5t68.5 -17.5q53 0 80 27.5t37 74.5l3 15q3 17 7.5 35.5t9.5 32.5h-3q-27 -35 -61 -54.5t-78 -19.5q-42 0 -78.5 15t-62.5 43t-41 68t-15 89q0 66 19.5 121t53 95t79.5 62t99 22q57 0 95.5 -24.5t55.5 -71.5h2l16 80
h147l-98 -505q-12 -59 -35.5 -99.5t-58 -65.5t-78.5 -36t-97 -11zM284 145q33 0 58 15t42 39.5t25.5 55.5t8.5 62q0 51 -25.5 82t-76.5 31q-29 0 -52.5 -13.5t-40.5 -37t-26.5 -54.5t-9.5 -66q0 -52 25.5 -83t71.5 -31z" />
    <glyph glyph-name="h" unicode="h" horiz-adv-x="593" 
d="M145 744h153l-38 -198q-2 -12 -7.5 -38.5t-10.5 -51.5h2q31 43 72 67.5t98 24.5q41 0 72 -17.5t49.5 -47t25 -69t-2.5 -84.5l-65 -330h-153l62 319q8 45 -8 73t-62 28q-44 0 -76.5 -32.5t-43.5 -86.5l-59 -301h-153z" />
    <glyph glyph-name="i" unicode="i" horiz-adv-x="257" 
d="M105 532h154l-104 -532h-153zM146 744h156l-27 -137h-156z" />
    <glyph glyph-name="j" unicode="j" horiz-adv-x="257" 
d="M-30 -181q-23 0 -46 3t-40 8l19 106h5q8 -1 15 -1.5t14 -0.5q28 1 42 11.5t20 40.5l106 546h154l-108 -558q-9 -45 -25.5 -75t-40 -48t-52.5 -25t-63 -7zM146 744h156l-27 -137h-156z" />
    <glyph glyph-name="k" unicode="k" horiz-adv-x="574" 
d="M145 744h152l-45 -228q-12 -60 -22 -103.5t-17 -69.5l205 189h183l-233 -205l150 -327h-168l-100 233l-64 -55l-34 -178h-152z" />
    <glyph glyph-name="l" unicode="l" horiz-adv-x="260" 
d="M148 744h154l-145 -744h-154z" />
    <glyph glyph-name="m" unicode="m" horiz-adv-x="894" 
d="M103 532h147l-16 -88h2q35 49 74.5 76.5t95.5 27.5q51 0 83 -27.5t43 -77.5h2q81 105 183 105q41 0 71.5 -16t49 -44.5t24 -67t-2.5 -82.5l-66 -338h-153l64 329q8 44 -7.5 68t-55.5 24q-41 0 -69.5 -30.5t-38.5 -84.5l-60 -306h-154l64 328q8 45 -7 69t-54 24
q-40 0 -69.5 -30.5t-39.5 -84.5l-60 -306h-153z" />
    <glyph glyph-name="n" unicode="n" horiz-adv-x="593" 
d="M103 532h148l-17 -86h3q32 49 76 75.5t101 26.5q41 0 72 -17.5t49.5 -47t25 -69t-2.5 -84.5l-65 -330h-153l62 319q8 45 -8 73t-62 28q-44 0 -76.5 -32.5t-43.5 -86.5l-59 -301h-153z" />
    <glyph glyph-name="o" unicode="o" horiz-adv-x="604" 
d="M278 -17q-58 0 -105 18.5t-80 51.5t-50.5 79t-17.5 100q0 66 23 124t63.5 100.5t96.5 67t122 24.5q57 0 103.5 -18.5t80 -51.5t51.5 -78t18 -99q0 -68 -23 -126.5t-63.5 -101t-96.5 -66.5t-122 -24zM283 93q33 0 60 17.5t45.5 46.5t28.5 66.5t10 77.5q0 66 -27 102
t-76 36q-33 0 -59.5 -18t-45 -47t-28.5 -67t-10 -78q0 -65 26 -100.5t76 -35.5z" />
    <glyph glyph-name="p" unicode="p" horiz-adv-x="614" 
d="M331 -18q-66 0 -107.5 27.5t-57.5 69.5h-3q-1 -8 -4.5 -40t-14.5 -86l-25 -130h-153l137 709h148l-14 -71h3q29 41 71 64t94 23q44 0 78.5 -17t58 -47t36 -71.5t12.5 -90.5q0 -74 -19.5 -136.5t-54 -107.5t-82 -70.5t-103.5 -25.5zM298 102q30 0 55 17t42.5 45.5t27.5 67
t10 80.5q0 54 -24 84t-72 30q-33 0 -59 -17t-44.5 -44.5t-28 -63.5t-9.5 -73q0 -53 26 -89.5t76 -36.5z" />
    <glyph glyph-name="q" unicode="q" horiz-adv-x="611" 
d="M215 -18q-42 0 -77 15t-61 44.5t-40.5 72t-14.5 98.5q0 78 21 140.5t57 106t83.5 66.5t100.5 23q63 0 102 -26.5t60 -73.5h3l16 84h148l-138 -709h-153l25 130q8 43 15.5 72.5t12.5 43.5h-3q-26 -39 -64.5 -63t-92.5 -24zM275 103q33 0 59 16.5t44 44t28 64t10 75.5
q0 56 -25 90t-76 34q-31 0 -56 -16t-43 -43.5t-27.5 -64.5t-9.5 -80q0 -57 24 -88.5t72 -31.5z" />
    <glyph glyph-name="r" unicode="r" horiz-adv-x="401" 
d="M103 532h147l-19 -101h3q32 60 72.5 84.5t88.5 24.5q24 0 32 -4l-23 -136h-4q-17 3 -33 3q-65 1 -107.5 -37.5t-57.5 -117.5l-49 -248h-153z" />
    <glyph glyph-name="s" unicode="s" horiz-adv-x="531" 
d="M251 -17q-118 0 -184 48.5t-69 132.5h146q4 -39 31 -60t74 -21q41 0 63 17.5t22 46.5q0 15 -9 26t-25 19t-38.5 14.5t-49.5 13.5q-31 9 -60 20t-51.5 28.5t-36 42.5t-13.5 62q0 42 16.5 74.5t46.5 55t71.5 34t89.5 11.5q109 0 165 -42t67 -116h-145q-5 29 -27 44.5
t-61 15.5q-35 0 -56 -15t-21 -41q0 -14 8.5 -23t24 -16t38 -13.5t49.5 -13.5q31 -8 61 -19.5t53.5 -29.5t38.5 -45t15 -66q0 -45 -17 -79.5t-48 -58t-74 -35.5t-95 -12z" />
    <glyph glyph-name="t" unicode="t" horiz-adv-x="383" 
d="M71 532h77l33 170h151l-33 -170h101l-19 -98h-101l-51 -267q-6 -32 7 -43.5t41 -11.5q9 0 19 1t17 2h5l-20 -112q-12 -3 -33.5 -6t-52.5 -3q-36 0 -65 9.5t-47.5 29t-25.5 49.5t1 71l54 281h-78z" />
    <glyph glyph-name="u" unicode="u" horiz-adv-x="589" 
d="M184 -16q-44 0 -76 16.5t-51 45.5t-24.5 69t3.5 88l63 329h154l-63 -324q-9 -44 6 -69.5t57 -26.5q49 -1 80.5 29.5t42.5 84.5l59 306h154l-104 -532h-148l14 73h-2q-32 -43 -71 -66t-94 -23z" />
    <glyph glyph-name="v" unicode="v" horiz-adv-x="539" 
d="M58 532h153l23 -210q3 -29 4.5 -62t2.5 -62q1 -33 1 -66h3q12 31 24 64q11 28 24 59.5t27 59.5l106 217h160l-285 -532h-167z" />
    <glyph glyph-name="w" unicode="w" horiz-adv-x="806" 
d="M59 532h153l13 -203q2 -26 3 -55t1 -55v-59h2q9 28 19 56q8 24 19 53t23 55l91 208h131l17 -201q2 -26 3 -55.5t2 -55.5q1 -31 2 -61h2q7 28 16 56q8 24 18.5 52.5t22.5 54.5l97 210h157l-265 -532h-145l-14 213q-2 24 -1.5 52.5t0.5 54.5q0 30 1 60h-2q-11 -29 -22 -57
q-10 -24 -21.5 -52t-22.5 -52l-99 -219h-143z" />
    <glyph glyph-name="x" unicode="x" horiz-adv-x="582" 
d="M205 280l-117 252h168l21 -51q6 -16 12 -35t11 -36q5 -20 11 -41h2q12 20 25 40q11 17 24 36t24 36l39 51h170l-209 -251l129 -281h-171l-27 68q-6 17 -12 37.5t-11 38.5l-12 42h-2l-28 -42q-12 -18 -26.5 -38.5t-28.5 -37.5l-55 -68h-175z" />
    <glyph glyph-name="y" unicode="y" horiz-adv-x="547" 
d="M79 -178h-17.5t-33.5 0.5t-33.5 1t-16.5 0.5l23 120h5h8t17 -0.5t17 -0.5h10q36 0 56.5 15t28.5 42q3 13 1.5 42t-7.5 65l-79 425h156l27 -199q4 -29 6.5 -62.5t4.5 -62.5q2 -33 2 -66h2q12 31 24 64q11 27 24.5 59t27.5 60l104 207h158l-293 -545q-25 -46 -48.5 -77.5
t-49.5 -51t-56.5 -28t-67.5 -8.5z" />
    <glyph glyph-name="z" unicode="z" 
d="M6 114l227 218q15 14 33 29t34 28q18 15 37 29v3l-40 -4q-17 -2 -37 -2.5t-36 -0.5h-136l23 118h422l-20 -110l-220 -211q-17 -16 -36.5 -32.5t-37.5 -30.5q-21 -17 -42 -32l-1 -4q21 2 43 4q19 2 40.5 3t39.5 1h169l-24 -120h-460z" />
    <glyph glyph-name="braceleft" unicode="{" horiz-adv-x="431" 
d="M291 -141q-59 0 -101.5 11.5t-67.5 36t-32.5 64.5t3.5 97l24 125q8 40 -8.5 60.5t-68.5 22.5l21 114q54 2 77.5 18t31.5 54l28 143q10 54 28.5 88.5t47.5 54.5t69.5 28t94.5 8h52l-23 -120h-28q-44 0 -66 -14.5t-30 -57.5l-31 -159q-10 -50 -34.5 -72.5t-69.5 -33.5v-3
q40 -15 54.5 -42.5t3.5 -79.5l-29 -149q-8 -45 9 -60t57 -15h31l-23 -119h-20v0z" />
    <glyph glyph-name="bar" unicode="|" horiz-adv-x="238" 
d="M82 784h98v-925h-98v925z" />
    <glyph glyph-name="braceright" unicode="}" horiz-adv-x="429" 
d="M-12 -22h29q45 0 66.5 15t29.5 59l31 161q10 50 34 72.5t69 33.5v3q-39 15 -53.5 42.5t-3.5 80.5l28 145q8 45 -9 59.5t-57 14.5h-31l24 120h20q59 0 101.5 -11t67.5 -36t32 -65t-4 -97l-24 -122q-8 -40 9 -60t69 -22l-22 -115q-53 -2 -77 -18t-32 -54l-27 -145
q-10 -54 -28.5 -89t-47.5 -55t-70 -28t-95 -8h-52z" />
    <glyph glyph-name="asciitilde" unicode="~" horiz-adv-x="459" 
d="M323 258q-24 0 -44 7t-37 15q-19 9 -34 16t-29 7q-17 0 -27.5 -13t-13.5 -36h-99q8 89 46 131t90 42q25 0 44 -7.5t35 -15.5q17 -10 31 -17t29 -7q35 0 40 47h98q-6 -79 -38 -124t-91 -45z" />
    <glyph glyph-name="uni00A0" unicode="&#xa0;" horiz-adv-x="233" 
 />
    <glyph glyph-name="exclamdown" unicode="&#xa1;" horiz-adv-x="284" 
d="M24 59l99 294h79l-20 -302l-36 -183h-160zM129 612h163l-32 -164h-163z" />
    <glyph glyph-name="cent" unicode="&#xa2;" horiz-adv-x="569" 
d="M210 -12q-86 16 -136.5 76.5t-50.5 156.5q0 70 22 129t61.5 102t93.5 68t119 26l17 89h62l-18 -92q43 -7 75.5 -25t55 -44t35.5 -58.5t16 -69.5h-149q-4 29 -17 50.5t-39 30.5l-63 -328q65 12 91 101h153q-23 -109 -93 -163.5t-174 -54.5l-21 -111h-62zM178 214
q0 -43 14.5 -71t40.5 -39l63 325q-27 -7 -48.5 -27t-37 -49t-24 -64.5t-8.5 -74.5z" />
    <glyph glyph-name="sterling" unicode="&#xa3;" horiz-adv-x="610" 
d="M65 393h52q-8 26 -13.5 54t-5.5 57q0 51 18.5 92t53 70t83 44.5t109.5 15.5q131 0 197.5 -65.5t68.5 -189.5h-155q-2 132 -106 132q-50 0 -76.5 -32t-26.5 -83q0 -23 4 -46.5t9 -48.5h142l-17 -90h-117q-1 -27 -8 -49.5t-22 -42.5t-38.5 -38.5t-56.5 -36.5l1 -3
q28 12 50.5 18.5t47.5 6.5q24 0 44 -5t37.5 -10.5t34.5 -10.5t37 -5q32 0 56.5 12t41.5 25l55 -124q-33 -24 -76 -39.5t-83 -15.5q-39 0 -67.5 8.5t-53 18t-48.5 18t-55 8.5q-33 0 -61 -12.5t-53 -27.5l-66 121q28 15 52 32.5t42 39t28 47t10 55.5v10h-87z" />
    <glyph glyph-name="currency" unicode="&#xa4;" horiz-adv-x="506" 
d="M23 169l68 68q-29 49 -29 113q0 63 29 112l-68 70l79 77l69 -71q45 25 102 25t102 -25l70 71l79 -77l-70 -70q15 -24 22 -52t7 -60q0 -62 -28 -112l69 -69l-79 -78l-70 71q-44 -24 -102 -24t-101 24l-70 -71zM273 232q45 0 69.5 32t24.5 86t-24.5 87t-69.5 33t-70.5 -33
t-25.5 -87t25.5 -86t70.5 -32z" />
    <glyph glyph-name="yen" unicode="&#xa5;" horiz-adv-x="664" 
d="M94 332h147l-140 381h172l43 -137q8 -25 16 -55.5t14 -56.5l14 -63h2q16 31 34 63q15 26 33.5 56.5t35.5 55.5l96 137h178l-290 -381h148l-12 -63h-174l-15 -73h174l-12 -63h-174l-26 -133h-154l26 133h-174l12 63h174l15 73h-175z" />
    <glyph glyph-name="brokenbar" unicode="&#xa6;" horiz-adv-x="242" 
d="M71 784h100v-389h-100v389zM71 263h100v-404h-100v404z" />
    <glyph glyph-name="section" unicode="&#xa7;" horiz-adv-x="653" 
d="M183 14q3 -39 28 -62.5t76 -23.5q38 0 59 17.5t21 46.5q0 16 -10 29.5t-29 27.5t-48 30t-66 37q-42 23 -73.5 45t-52.5 45.5t-31.5 49t-10.5 56.5q0 66 42 102.5t116 50.5q-18 20 -28.5 42.5t-10.5 53.5q0 43 17 76.5t47 56.5t70.5 35t87.5 12q106 0 165 -50t61 -138
h-137q-3 31 -23 52.5t-66 21.5q-36 0 -54.5 -15.5t-18.5 -40.5q0 -17 8 -30t24.5 -25t41.5 -25.5t58 -31.5q34 -18 65 -38t55 -44t38.5 -52.5t14.5 -62.5t-12 -59t-32.5 -43t-48 -29.5t-58.5 -18.5q22 -21 36 -49t14 -64q0 -47 -17.5 -82.5t-48 -59t-72 -35t-88.5 -11.5
q-56 0 -102 13.5t-79 39.5t-51.5 64t-19.5 86h143zM260 399q-31 -5 -50 -19.5t-19 -41.5q0 -12 6 -23.5t19.5 -24t36 -27.5t54.5 -34l86 -52q31 6 53.5 19.5t22.5 42.5q0 27 -30 51t-87 58z" />
    <glyph glyph-name="dieresis" unicode="&#xa8;" 
d="M405 745h145l-27 -138h-145zM167 745h145l-27 -138h-145z" />
    <glyph glyph-name="copyright" unicode="&#xa9;" horiz-adv-x="867" 
d="M455 -18q-80 0 -150 29t-121.5 81t-81 123t-29.5 154q0 84 29.5 155t81 122.5t121.5 81t150 29.5q81 0 150.5 -29.5t121.5 -81t81.5 -122.5t29.5 -155q0 -83 -29.5 -154t-81.5 -123t-121.5 -81t-150.5 -29zM455 32q69 0 128.5 25.5t102.5 70.5t67.5 107t24.5 134
q0 73 -24.5 134.5t-67.5 106.5t-102.5 70.5t-128.5 25.5t-128 -25.5t-102.5 -70.5t-68 -106.5t-24.5 -134.5q0 -72 24.5 -134t68 -107t102.5 -70.5t128 -25.5zM460 146q-48 0 -88 17t-68.5 47t-44 71.5t-15.5 90.5t15.5 91t44 72.5t68.5 47.5t89 17q35 0 65.5 -9t53.5 -25
q31 -22 49 -54.5t23 -71.5h-114q-5 26 -24.5 45t-53.5 19q-24 0 -42.5 -10t-30.5 -28t-18 -42t-6 -52q0 -57 26.5 -93.5t72.5 -36.5q36 0 56.5 21.5t24.5 50.5h113q-5 -73 -53 -118q-27 -24 -61 -37t-82 -13z" />
    <glyph glyph-name="ordfeminine" unicode="&#xaa;" 
d="M341 303q-24 -32 -58.5 -51.5t-81.5 -19.5q-66 0 -105.5 35.5t-39.5 93.5q0 46 15.5 75t44 46.5t68 25.5t87.5 11q68 5 95 18.5t27 44.5q0 23 -16.5 37t-51.5 14q-32 0 -54 -15.5t-29 -45.5h-133q14 70 71.5 112.5t151.5 42.5q112 0 159 -52.5t30 -143.5l-38 -196
q-8 -38 -4.5 -56t11.5 -26l-2 -8h-135q-13 20 -10 58h-2zM375 472q-25 -14 -48.5 -18t-57.5 -11q-40 -8 -56.5 -25t-16.5 -46q0 -26 16.5 -38.5t43.5 -12.5q45 0 71.5 24.5t34.5 63.5z" />
    <glyph glyph-name="guillemotleft" unicode="&#xab;" horiz-adv-x="502" 
d="M268 200l28 143l193 147l-27 -139l-116 -86v-2l80 -96l-25 -127zM47 200l28 143l192 147l-27 -139l-116 -86v-2l80 -96l-24 -127z" />
    <glyph glyph-name="logicalnot" unicode="&#xac;" horiz-adv-x="535" 
d="M89 445h419l-56 -287h-133l31 160h-286z" />
    <glyph glyph-name="uni00AD" unicode="&#xad;" horiz-adv-x="357" 
d="M54 331h278l-26 -132h-278z" />
    <glyph glyph-name="registered" unicode="&#xae;" horiz-adv-x="658" 
d="M370 172q-61 0 -114 22t-92 61t-61.5 92.5t-22.5 116.5t22.5 117t61.5 93t92 61t114 22q60 0 112.5 -22t91.5 -61t61.5 -93t22.5 -117t-22.5 -116.5t-61.5 -92.5t-91.5 -61t-112.5 -22zM370 215q51 0 94.5 19t75.5 52t50 78.5t18 99.5t-18 99.5t-50 79t-75.5 52
t-94.5 18.5q-52 0 -95.5 -18.5t-75.5 -52t-50 -79t-18 -99.5t18 -99.5t50 -78.5t75.5 -52t95.5 -19zM251 616h145q45 0 76.5 -22t31.5 -64q0 -26 -12.5 -44t-44.5 -28v-2q26 -7 35.5 -18t13.5 -36q2 -11 3 -23.5t2 -23.5t3 -19t7 -9v-8h-79q-7 4 -8.5 25.5t-4.5 43.5
q-5 39 -45 39h-43v-108h-80v297zM331 485h51q42 0 42 35q0 16 -9.5 25.5t-31.5 9.5h-52v-70z" />
    <glyph glyph-name="macron" unicode="&#xaf;" 
d="M204 724h305l-21 -108h-304z" />
    <glyph glyph-name="degree" unicode="&#xb0;" horiz-adv-x="430" 
d="M275 392q-35 0 -66.5 13t-55 35.5t-37.5 52.5t-14 65q0 36 14 66.5t37.5 53.5t55 36t66.5 13q34 0 65.5 -13t54.5 -36t37 -53.5t14 -66.5q0 -35 -14 -65t-37 -52.5t-54.5 -35.5t-65.5 -13zM275 473q37 0 58 25t21 60t-21 61.5t-58 26.5q-38 0 -59 -26.5t-21 -61.5t21 -60
t59 -25z" />
    <glyph glyph-name="plusminus" unicode="&#xb1;" horiz-adv-x="595" 
d="M93 473h180l33 165h130l-33 -165h182l-24 -122h-182l-32 -167h-130l32 167h-180zM24 118h492l-23 -118h-492z" />
    <glyph glyph-name="uni00B2" unicode="&#xb2;" horiz-adv-x="407" 
d="M18 286q6 53 27 85.5t48 55.5q42 35 87.5 59.5t80.5 45.5q27 17 41.5 35t14.5 41q0 21 -12.5 35.5t-38.5 14.5q-14 0 -25.5 -3.5t-21.5 -12.5q-11 -11 -17 -28t-9 -36h-119q7 42 16.5 67.5t30.5 50.5q23 26 58.5 42t87.5 16q45 0 78 -11t54 -30.5t31 -45t10 -55.5
q0 -43 -19 -72t-49 -51q-20 -15 -43 -27.5t-45.5 -24t-43 -23.5t-35.5 -25v-1h190l-21 -102h-356v0z" />
    <glyph glyph-name="uni00B3" unicode="&#xb3;" horiz-adv-x="424" 
d="M245 275q-53 0 -90 13t-61 38q-25 24 -34 57.5t-7 61.5h116q0 -14 3 -27.5t11.5 -25t22.5 -18.5t37 -7q32 0 49 18.5t17 41.5q0 29 -16.5 42.5t-45.5 13.5h-27l15 84h22q32 0 51.5 12t19.5 41q0 20 -13.5 33t-39.5 13q-35 0 -52.5 -19t-23.5 -47h-116q11 72 60.5 113
t134.5 41q33 0 63.5 -7t54.5 -22t38.5 -38t14.5 -55q0 -82 -95 -106v-1q34 -9 55.5 -36t21.5 -60q0 -39 -14.5 -68t-40 -48t-59 -28.5t-72.5 -9.5z" />
    <glyph glyph-name="acute" unicode="&#xb4;" 
d="M337 773h182l-143 -161h-115z" />
    <glyph glyph-name="mu" unicode="&#xb5;" horiz-adv-x="593" 
d="M151 10q-1 -12 -3 -27q-2 -13 -4 -29.5t-6 -34.5l-19 -96h-153l137 709h154l-63 -324q-9 -44 6 -69.5t57 -26.5q49 -1 80.5 29.5t42.5 84.5l59 306h154l-104 -532h-148l14 73h-2q-24 -38 -62.5 -60.5t-77.5 -22.5q-24 0 -39 6t-21 14h-2z" />
    <glyph glyph-name="paragraph" unicode="&#xb6;" horiz-adv-x="593" 
d="M292 351h-22q-42 0 -75 12.5t-56.5 35.5t-35.5 55t-10 71q1 51 20.5 95t53.5 73q60 51 161 51h298l-172 -884h-89l154 793h-79l-154 -793h-89z" />
    <glyph glyph-name="periodcentered" unicode="&#xb7;" horiz-adv-x="253" 
d="M74 412h164l-32 -165h-164z" />
    <glyph glyph-name="cedilla" unicode="&#xb8;" 
d="M172 -209q-34 0 -60 8.5t-44 21.5l20 35q32 -16 64 -16q28 0 44.5 10t16.5 30q0 13 -9 20t-23 7q-12 0 -21.5 -2t-17.5 -5l-13 28l73 72h66l-64 -53l1 -2q42 6 72.5 -10t30.5 -54q0 -44 -38 -67t-98 -23z" />
    <glyph glyph-name="uni00B9" unicode="&#xb9;" horiz-adv-x="291" 
d="M171 567h-104l16 83q56 2 92.5 25t56.5 74h101l-90 -463h-126z" />
    <glyph glyph-name="ordmasculine" unicode="&#xba;" horiz-adv-x="547" 
d="M297 231q-51 0 -92.5 16t-71 45.5t-45.5 70t-16 88.5q0 58 20 108t56 87.5t85.5 59t108.5 21.5q51 0 92.5 -16t71 -45t46 -68.5t16.5 -87.5q0 -60 -20.5 -111.5t-57 -88.5t-86 -58t-107.5 -21zM302 331q28 0 51 14.5t39 39.5t24.5 57.5t8.5 67.5q0 56 -22.5 87t-64.5 31
q-29 0 -52 -15t-39 -40t-24 -57.5t-8 -68.5q0 -55 22 -85.5t65 -30.5z" />
    <glyph glyph-name="guillemotright" unicode="&#xbb;" horiz-adv-x="502" 
d="M43 179l116 86v2l-80 96l25 127l133 -161l-28 -143l-193 -146zM265 179l116 86v2l-80 96l24 127l132 -161l-27 -143l-193 -146z" />
    <glyph glyph-name="onequarter" unicode="&#xbc;" horiz-adv-x="908" 
d="M621 -11h-218l22 109l262 256h125l-54 -278h64l-17 -87h-63l-19 -99h-121zM715 744h104l-648 -874h-103zM174 567h-104l16 83q56 2 92.5 25t56.5 74h101l-90 -463h-126zM503 74q13 0 25 1q11 0 23.5 0.5t23.5 0.5h63l18 91q2 11 5 24.5t6 24.5q4 13 8 27h-2
q-10 -12 -21 -24q-9 -11 -20 -22.5t-21 -21.5l-40 -38q-11 -11 -23 -21.5t-22 -19.5q-11 -11 -23 -20v-2z" />
    <glyph glyph-name="onehalf" unicode="&#xbd;" horiz-adv-x="944" 
d="M174 567h-104l16 83q56 2 92.5 25t56.5 74h101l-90 -463h-126zM706 744h104l-648 -874h-103zM449 -110q6 53 27 85.5t48 55.5q42 35 87.5 59.5t80.5 45.5q27 17 41.5 35t14.5 41q0 21 -12.5 35.5t-38.5 14.5q-14 0 -25.5 -3.5t-21.5 -12.5q-11 -11 -17 -28t-9 -36h-119
q7 42 16.5 67.5t30.5 50.5q23 26 58.5 42t87.5 16q45 0 78 -11t54 -30.5t31 -45t10 -55.5q0 -43 -19 -72t-49 -51q-20 -15 -43 -27.5t-45.5 -24t-43 -23.5t-35.5 -25v-1h190l-21 -102h-356z" />
    <glyph glyph-name="threequarters" unicode="&#xbe;" horiz-adv-x="996" 
d="M709 -11h-218l22 109l262 256h125l-54 -278h64l-17 -87h-63l-19 -99h-121zM248 275q-53 0 -90 13t-61 38q-25 24 -34 57.5t-7 61.5h116q0 -14 3 -27.5t11.5 -25t22.5 -18.5t37 -7q32 0 49 18.5t17 41.5q0 29 -16.5 42.5t-45.5 13.5h-27l15 84h22q32 0 51.5 12t19.5 41
q0 20 -13.5 33t-39.5 13q-35 0 -52.5 -19t-23.5 -47h-116q11 72 60.5 113t134.5 41q33 0 63.5 -7t54.5 -22t38.5 -38t14.5 -55q0 -82 -95 -106v-1q34 -9 55.5 -36t21.5 -60q0 -39 -14.5 -68t-40 -48t-59 -28.5t-72.5 -9.5zM794 744h104l-648 -874h-103zM591 74q13 0 25 1
q11 0 23.5 0.5t23.5 0.5h63l18 91q2 11 5 24.5t6 24.5q4 13 8 27h-2q-10 -12 -21 -24q-9 -11 -20 -22.5t-21 -21.5l-40 -38q-11 -11 -23 -21.5t-22 -19.5q-11 -11 -23 -20v-2z" />
    <glyph glyph-name="questiondown" unicode="&#xbf;" horiz-adv-x="569" 
d="M290 612h164l-32 -164h-164zM229 -144q-52 0 -96 12t-76 35.5t-50 59t-18 82.5q0 34 9 61t24 48t33.5 37t38.5 28q24 15 42.5 25t32.5 18t25.5 14.5t20.5 14.5q15 13 22.5 26t12.5 36h142q-6 -36 -15.5 -62t-23 -45.5t-31.5 -35t-42 -30.5q-23 -15 -45.5 -26.5t-41 -25
t-30 -31.5t-11.5 -46q0 -32 23 -50.5t66 -18.5q48 0 82 30.5t43 88.5h153q-16 -117 -89.5 -181t-200.5 -64z" />
    <glyph glyph-name="Agrave" unicode="&#xc0;" horiz-adv-x="722" 
d="M367 744h174l119 -744h-173l-18 143h-264l-73 -143h-172zM267 262h188l-17 137q-4 28 -5.5 64t-2.5 69q-1 38 -1 78h-2q-14 -38 -29 -75q-13 -32 -28.5 -67.5t-29.5 -63.5zM325 916h172l28 -131h-109z" />
    <glyph glyph-name="Aacute" unicode="&#xc1;" horiz-adv-x="722" 
d="M367 744h174l119 -744h-173l-18 143h-264l-73 -143h-172zM267 262h188l-17 137q-4 28 -5.5 64t-2.5 69q-1 38 -1 78h-2q-14 -38 -29 -75q-13 -32 -28.5 -67.5t-29.5 -63.5zM450 916h182l-128 -131h-115z" />
    <glyph glyph-name="Acircumflex" unicode="&#xc2;" horiz-adv-x="722" 
d="M367 744h174l119 -744h-173l-18 143h-264l-73 -143h-172zM406 916h150l84 -131h-126l-37 64h-2l-58 -64h-140zM267 262h188l-17 137q-4 28 -5.5 64t-2.5 69q-1 38 -1 78h-2q-14 -38 -29 -75q-13 -32 -28.5 -67.5t-29.5 -63.5z" />
    <glyph glyph-name="Atilde" unicode="&#xc3;" horiz-adv-x="722" 
d="M367 744h174l119 -744h-173l-18 143h-264l-73 -143h-172zM541 786q-23 0 -41 7t-33.5 15t-28 15t-23.5 7q-13 0 -24 -11.5t-16 -33.5h-82q8 71 42 106t77 35q23 0 41 -7t32 -15t26 -15t24 -7q31 0 40 42h83q-8 -63 -38 -100.5t-79 -37.5zM267 262h188l-17 137
q-4 28 -5.5 64t-2.5 69q-1 38 -1 78h-2q-14 -38 -29 -75q-13 -32 -28.5 -67.5t-29.5 -63.5z" />
    <glyph glyph-name="Adieresis" unicode="&#xc4;" horiz-adv-x="722" 
d="M367 744h174l119 -744h-173l-18 143h-264l-73 -143h-172zM267 262h188l-17 137q-4 28 -5.5 64t-2.5 69q-1 38 -1 78h-2q-14 -38 -29 -75q-13 -32 -28.5 -67.5t-29.5 -63.5zM292 919h151l-26 -134h-151zM533 919h150l-26 -134h-150z" />
    <glyph glyph-name="Aring" unicode="&#xc5;" horiz-adv-x="722" 
d="M367 744h174l119 -744h-173l-18 143h-264l-73 -143h-172zM476 766q-23 0 -43.5 8.5t-36 23t-24.5 34.5t-9 44q0 23 9 43t24.5 35t36 24t43.5 9t43.5 -9t35.5 -24t24 -35t9 -43q0 -24 -9 -44t-24 -34.5t-35.5 -23t-43.5 -8.5zM267 262h188l-17 137q-4 28 -5.5 64t-2.5 69
q-1 38 -1 78h-2q-14 -38 -29 -75q-13 -32 -28.5 -67.5t-29.5 -63.5zM476 823q23 0 37.5 15t14.5 38t-14.5 39t-37.5 16t-37.5 -16t-14.5 -39t14.5 -38t37.5 -15z" />
    <glyph glyph-name="AE" unicode="&#xc6;" horiz-adv-x="1026" 
d="M357 744h713l-28 -143h-356l-30 -150h306l-26 -131h-306l-33 -171h368l-29 -149h-536l28 146h-222l-76 -146h-170zM267 264h184l66 337h-75z" />
    <glyph glyph-name="Ccedilla" unicode="&#xc7;" horiz-adv-x="735" 
d="M275 -209q-34 0 -60 8.5t-44 21.5l20 35q32 -16 64 -16q28 0 44.5 10t16.5 30q0 13 -9 20t-23 7q-12 0 -21.5 -2t-17.5 -5l-13 28l63 63q-113 22 -179 105.5t-66 216.5q0 93 29.5 174t82 141t126 94.5t162.5 34.5q70 0 122.5 -18.5t89.5 -50.5q44 -38 63 -88.5t21 -106.5
h-166q-3 26 -12 49t-26 40t-42 27t-60 10q-53 0 -94 -26.5t-68.5 -69.5t-41.5 -97t-14 -109q0 -91 38.5 -144t119.5 -53q63 0 107.5 38t57.5 102h170q-16 -71 -44.5 -120.5t-73.5 -85.5q-42 -35 -96.5 -53t-125.5 -18h-12t-12 1l-44 -37l1 -2q42 6 72.5 -10t30.5 -54
q0 -44 -38 -67t-98 -23z" />
    <glyph glyph-name="Egrave" unicode="&#xc8;" horiz-adv-x="658" 
d="M157 744h548l-27 -138h-381l-30 -153h330l-26 -132h-330l-34 -178h387l-28 -143h-554zM303 916h172l28 -131h-109z" />
    <glyph glyph-name="Eacute" unicode="&#xc9;" horiz-adv-x="658" 
d="M157 744h548l-27 -138h-381l-30 -153h330l-26 -132h-330l-34 -178h387l-28 -143h-554zM428 916h182l-128 -131h-115z" />
    <glyph glyph-name="Ecircumflex" unicode="&#xca;" horiz-adv-x="658" 
d="M157 744h548l-27 -138h-381l-30 -153h330l-26 -132h-330l-34 -178h387l-28 -143h-554zM384 916h150l84 -131h-126l-37 64h-2l-58 -64h-140z" />
    <glyph glyph-name="Edieresis" unicode="&#xcb;" horiz-adv-x="658" 
d="M157 744h548l-27 -138h-381l-30 -153h330l-26 -132h-330l-34 -178h387l-28 -143h-554zM270 919h151l-26 -134h-151zM511 919h150l-26 -134h-150z" />
    <glyph glyph-name="Igrave" unicode="&#xcc;" horiz-adv-x="292" 
d="M157 744h168l-145 -744h-168zM112 916h172l28 -131h-109z" />
    <glyph glyph-name="Iacute" unicode="&#xcd;" horiz-adv-x="292" 
d="M157 744h168l-145 -744h-168zM237 916h182l-128 -131h-115z" />
    <glyph glyph-name="Icircumflex" unicode="&#xce;" horiz-adv-x="292" 
d="M157 744h168l-145 -744h-168zM193 916h150l84 -131h-126l-37 64h-2l-58 -64h-140z" />
    <glyph glyph-name="Idieresis" unicode="&#xcf;" horiz-adv-x="292" 
d="M157 744h168l-145 -744h-168zM310 919h140l-26 -134h-140zM99 919h141l-26 -134h-141z" />
    <glyph glyph-name="Eth" unicode="&#xd0;" horiz-adv-x="735" 
d="M45 443h56l59 301h276q72 0 128 -23t94 -63t57.5 -95t19.5 -119q0 -100 -27 -182t-79 -140t-127 -90t-172 -32h-315l61 313h-56zM333 139q57 0 100 21t72.5 59.5t44.5 93.5t15 123q0 77 -36.5 123.5t-118.5 46.5h-109l-32 -163h169l-25 -130h-169l-34 -174h123z" />
    <glyph glyph-name="Ntilde" unicode="&#xd1;" horiz-adv-x="739" 
d="M157 744h171l127 -334q11 -29 22 -64.5t20 -66.5q11 -36 21 -73h2q5 41 10 81q5 35 10 74.5t12 71.5l61 311h159l-145 -744h-171l-126 330q-11 29 -23 65t-21 68q-11 37 -21 74h-2q-4 -42 -9 -82q-5 -35 -10.5 -74.5t-11.5 -71.5l-60 -309h-160zM553 786q-23 0 -41 7
t-33.5 15t-28 15t-23.5 7q-13 0 -24 -11.5t-16 -33.5h-82q8 71 42 106t77 35q23 0 41 -7t32 -15t26 -15t24 -7q31 0 40 42h83q-8 -63 -38 -100.5t-79 -37.5z" />
    <glyph glyph-name="Ograve" unicode="&#xd2;" horiz-adv-x="784" 
d="M380 -18q-76 0 -137.5 24.5t-104.5 68.5t-66.5 105t-23.5 135q0 91 29.5 171.5t83 140.5t127.5 95t164 35q76 0 136.5 -24t103.5 -68t66 -105t23 -134q0 -93 -29 -174t-81.5 -141t-126.5 -94.5t-164 -34.5zM384 118q55 0 97.5 25.5t71 68.5t43 98.5t14.5 114.5
q0 45 -11 81.5t-32 62.5t-52 40.5t-72 14.5q-54 0 -95.5 -26.5t-70 -69.5t-43.5 -98.5t-15 -112.5q0 -44 10.5 -80.5t31 -63t51.5 -41t72 -14.5zM334 916h172l28 -131h-109z" />
    <glyph glyph-name="Oacute" unicode="&#xd3;" horiz-adv-x="784" 
d="M380 -18q-76 0 -137.5 24.5t-104.5 68.5t-66.5 105t-23.5 135q0 91 29.5 171.5t83 140.5t127.5 95t164 35q76 0 136.5 -24t103.5 -68t66 -105t23 -134q0 -93 -29 -174t-81.5 -141t-126.5 -94.5t-164 -34.5zM384 118q55 0 97.5 25.5t71 68.5t43 98.5t14.5 114.5
q0 45 -11 81.5t-32 62.5t-52 40.5t-72 14.5q-54 0 -95.5 -26.5t-70 -69.5t-43.5 -98.5t-15 -112.5q0 -44 10.5 -80.5t31 -63t51.5 -41t72 -14.5zM459 916h182l-128 -131h-115z" />
    <glyph glyph-name="Ocircumflex" unicode="&#xd4;" horiz-adv-x="784" 
d="M380 -18q-76 0 -137.5 24.5t-104.5 68.5t-66.5 105t-23.5 135q0 91 29.5 171.5t83 140.5t127.5 95t164 35q76 0 136.5 -24t103.5 -68t66 -105t23 -134q0 -93 -29 -174t-81.5 -141t-126.5 -94.5t-164 -34.5zM384 118q55 0 97.5 25.5t71 68.5t43 98.5t14.5 114.5
q0 45 -11 81.5t-32 62.5t-52 40.5t-72 14.5q-54 0 -95.5 -26.5t-70 -69.5t-43.5 -98.5t-15 -112.5q0 -44 10.5 -80.5t31 -63t51.5 -41t72 -14.5zM415 916h150l84 -131h-126l-37 64h-2l-58 -64h-140z" />
    <glyph glyph-name="Otilde" unicode="&#xd5;" horiz-adv-x="784" 
d="M380 -18q-76 0 -137.5 24.5t-104.5 68.5t-66.5 105t-23.5 135q0 91 29.5 171.5t83 140.5t127.5 95t164 35q76 0 136.5 -24t103.5 -68t66 -105t23 -134q0 -93 -29 -174t-81.5 -141t-126.5 -94.5t-164 -34.5zM384 118q55 0 97.5 25.5t71 68.5t43 98.5t14.5 114.5
q0 45 -11 81.5t-32 62.5t-52 40.5t-72 14.5q-54 0 -95.5 -26.5t-70 -69.5t-43.5 -98.5t-15 -112.5q0 -44 10.5 -80.5t31 -63t51.5 -41t72 -14.5zM550 786q-23 0 -41 7t-33.5 15t-28 15t-23.5 7q-13 0 -24 -11.5t-16 -33.5h-82q8 71 42 106t77 35q23 0 41 -7t32 -15t26 -15
t24 -7q31 0 40 42h83q-8 -63 -38 -100.5t-79 -37.5z" />
    <glyph glyph-name="Odieresis" unicode="&#xd6;" horiz-adv-x="784" 
d="M380 -18q-76 0 -137.5 24.5t-104.5 68.5t-66.5 105t-23.5 135q0 91 29.5 171.5t83 140.5t127.5 95t164 35q76 0 136.5 -24t103.5 -68t66 -105t23 -134q0 -93 -29 -174t-81.5 -141t-126.5 -94.5t-164 -34.5zM384 118q55 0 97.5 25.5t71 68.5t43 98.5t14.5 114.5
q0 45 -11 81.5t-32 62.5t-52 40.5t-72 14.5q-54 0 -95.5 -26.5t-70 -69.5t-43.5 -98.5t-15 -112.5q0 -44 10.5 -80.5t31 -63t51.5 -41t72 -14.5zM543 919h150l-26 -134h-150zM302 919h151l-26 -134h-151z" />
    <glyph glyph-name="multiply" unicode="&#xd7;" horiz-adv-x="594" 
d="M45 179l185 162l-134 160l93 83l134 -161l183 161l75 -86l-185 -162l134 -159l-93 -83l-134 160l-184 -161z" />
    <glyph glyph-name="Oslash" unicode="&#xd8;" horiz-adv-x="784" 
d="M-5 7l110 108q-57 83 -57 200q0 91 29.5 171.5t83 140.5t127.5 95t164 35q69 0 126 -20.5t99 -57.5l103 101l52 -51l-107 -105q27 -41 41.5 -90.5t14.5 -107.5q0 -93 -29 -174t-81.5 -141t-126.5 -94.5t-164 -34.5q-70 0 -127.5 20t-99.5 58l-107 -105zM219 317
q0 -45 9 -81l340 335q-21 26 -52 39.5t-73 13.5q-54 0 -95.5 -26.5t-70 -69.5t-43.5 -98.5t-15 -112.5zM384 118q55 0 97.5 25.5t71 68.5t43 98.5t14.5 114.5q0 42 -9 77l-340 -335q20 -23 50 -36t73 -13z" />
    <glyph glyph-name="Ugrave" unicode="&#xd9;" horiz-adv-x="710" 
d="M336 -14q-74 0 -131.5 19t-94.5 56.5t-50.5 92t0.5 126.5l91 464h166l-93 -479q-12 -66 14.5 -105t103.5 -39q62 0 99 33.5t49 96.5l96 493h167l-98 -505q-25 -130 -103 -191.5t-216 -61.5zM316 916h172l28 -131h-109z" />
    <glyph glyph-name="Uacute" unicode="&#xda;" horiz-adv-x="710" 
d="M336 -14q-74 0 -131.5 19t-94.5 56.5t-50.5 92t0.5 126.5l91 464h166l-93 -479q-12 -66 14.5 -105t103.5 -39q62 0 99 33.5t49 96.5l96 493h167l-98 -505q-25 -130 -103 -191.5t-216 -61.5zM445 916h182l-128 -131h-115z" />
    <glyph glyph-name="Ucircumflex" unicode="&#xdb;" horiz-adv-x="710" 
d="M336 -14q-74 0 -131.5 19t-94.5 56.5t-50.5 92t0.5 126.5l91 464h166l-93 -479q-12 -66 14.5 -105t103.5 -39q62 0 99 33.5t49 96.5l96 493h167l-98 -505q-25 -130 -103 -191.5t-216 -61.5zM397 916h150l84 -131h-126l-37 64h-2l-58 -64h-140z" />
    <glyph glyph-name="Udieresis" unicode="&#xdc;" horiz-adv-x="710" 
d="M336 -14q-74 0 -131.5 19t-94.5 56.5t-50.5 92t0.5 126.5l91 464h166l-93 -479q-12 -66 14.5 -105t103.5 -39q62 0 99 33.5t49 96.5l96 493h167l-98 -505q-25 -130 -103 -191.5t-216 -61.5zM525 919h150l-26 -134h-150zM284 919h151l-26 -134h-151z" />
    <glyph glyph-name="Yacute" unicode="&#xdd;" horiz-adv-x="692" 
d="M265 278l-158 466h176l48 -156q8 -26 15 -56.5t13 -57.5q7 -32 13 -63h2q17 31 35 63q15 27 34 57.5t36 56.5l110 156h183l-339 -462l-55 -282h-167zM432 916h182l-128 -131h-115z" />
    <glyph glyph-name="Thorn" unicode="&#xde;" horiz-adv-x="678" 
d="M157 744h169l-21 -107h132q67 0 113.5 -18.5t74.5 -50.5q25 -29 39 -67t14 -83q0 -64 -20.5 -113.5t-57.5 -83.5t-89.5 -52t-115.5 -18h-185l-29 -151h-169zM277 495l-41 -211h145q60 0 93 33t33 89q0 39 -23 64t-70 25h-137z" />
    <glyph glyph-name="germandbls" unicode="&#xdf;" horiz-adv-x="596" 
d="M316 -10q-29 0 -54 4t-40 10l19 111q2 0 4.5 -0.5t4.5 -0.5q9 -2 18.5 -3t20.5 -1q60 0 95 37t35 110q0 54 -28.5 84.5t-77.5 30.5h-20l17 90h8q57 0 88 23.5t31 76.5q0 35 -20.5 56.5t-58.5 21.5q-79 0 -99 -101l-104 -539h-153l107 557q19 94 82 146.5t171 52.5
q49 0 90 -13t69.5 -36.5t44.5 -56t16 -70.5q0 -124 -126 -164v-3q56 -20 83.5 -67t27.5 -104q0 -63 -20 -110.5t-54.5 -79t-80 -47t-96.5 -15.5z" />
    <glyph glyph-name="agrave" unicode="&#xe0;" horiz-adv-x="568" 
d="M169 -14q-75 0 -120 40t-45 108q0 49 18 80.5t50 50.5t77 28.5t99 14.5q77 7 108.5 23t31.5 52q0 26 -20 43.5t-59 17.5q-41 0 -67 -19t-34 -54h-144q15 80 79 128t171 48q125 0 178 -59.5t33 -163.5l-40 -206q-10 -50 -7 -74t13 -35l-1 -9h-146q-6 13 -9.5 29t-3.5 36
h-3q-27 -36 -66.5 -57.5t-92.5 -21.5zM231 81q52 0 82.5 30t38.5 75l15 72q-14 -8 -27.5 -13t-28 -8.5t-30.5 -6t-35 -6.5q-47 -9 -68.5 -27.5t-21.5 -52.5t22.5 -48.5t52.5 -14.5zM183 773h172l38 -161h-109z" />
    <glyph glyph-name="aacute" unicode="&#xe1;" horiz-adv-x="568" 
d="M169 -14q-75 0 -120 40t-45 108q0 49 18 80.5t50 50.5t77 28.5t99 14.5q77 7 108.5 23t31.5 52q0 26 -20 43.5t-59 17.5q-41 0 -67 -19t-34 -54h-144q15 80 79 128t171 48q125 0 178 -59.5t33 -163.5l-40 -206q-10 -50 -7 -74t13 -35l-1 -9h-146q-6 13 -9.5 29t-3.5 36
h-3q-27 -36 -66.5 -57.5t-92.5 -21.5zM231 81q52 0 82.5 30t38.5 75l15 72q-14 -8 -27.5 -13t-28 -8.5t-30.5 -6t-35 -6.5q-47 -9 -68.5 -27.5t-21.5 -52.5t22.5 -48.5t52.5 -14.5zM345 773h182l-143 -161h-115z" />
    <glyph glyph-name="acircumflex" unicode="&#xe2;" horiz-adv-x="568" 
d="M169 -14q-75 0 -120 40t-45 108q0 49 18 80.5t50 50.5t77 28.5t99 14.5q77 7 108.5 23t31.5 52q0 26 -20 43.5t-59 17.5q-41 0 -67 -19t-34 -54h-144q15 80 79 128t171 48q125 0 178 -59.5t33 -163.5l-40 -206q-10 -50 -7 -74t13 -35l-1 -9h-146q-6 13 -9.5 29t-3.5 36
h-3q-27 -36 -66.5 -57.5t-92.5 -21.5zM285 762h150l82 -148h-126l-35 81h-2l-60 -81h-140zM231 81q52 0 82.5 30t38.5 75l15 72q-14 -8 -27.5 -13t-28 -8.5t-30.5 -6t-35 -6.5q-47 -9 -68.5 -27.5t-21.5 -52.5t22.5 -48.5t52.5 -14.5z" />
    <glyph glyph-name="atilde" unicode="&#xe3;" horiz-adv-x="568" 
d="M169 -14q-75 0 -120 40t-45 108q0 49 18 80.5t50 50.5t77 28.5t99 14.5q77 7 108.5 23t31.5 52q0 26 -20 43.5t-59 17.5q-41 0 -67 -19t-34 -54h-144q15 80 79 128t171 48q125 0 178 -59.5t33 -163.5l-40 -206q-10 -50 -7 -74t13 -35l-1 -9h-146q-6 13 -9.5 29t-3.5 36
h-3q-27 -36 -66.5 -57.5t-92.5 -21.5zM419 613q-23 0 -41 7t-33.5 15t-28 15t-23.5 7q-13 0 -24 -11.5t-16 -33.5h-82q8 71 42 106t77 35q23 0 41 -7t32 -15t26 -15t24 -7q31 0 40 42h83q-8 -63 -38 -100.5t-79 -37.5zM231 81q52 0 82.5 30t38.5 75l15 72q-14 -8 -27.5 -13
t-28 -8.5t-30.5 -6t-35 -6.5q-47 -9 -68.5 -27.5t-21.5 -52.5t22.5 -48.5t52.5 -14.5z" />
    <glyph glyph-name="adieresis" unicode="&#xe4;" horiz-adv-x="568" 
d="M169 -14q-75 0 -120 40t-45 108q0 49 18 80.5t50 50.5t77 28.5t99 14.5q77 7 108.5 23t31.5 52q0 26 -20 43.5t-59 17.5q-41 0 -67 -19t-34 -54h-144q15 80 79 128t171 48q125 0 178 -59.5t33 -163.5l-40 -206q-10 -50 -7 -74t13 -35l-1 -9h-146q-6 13 -9.5 29t-3.5 36
h-3q-27 -36 -66.5 -57.5t-92.5 -21.5zM231 81q52 0 82.5 30t38.5 75l15 72q-14 -8 -27.5 -13t-28 -8.5t-30.5 -6t-35 -6.5q-47 -9 -68.5 -27.5t-21.5 -52.5t22.5 -48.5t52.5 -14.5zM412 745h145l-27 -138h-145zM174 745h145l-27 -138h-145z" />
    <glyph glyph-name="aring" unicode="&#xe5;" horiz-adv-x="568" 
d="M169 -14q-75 0 -120 40t-45 108q0 49 18 80.5t50 50.5t77 28.5t99 14.5q77 7 108.5 23t31.5 52q0 26 -20 43.5t-59 17.5q-41 0 -67 -19t-34 -54h-144q15 80 79 128t171 48q125 0 178 -59.5t33 -163.5l-40 -206q-10 -50 -7 -74t13 -35l-1 -9h-146q-6 13 -9.5 29t-3.5 36
h-3q-27 -36 -66.5 -57.5t-92.5 -21.5zM350 596q-23 0 -43.5 8.5t-36 23t-24.5 34.5t-9 44q0 23 9 43t24.5 35t36 24t43.5 9t43.5 -9t35.5 -24t24 -35t9 -43q0 -24 -9 -44t-24 -34.5t-35.5 -23t-43.5 -8.5zM231 81q52 0 82.5 30t38.5 75l15 72q-14 -8 -27.5 -13t-28 -8.5
t-30.5 -6t-35 -6.5q-47 -9 -68.5 -27.5t-21.5 -52.5t22.5 -48.5t52.5 -14.5zM350 653q23 0 37.5 15t14.5 38t-14.5 39t-37.5 16t-37.5 -16t-14.5 -39t14.5 -38t37.5 -15z" />
    <glyph glyph-name="ae" unicode="&#xe6;" horiz-adv-x="913" 
d="M181 -14q-88 0 -133.5 40.5t-45.5 106.5q0 49 18 80.5t50 51t77 29t99 14.5q77 7 108.5 23t31.5 52q0 26 -20 43.5t-59 17.5q-41 0 -67 -19t-34 -54h-144q15 80 79 128t171 48q64 0 105.5 -16.5t64.5 -47.5q33 31 75.5 48t95.5 17q58 0 102.5 -19.5t74 -53t44.5 -79.5
t15 -99q0 -17 -1.5 -34.5t-3.5 -35.5h-378v-2q0 -62 27.5 -96.5t82.5 -34.5q32 0 56 14.5t38 41.5h154q-32 -79 -98.5 -122.5t-157.5 -43.5q-74 0 -126.5 27t-82.5 72q-26 -32 -54 -51t-56.5 -29.5t-56 -13.5t-51.5 -3zM229 81q52 0 82.5 30t38.5 75l15 72q-14 -8 -27.5 -13
t-28 -8.5t-30.5 -6t-35 -6.5q-47 -9 -68.5 -27.5t-21.5 -52.5t22.5 -48.5t52.5 -14.5zM650 439q-52 0 -85 -35.5t-48 -88.5h223q6 57 -17.5 90.5t-72.5 33.5z" />
    <glyph glyph-name="ccedilla" unicode="&#xe7;" horiz-adv-x="567" 
d="M186 -209q-34 0 -60 8.5t-44 21.5l20 35q32 -16 64 -16q28 0 44.5 10t16.5 30q0 13 -9 20t-23 7q-12 0 -21.5 -2t-17.5 -5l-13 28l61 61q-83 18 -131.5 78t-48.5 154q0 70 21.5 129.5t61 103t94.5 68.5t122 25q54 0 95.5 -15t70.5 -41.5t45.5 -62.5t19.5 -78h-149
q-5 37 -25 60t-61 23q-34 0 -60 -18t-44 -48.5t-27 -70t-9 -82.5q0 -57 24.5 -87t69.5 -30q84 0 113 101h153q-23 -109 -93 -162.5t-174 -53.5h-12l-42 -35l1 -2q42 6 72.5 -10t30.5 -54q0 -44 -38 -67t-98 -23z" />
    <glyph glyph-name="egrave" unicode="&#xe8;" horiz-adv-x="584" 
d="M277 -16q-62 0 -109 18.5t-79 51t-48 76.5t-16 95q0 68 22 127t61.5 102.5t94 68.5t119.5 25q60 0 105 -19.5t74.5 -53.5t44 -80t14.5 -100q0 -17 -1.5 -34t-3.5 -34h-384v-2q0 -62 28.5 -96.5t85.5 -34.5q32 0 57 14.5t39 41.5h154q-32 -79 -98.5 -122.5t-159.5 -43.5z
M182 773h172l38 -161h-109zM319 439q-27 0 -48.5 -9.5t-38.5 -26t-29.5 -39.5t-19.5 -49h228q7 57 -17.5 90.5t-74.5 33.5z" />
    <glyph glyph-name="eacute" unicode="&#xe9;" horiz-adv-x="584" 
d="M277 -16q-62 0 -109 18.5t-79 51t-48 76.5t-16 95q0 68 22 127t61.5 102.5t94 68.5t119.5 25q60 0 105 -19.5t74.5 -53.5t44 -80t14.5 -100q0 -17 -1.5 -34t-3.5 -34h-384v-2q0 -62 28.5 -96.5t85.5 -34.5q32 0 57 14.5t39 41.5h154q-32 -79 -98.5 -122.5t-159.5 -43.5z
M344 773h182l-143 -161h-115zM319 439q-27 0 -48.5 -9.5t-38.5 -26t-29.5 -39.5t-19.5 -49h228q7 57 -17.5 90.5t-74.5 33.5z" />
    <glyph glyph-name="ecircumflex" unicode="&#xea;" horiz-adv-x="584" 
d="M277 -16q-62 0 -109 18.5t-79 51t-48 76.5t-16 95q0 68 22 127t61.5 102.5t94 68.5t119.5 25q60 0 105 -19.5t74.5 -53.5t44 -80t14.5 -100q0 -17 -1.5 -34t-3.5 -34h-384v-2q0 -62 28.5 -96.5t85.5 -34.5q32 0 57 14.5t39 41.5h154q-32 -79 -98.5 -122.5t-159.5 -43.5z
M284 762h150l82 -148h-126l-35 81h-2l-60 -81h-140zM319 439q-27 0 -48.5 -9.5t-38.5 -26t-29.5 -39.5t-19.5 -49h228q7 57 -17.5 90.5t-74.5 33.5z" />
    <glyph glyph-name="edieresis" unicode="&#xeb;" horiz-adv-x="584" 
d="M277 -16q-62 0 -109 18.5t-79 51t-48 76.5t-16 95q0 68 22 127t61.5 102.5t94 68.5t119.5 25q60 0 105 -19.5t74.5 -53.5t44 -80t14.5 -100q0 -17 -1.5 -34t-3.5 -34h-384v-2q0 -62 28.5 -96.5t85.5 -34.5q32 0 57 14.5t39 41.5h154q-32 -79 -98.5 -122.5t-159.5 -43.5z
M319 439q-27 0 -48.5 -9.5t-38.5 -26t-29.5 -39.5t-19.5 -49h228q7 57 -17.5 90.5t-74.5 33.5zM411 745h145l-27 -138h-145zM173 745h145l-27 -138h-145z" />
    <glyph glyph-name="igrave" unicode="&#xec;" horiz-adv-x="257" 
d="M105 532h153l-103 -532h-154zM40 773h172l38 -161h-109z" />
    <glyph glyph-name="iacute" unicode="&#xed;" horiz-adv-x="257" 
d="M105 532h153l-103 -532h-154zM202 773h182l-143 -161h-115z" />
    <glyph glyph-name="icircumflex" unicode="&#xee;" horiz-adv-x="257" 
d="M105 532h153l-103 -532h-154zM142 762h150l82 -148h-126l-35 81h-2l-60 -81h-140z" />
    <glyph glyph-name="idieresis" unicode="&#xef;" horiz-adv-x="257" 
d="M105 532h153l-103 -532h-154zM249 745h125l-27 -138h-125zM71 745h125l-27 -138h-125z" />
    <glyph glyph-name="eth" unicode="&#xf0;" horiz-adv-x="605" 
d="M176 615l136 42q-22 23 -44 43t-42 37v7h181q12 -10 24 -20.5t24 -22.5l101 32l20 -57l-78 -25q42 -56 69 -128t27 -160q0 -74 -19 -143t-57 -122t-97 -84.5t-138 -31.5q-53 0 -100 16.5t-81.5 48t-54.5 78.5t-20 107q0 67 21.5 123t59 95.5t87 61.5t105.5 22
q76 0 124 -58h1q-11 35 -29.5 67.5t-41.5 62.5l-158 -50zM286 92q32 0 58.5 17t45 46t29 68.5t10.5 83.5q0 61 -28 93t-78 32q-33 0 -59 -16.5t-44 -45t-28 -67t-10 -83.5q0 -61 26.5 -94.5t77.5 -33.5z" />
    <glyph glyph-name="ntilde" unicode="&#xf1;" horiz-adv-x="593" 
d="M103 532h148l-17 -86h3q32 49 76 75.5t101 26.5q41 0 72 -17.5t49.5 -47t25 -69t-2.5 -84.5l-65 -330h-153l62 319q8 45 -8 73t-62 28q-44 0 -76.5 -32.5t-43.5 -86.5l-59 -301h-153zM439 613q-23 0 -41 7t-33.5 15t-28 15t-23.5 7q-13 0 -24 -11.5t-16 -33.5h-82
q8 71 42 106t77 35q23 0 41 -7t32 -15t26 -15t24 -7q31 0 40 42h83q-8 -63 -38 -100.5t-79 -37.5z" />
    <glyph glyph-name="ograve" unicode="&#xf2;" horiz-adv-x="604" 
d="M278 -17q-58 0 -105 18.5t-80 51.5t-50.5 79t-17.5 100q0 66 23 124t63.5 100.5t96.5 67t122 24.5q57 0 103.5 -18.5t80 -51.5t51.5 -78t18 -99q0 -68 -23 -126.5t-63.5 -101t-96.5 -66.5t-122 -24zM283 93q33 0 60 17.5t45.5 46.5t28.5 66.5t10 77.5q0 66 -27 102
t-76 36q-33 0 -59.5 -18t-45 -47t-28.5 -67t-10 -78q0 -65 26 -100.5t76 -35.5zM207 773h172l38 -161h-109z" />
    <glyph glyph-name="oacute" unicode="&#xf3;" horiz-adv-x="604" 
d="M278 -17q-58 0 -105 18.5t-80 51.5t-50.5 79t-17.5 100q0 66 23 124t63.5 100.5t96.5 67t122 24.5q57 0 103.5 -18.5t80 -51.5t51.5 -78t18 -99q0 -68 -23 -126.5t-63.5 -101t-96.5 -66.5t-122 -24zM283 93q33 0 60 17.5t45.5 46.5t28.5 66.5t10 77.5q0 66 -27 102
t-76 36q-33 0 -59.5 -18t-45 -47t-28.5 -67t-10 -78q0 -65 26 -100.5t76 -35.5zM369 773h182l-143 -161h-115z" />
    <glyph glyph-name="ocircumflex" unicode="&#xf4;" horiz-adv-x="604" 
d="M278 -17q-58 0 -105 18.5t-80 51.5t-50.5 79t-17.5 100q0 66 23 124t63.5 100.5t96.5 67t122 24.5q57 0 103.5 -18.5t80 -51.5t51.5 -78t18 -99q0 -68 -23 -126.5t-63.5 -101t-96.5 -66.5t-122 -24zM283 93q33 0 60 17.5t45.5 46.5t28.5 66.5t10 77.5q0 66 -27 102
t-76 36q-33 0 -59.5 -18t-45 -47t-28.5 -67t-10 -78q0 -65 26 -100.5t76 -35.5zM309 762h150l82 -148h-126l-35 81h-2l-60 -81h-140z" />
    <glyph glyph-name="otilde" unicode="&#xf5;" horiz-adv-x="604" 
d="M278 -17q-58 0 -105 18.5t-80 51.5t-50.5 79t-17.5 100q0 66 23 124t63.5 100.5t96.5 67t122 24.5q57 0 103.5 -18.5t80 -51.5t51.5 -78t18 -99q0 -68 -23 -126.5t-63.5 -101t-96.5 -66.5t-122 -24zM283 93q33 0 60 17.5t45.5 46.5t28.5 66.5t10 77.5q0 66 -27 102
t-76 36q-33 0 -59.5 -18t-45 -47t-28.5 -67t-10 -78q0 -65 26 -100.5t76 -35.5zM443 613q-23 0 -41 7t-33.5 15t-28 15t-23.5 7q-13 0 -24 -11.5t-16 -33.5h-82q8 71 42 106t77 35q23 0 41 -7t32 -15t26 -15t24 -7q31 0 40 42h83q-8 -63 -38 -100.5t-79 -37.5z" />
    <glyph glyph-name="odieresis" unicode="&#xf6;" horiz-adv-x="604" 
d="M278 -17q-58 0 -105 18.5t-80 51.5t-50.5 79t-17.5 100q0 66 23 124t63.5 100.5t96.5 67t122 24.5q57 0 103.5 -18.5t80 -51.5t51.5 -78t18 -99q0 -68 -23 -126.5t-63.5 -101t-96.5 -66.5t-122 -24zM283 93q33 0 60 17.5t45.5 46.5t28.5 66.5t10 77.5q0 66 -27 102
t-76 36q-33 0 -59.5 -18t-45 -47t-28.5 -67t-10 -78q0 -65 26 -100.5t76 -35.5zM436 745h145l-27 -138h-145zM198 745h145l-27 -138h-145z" />
    <glyph glyph-name="divide" unicode="&#xf7;" horiz-adv-x="592" 
d="M286 624h163l-29 -147h-162zM87 404h476l-24 -123h-476zM205 207h163l-29 -147h-162z" />
    <glyph glyph-name="oslash" unicode="&#xf8;" horiz-adv-x="604" 
d="M-19 -13l91 89q-48 65 -48 156q0 66 23 124t63.5 100.5t97 67t122.5 24.5q51 0 93 -15t74 -41l85 83l42 -44l-85 -84q21 -30 32.5 -67t11.5 -79q0 -68 -23 -126.5t-63.5 -101t-97 -66.5t-122.5 -24q-49 0 -89.5 13t-72.5 37l-92 -90zM179 229q0 -26 3 -45l222 217
q-26 38 -80 38q-33 0 -60 -18t-46 -47t-29 -67t-10 -78zM283 93q33 0 60 17.5t46 46.5t29.5 66.5t10.5 77.5q0 19 -3 37l-218 -214q26 -31 75 -31z" />
    <glyph glyph-name="ugrave" unicode="&#xf9;" horiz-adv-x="589" 
d="M184 -16q-44 0 -76 16.5t-51 45.5t-24.5 69t3.5 88l63 329h154l-63 -324q-9 -44 6 -69.5t57 -26.5q49 -1 80.5 29.5t42.5 84.5l59 306h154l-104 -532h-148l14 73h-2q-32 -43 -71 -66t-94 -23zM200 773h172l38 -161h-109z" />
    <glyph glyph-name="uacute" unicode="&#xfa;" horiz-adv-x="589" 
d="M184 -16q-44 0 -76 16.5t-51 45.5t-24.5 69t3.5 88l63 329h154l-63 -324q-9 -44 6 -69.5t57 -26.5q49 -1 80.5 29.5t42.5 84.5l59 306h154l-104 -532h-148l14 73h-2q-32 -43 -71 -66t-94 -23zM362 773h182l-143 -161h-115z" />
    <glyph glyph-name="ucircumflex" unicode="&#xfb;" horiz-adv-x="589" 
d="M184 -16q-44 0 -76 16.5t-51 45.5t-24.5 69t3.5 88l63 329h154l-63 -324q-9 -44 6 -69.5t57 -26.5q49 -1 80.5 29.5t42.5 84.5l59 306h154l-104 -532h-148l14 73h-2q-32 -43 -71 -66t-94 -23zM303 762h150l82 -148h-126l-35 81h-2l-60 -81h-140z" />
    <glyph glyph-name="udieresis" unicode="&#xfc;" horiz-adv-x="589" 
d="M184 -16q-44 0 -76 16.5t-51 45.5t-24.5 69t3.5 88l63 329h154l-63 -324q-9 -44 6 -69.5t57 -26.5q49 -1 80.5 29.5t42.5 84.5l59 306h154l-104 -532h-148l14 73h-2q-32 -43 -71 -66t-94 -23zM191 745h145l-27 -138h-145zM429 745h145l-27 -138h-145z" />
    <glyph glyph-name="yacute" unicode="&#xfd;" horiz-adv-x="547" 
d="M79 -178h-17.5t-33.5 0.5t-33.5 1t-16.5 0.5l23 120h5h8t17 -0.5t17 -0.5h10q36 0 56.5 15t28.5 42q3 13 1.5 42t-7.5 65l-79 425h156l27 -199q4 -29 6.5 -62.5t4.5 -62.5q2 -33 2 -66h2q12 31 24 64q11 27 24.5 59t27.5 60l104 207h158l-293 -545q-25 -46 -48.5 -77.5
t-49.5 -51t-56.5 -28t-67.5 -8.5zM345 773h182l-143 -161h-115z" />
    <glyph glyph-name="thorn" unicode="&#xfe;" horiz-adv-x="609" 
d="M333 -18q-66 0 -107.5 27.5t-57.5 69.5h-3q-1 -8 -4.5 -40t-14.5 -86l-25 -130h-153l179 921h153l-32 -163q-6 -32 -13.5 -63t-13.5 -55h3q30 40 70.5 62.5t92.5 22.5q44 0 78.5 -17t58 -47t36 -71.5t12.5 -90.5q0 -74 -19.5 -136.5t-54 -107.5t-82 -70.5t-103.5 -25.5z
M300 102q30 0 55 17t42.5 45.5t27.5 67t10 80.5q0 54 -24 84t-72 30q-33 0 -59 -17t-44.5 -44.5t-28 -63.5t-9.5 -73q0 -53 26 -89.5t76 -36.5z" />
    <glyph glyph-name="ydieresis" unicode="&#xff;" horiz-adv-x="547" 
d="M79 -178h-17.5t-33.5 0.5t-33.5 1t-16.5 0.5l23 120h5h8t17 -0.5t17 -0.5h10q36 0 56.5 15t28.5 42q3 13 1.5 42t-7.5 65l-79 425h156l27 -199q4 -29 6.5 -62.5t4.5 -62.5q2 -33 2 -66h2q12 31 24 64q11 27 24.5 59t27.5 60l104 207h158l-293 -545q-25 -46 -48.5 -77.5
t-49.5 -51t-56.5 -28t-67.5 -8.5zM412 745h145l-27 -138h-145zM174 745h145l-27 -138h-145z" />
    <glyph glyph-name="Amacron" unicode="&#x100;" horiz-adv-x="722" 
d="M367 744h174l119 -744h-173l-18 143h-264l-73 -143h-172zM331 897h305l-21 -108h-304zM267 262h188l-17 137q-4 28 -5.5 64t-2.5 69q-1 38 -1 78h-2q-14 -38 -29 -75q-13 -32 -28.5 -67.5t-29.5 -63.5z" />
    <glyph glyph-name="amacron" unicode="&#x101;" horiz-adv-x="568" 
d="M169 -14q-75 0 -120 40t-45 108q0 49 18 80.5t50 50.5t77 28.5t99 14.5q77 7 108.5 23t31.5 52q0 26 -20 43.5t-59 17.5q-41 0 -67 -19t-34 -54h-144q15 80 79 128t171 48q125 0 178 -59.5t33 -163.5l-40 -206q-10 -50 -7 -74t13 -35l-1 -9h-146q-6 13 -9.5 29t-3.5 36
h-3q-27 -36 -66.5 -57.5t-92.5 -21.5zM209 724h305l-21 -108h-304zM231 81q52 0 82.5 30t38.5 75l15 72q-14 -8 -27.5 -13t-28 -8.5t-30.5 -6t-35 -6.5q-47 -9 -68.5 -27.5t-21.5 -52.5t22.5 -48.5t52.5 -14.5z" />
    <glyph glyph-name="Abreve" unicode="&#x102;" horiz-adv-x="722" 
d="M367 744h174l119 -744h-173l-18 143h-264l-73 -143h-172zM638 921q-17 -69 -59.5 -105.5t-114.5 -36.5q-33 0 -60 9t-46 27t-29.5 44.5t-8.5 61.5h89q2 -22 16.5 -35t45.5 -13q58 0 75 48h92zM267 262h188l-17 137q-4 28 -5.5 64t-2.5 69q-1 38 -1 78h-2q-14 -38 -29 -75
q-13 -32 -28.5 -67.5t-29.5 -63.5z" />
    <glyph glyph-name="abreve" unicode="&#x103;" horiz-adv-x="568" 
d="M169 -14q-75 0 -120 40t-45 108q0 49 18 80.5t50 50.5t77 28.5t99 14.5q77 7 108.5 23t31.5 52q0 26 -20 43.5t-59 17.5q-41 0 -67 -19t-34 -54h-144q15 80 79 128t171 48q125 0 178 -59.5t33 -163.5l-40 -206q-10 -50 -7 -74t13 -35l-1 -9h-146q-6 13 -9.5 29t-3.5 36
h-3q-27 -36 -66.5 -57.5t-92.5 -21.5zM338 606q-69 0 -109.5 41.5t-32.5 113.5h87q-1 -27 14.5 -44t47.5 -17q35 0 54 16t27 45h90q-14 -72 -58.5 -113.5t-119.5 -41.5zM231 81q52 0 82.5 30t38.5 75l15 72q-14 -8 -27.5 -13t-28 -8.5t-30.5 -6t-35 -6.5q-47 -9 -68.5 -27.5
t-21.5 -52.5t22.5 -48.5t52.5 -14.5z" />
    <glyph glyph-name="Aogonek" unicode="&#x104;" horiz-adv-x="722" 
d="M567 -184q-53 0 -82.5 21.5t-29.5 61.5q0 19 7.5 35t18.5 28.5t25 22t28 15.5h-47l-18 143h-264l-73 -143h-172l407 744h174l118 -740q-38 -15 -57.5 -36.5t-19.5 -41.5q0 -14 9 -20t24 -6q9 0 16.5 1t13.5 3h2l-16 -80q-9 -3 -26 -5.5t-38 -2.5zM267 262h188l-17 137
q-4 28 -5.5 64t-2.5 69q-1 38 -1 78h-2q-14 -38 -29 -75q-13 -32 -28.5 -67.5t-29.5 -63.5z" />
    <glyph glyph-name="aogonek" unicode="&#x105;" horiz-adv-x="568" 
d="M399 -184q-50 0 -79 21.5t-29 61.5q0 21 8 37.5t20.5 28.5t27 20.5t28.5 14.5h-31q-6 13 -9.5 29t-3.5 36h-3q-27 -36 -66.5 -57.5t-92.5 -21.5q-75 0 -120 40t-45 108q0 49 18 80.5t50 50.5t77 28.5t99 14.5q77 7 108.5 23t31.5 52q0 26 -20 43.5t-59 17.5
q-41 0 -67 -19t-34 -54h-144q15 80 79 128t171 48q125 0 178 -59.5t33 -163.5l-40 -206q-10 -50 -7 -74t13 -35l-1 -9q-36 -14 -56 -34.5t-20 -39.5q0 -14 9 -20t24 -6q9 0 16.5 1t13.5 3h2l-16 -80q-9 -3 -26 -5.5t-38 -2.5zM231 81q52 0 82.5 30t38.5 75l15 72
q-14 -8 -27.5 -13t-28 -8.5t-30.5 -6t-35 -6.5q-47 -9 -68.5 -27.5t-21.5 -52.5t22.5 -48.5t52.5 -14.5z" />
    <glyph glyph-name="Cacute" unicode="&#x106;" horiz-adv-x="735" 
d="M375 -17q-74 0 -133.5 22.5t-102.5 65.5t-66 104t-23 138q0 93 29.5 174t82 141t126 94.5t162.5 34.5q70 0 122.5 -18.5t89.5 -50.5q44 -38 63 -88.5t21 -106.5h-166q-3 26 -12 49t-26 40t-42 27t-60 10q-53 0 -94 -26.5t-68.5 -69.5t-41.5 -97t-14 -109q0 -91 38.5 -144
t119.5 -53q63 0 107.5 38t57.5 102h170q-16 -71 -44.5 -120.5t-73.5 -85.5q-42 -35 -96.5 -53t-125.5 -18zM452 916h182l-128 -131h-115z" />
    <glyph glyph-name="cacute" unicode="&#x107;" horiz-adv-x="567" 
d="M272 -18q-56 0 -101.5 16.5t-78 47.5t-50.5 75t-18 100q0 70 21.5 129.5t61 103t94.5 68.5t122 25q54 0 95.5 -15t70.5 -41.5t45.5 -62.5t19.5 -78h-149q-5 37 -25 60t-61 23q-34 0 -60 -18t-44 -48.5t-27 -70t-9 -82.5q0 -57 24.5 -87t69.5 -30q84 0 113 101h153
q-23 -109 -93 -162.5t-174 -53.5zM347 773h182l-143 -161h-115z" />
    <glyph glyph-name="Ccircumflex" unicode="&#x108;" horiz-adv-x="735" 
d="M375 -17q-74 0 -133.5 22.5t-102.5 65.5t-66 104t-23 138q0 93 29.5 174t82 141t126 94.5t162.5 34.5q70 0 122.5 -18.5t89.5 -50.5q44 -38 63 -88.5t21 -106.5h-166q-3 26 -12 49t-26 40t-42 27t-60 10q-53 0 -94 -26.5t-68.5 -69.5t-41.5 -97t-14 -109q0 -91 38.5 -144
t119.5 -53q63 0 107.5 38t57.5 102h170q-16 -71 -44.5 -120.5t-73.5 -85.5q-42 -35 -96.5 -53t-125.5 -18zM408 916h150l84 -131h-126l-37 64h-2l-58 -64h-140z" />
    <glyph glyph-name="ccircumflex" unicode="&#x109;" horiz-adv-x="567" 
d="M272 -18q-56 0 -101.5 16.5t-78 47.5t-50.5 75t-18 100q0 70 21.5 129.5t61 103t94.5 68.5t122 25q54 0 95.5 -15t70.5 -41.5t45.5 -62.5t19.5 -78h-149q-5 37 -25 60t-61 23q-34 0 -60 -18t-44 -48.5t-27 -70t-9 -82.5q0 -57 24.5 -87t69.5 -30q84 0 113 101h153
q-23 -109 -93 -162.5t-174 -53.5zM287 762h150l82 -148h-126l-35 81h-2l-60 -81h-140z" />
    <glyph glyph-name="Cdotaccent" unicode="&#x10a;" horiz-adv-x="735" 
d="M375 -17q-74 0 -133.5 22.5t-102.5 65.5t-66 104t-23 138q0 93 29.5 174t82 141t126 94.5t162.5 34.5q70 0 122.5 -18.5t89.5 -50.5q44 -38 63 -88.5t21 -106.5h-166q-3 26 -12 49t-26 40t-42 27t-60 10q-53 0 -94 -26.5t-68.5 -69.5t-41.5 -97t-14 -109q0 -91 38.5 -144
t119.5 -53q63 0 107.5 38t57.5 102h170q-16 -71 -44.5 -120.5t-73.5 -85.5q-42 -35 -96.5 -53t-125.5 -18zM412 920h157l-26 -135h-157z" />
    <glyph glyph-name="cdotaccent" unicode="&#x10b;" horiz-adv-x="567" 
d="M272 -18q-56 0 -101.5 16.5t-78 47.5t-50.5 75t-18 100q0 70 21.5 129.5t61 103t94.5 68.5t122 25q54 0 95.5 -15t70.5 -41.5t45.5 -62.5t19.5 -78h-149q-5 37 -25 60t-61 23q-34 0 -60 -18t-44 -48.5t-27 -70t-9 -82.5q0 -57 24.5 -87t69.5 -30q84 0 113 101h153
q-23 -109 -93 -162.5t-174 -53.5zM290 744h156l-27 -137h-156z" />
    <glyph glyph-name="Ccaron" unicode="&#x10c;" horiz-adv-x="735" 
d="M375 -17q-74 0 -133.5 22.5t-102.5 65.5t-66 104t-23 138q0 93 29.5 174t82 141t126 94.5t162.5 34.5q70 0 122.5 -18.5t89.5 -50.5q44 -38 63 -88.5t21 -106.5h-166q-3 26 -12 49t-26 40t-42 27t-60 10q-53 0 -94 -26.5t-68.5 -69.5t-41.5 -97t-14 -109q0 -91 38.5 -144
t119.5 -53q63 0 107.5 38t57.5 102h170q-16 -71 -44.5 -120.5t-73.5 -85.5q-42 -35 -96.5 -53t-125.5 -18zM541 785h-150l-84 131h126l37 -64h2l58 64h140z" />
    <glyph glyph-name="ccaron" unicode="&#x10d;" horiz-adv-x="567" 
d="M272 -18q-56 0 -101.5 16.5t-78 47.5t-50.5 75t-18 100q0 70 21.5 129.5t61 103t94.5 68.5t122 25q54 0 95.5 -15t70.5 -41.5t45.5 -62.5t19.5 -78h-149q-5 37 -25 60t-61 23q-34 0 -60 -18t-44 -48.5t-27 -70t-9 -82.5q0 -57 24.5 -87t69.5 -30q84 0 113 101h153
q-23 -109 -93 -162.5t-174 -53.5zM186 760h126l39 -81h2l56 81h140l-131 -148h-150z" />
    <glyph glyph-name="Dcaron" unicode="&#x10e;" horiz-adv-x="734" 
d="M159 744h275q73 0 128.5 -23t93.5 -63t57.5 -95t19.5 -119q0 -100 -27 -182t-78.5 -140t-126.5 -90t-172 -32h-315zM332 139q56 0 99 21t72.5 59.5t44.5 93.5t15 123q0 77 -36.5 123.5t-118.5 46.5h-108l-92 -467h124zM493 785h-150l-84 131h126l37 -64h2l58 64h140z" />
    <glyph glyph-name="dcaron" unicode="&#x10f;" horiz-adv-x="611" 
d="M215 -18q-44 1 -80 17.5t-61.5 47.5t-39 75.5t-11.5 101.5q2 78 24 138.5t58 101.5t83 62.5t98 20.5q63 0 101 -26t59 -69h2l5 40t15 87l33 165h153l-145 -744h-147l13 69h-2q-27 -41 -66 -64t-92 -23zM272 103q32 0 57.5 15t44 41t29 60.5t12.5 73.5q2 59 -22 96t-76 38
q-30 1 -54.5 -13.5t-42.5 -40t-28.5 -61.5t-11.5 -79q-2 -59 20.5 -94t71.5 -36zM664 599q32 5 47.5 16.5t19.5 32.5h-58l19 96h129l-15 -81q-11 -57 -48.5 -84t-103.5 -29z" />
    <glyph glyph-name="Dcroat" unicode="&#x110;" horiz-adv-x="735" 
d="M45 443h56l59 301h276q72 0 128 -23t94 -63t57.5 -95t19.5 -119q0 -100 -27 -182t-79 -140t-127 -90t-172 -32h-315l61 313h-56zM333 139q57 0 100 21t72.5 59.5t44.5 93.5t15 123q0 77 -36.5 123.5t-118.5 46.5h-109l-32 -163h169l-25 -130h-169l-34 -174h123z" />
    <glyph glyph-name="dcroat" unicode="&#x111;" horiz-adv-x="611" 
d="M354 675h133l14 69h153l-14 -69h58l-15 -77h-58l-116 -598h-147l13 69h-2q-27 -41 -66 -64t-92 -23q-44 1 -80 17.5t-61.5 47.5t-39 75.5t-11.5 101.5q2 78 24 138.5t58 101.5t83 62.5t98 20.5q63 0 101 -26t59 -69h2l5 40t15 87l4 19h-133zM272 103q32 0 57.5 15t44 41
t29 60.5t12.5 73.5q2 59 -22 96t-76 38q-30 1 -54.5 -13.5t-42.5 -40t-28.5 -61.5t-11.5 -79q-2 -59 20.5 -94t71.5 -36z" />
    <glyph glyph-name="Emacron" unicode="&#x112;" horiz-adv-x="658" 
d="M157 744h548l-27 -138h-381l-30 -153h330l-26 -132h-330l-34 -178h387l-28 -143h-554zM309 897h305l-21 -108h-304z" />
    <glyph glyph-name="emacron" unicode="&#x113;" horiz-adv-x="584" 
d="M277 -16q-62 0 -109 18.5t-79 51t-48 76.5t-16 95q0 68 22 127t61.5 102.5t94 68.5t119.5 25q60 0 105 -19.5t74.5 -53.5t44 -80t14.5 -100q0 -17 -1.5 -34t-3.5 -34h-384v-2q0 -62 28.5 -96.5t85.5 -34.5q32 0 57 14.5t39 41.5h154q-32 -79 -98.5 -122.5t-159.5 -43.5z
M208 724h305l-21 -108h-304zM319 439q-27 0 -48.5 -9.5t-38.5 -26t-29.5 -39.5t-19.5 -49h228q7 57 -17.5 90.5t-74.5 33.5z" />
    <glyph glyph-name="Ebreve" unicode="&#x114;" horiz-adv-x="658" 
d="M157 744h548l-27 -138h-381l-30 -153h330l-26 -132h-330l-34 -178h387l-28 -143h-554zM616 921q-17 -69 -59.5 -105.5t-114.5 -36.5q-33 0 -60 9t-46 27t-29.5 44.5t-8.5 61.5h89q2 -22 16.5 -35t45.5 -13q58 0 75 48h92z" />
    <glyph glyph-name="ebreve" unicode="&#x115;" horiz-adv-x="584" 
d="M277 -16q-62 0 -109 18.5t-79 51t-48 76.5t-16 95q0 68 22 127t61.5 102.5t94 68.5t119.5 25q60 0 105 -19.5t74.5 -53.5t44 -80t14.5 -100q0 -17 -1.5 -34t-3.5 -34h-384v-2q0 -62 28.5 -96.5t85.5 -34.5q32 0 57 14.5t39 41.5h154q-32 -79 -98.5 -122.5t-159.5 -43.5z
M337 606q-69 0 -109.5 41.5t-32.5 113.5h87q-1 -27 14.5 -44t47.5 -17q35 0 54 16t27 45h90q-14 -72 -58.5 -113.5t-119.5 -41.5zM319 439q-27 0 -48.5 -9.5t-38.5 -26t-29.5 -39.5t-19.5 -49h228q7 57 -17.5 90.5t-74.5 33.5z" />
    <glyph glyph-name="Edotaccent" unicode="&#x116;" horiz-adv-x="658" 
d="M157 744h548l-27 -138h-381l-30 -153h330l-26 -132h-330l-34 -178h387l-28 -143h-554zM387 920h157l-26 -135h-157z" />
    <glyph glyph-name="edotaccent" unicode="&#x117;" horiz-adv-x="584" 
d="M277 -16q-62 0 -109 18.5t-79 51t-48 76.5t-16 95q0 68 22 127t61.5 102.5t94 68.5t119.5 25q60 0 105 -19.5t74.5 -53.5t44 -80t14.5 -100q0 -17 -1.5 -34t-3.5 -34h-384v-2q0 -62 28.5 -96.5t85.5 -34.5q32 0 57 14.5t39 41.5h154q-32 -79 -98.5 -122.5t-159.5 -43.5z
M319 439q-27 0 -48.5 -9.5t-38.5 -26t-29.5 -39.5t-19.5 -49h228q7 57 -17.5 90.5t-74.5 33.5zM287 744h156l-27 -137h-156z" />
    <glyph glyph-name="Eogonek" unicode="&#x118;" horiz-adv-x="658" 
d="M157 744h548l-27 -138h-381l-30 -153h330l-26 -132h-330l-34 -178h387l-28 -143h-55q-29 -18 -46 -36.5t-17 -37.5q0 -14 9 -20t24 -6q9 0 16.5 1t13.5 3h2l-16 -80q-9 -3 -26 -5.5t-38 -2.5q-53 0 -82.5 21.5t-29.5 61.5q0 38 23.5 62.5t52.5 38.5h-385z" />
    <glyph glyph-name="eogonek" unicode="&#x119;" horiz-adv-x="584" 
d="M310 -184q-50 0 -79 21.5t-29 61.5q0 31 17.5 51.5t39.5 34.5q-58 3 -101.5 22.5t-73 51.5t-44.5 74.5t-15 91.5q0 68 22 127t61.5 102.5t94 68.5t119.5 25q60 0 105 -19.5t74.5 -53.5t44 -80t14.5 -100q0 -17 -1.5 -34t-3.5 -34h-384v-2q0 -62 28.5 -96.5t85.5 -34.5
q32 0 57 14.5t39 41.5h154q-15 -37 -38.5 -67t-56.5 -53q-17 -12 -37 -23t-37.5 -23t-29 -26t-11.5 -32q0 -14 9 -20t24 -6q9 0 16.5 1t13.5 3h2l-16 -80q-9 -3 -26 -5.5t-38 -2.5zM319 439q-27 0 -48.5 -9.5t-38.5 -26t-29.5 -39.5t-19.5 -49h228q7 57 -17.5 90.5
t-74.5 33.5z" />
    <glyph glyph-name="Ecaron" unicode="&#x11a;" horiz-adv-x="658" 
d="M157 744h548l-27 -138h-381l-30 -153h330l-26 -132h-330l-34 -178h387l-28 -143h-554zM517 785h-150l-84 131h126l37 -64h2l58 64h140z" />
    <glyph glyph-name="ecaron" unicode="&#x11b;" horiz-adv-x="584" 
d="M277 -16q-62 0 -109 18.5t-79 51t-48 76.5t-16 95q0 68 22 127t61.5 102.5t94 68.5t119.5 25q60 0 105 -19.5t74.5 -53.5t44 -80t14.5 -100q0 -17 -1.5 -34t-3.5 -34h-384v-2q0 -62 28.5 -96.5t85.5 -34.5q32 0 57 14.5t39 41.5h154q-32 -79 -98.5 -122.5t-159.5 -43.5z
M183 760h126l39 -81h2l56 81h140l-131 -148h-150zM319 439q-27 0 -48.5 -9.5t-38.5 -26t-29.5 -39.5t-19.5 -49h228q7 57 -17.5 90.5t-74.5 33.5z" />
    <glyph glyph-name="Gcircumflex" unicode="&#x11c;" horiz-adv-x="768" 
d="M340 -16q-84 0 -141 28.5t-94 81.5q-30 41 -44.5 94.5t-14.5 111.5q0 61 13 118.5t37.5 107.5t59.5 92t79 72q49 35 105.5 51t121.5 16q66 0 117 -17.5t87.5 -49t57.5 -76.5t27 -99h-168q-6 45 -37.5 75t-95.5 30q-59 0 -102.5 -28.5t-72.5 -73.5t-43.5 -100.5
t-14.5 -109.5q0 -91 39 -140.5t117 -49.5q38 0 71 12t58.5 33t42.5 48.5t22 58.5l1 4h-150l25 124h305l-78 -398h-115l5 99h-3q-35 -54 -92 -84.5t-125 -30.5zM416 916h150l84 -131h-126l-37 64h-2l-58 -64h-140z" />
    <glyph glyph-name="gcircumflex" unicode="&#x11d;" horiz-adv-x="602" 
d="M236 -185q-109 0 -174 44t-72 122h150q8 -24 29.5 -41.5t68.5 -17.5q53 0 80 27.5t37 74.5l3 15q3 17 7.5 35.5t9.5 32.5h-3q-27 -35 -61 -54.5t-78 -19.5q-42 0 -78.5 15t-62.5 43t-41 68t-15 89q0 66 19.5 121t53 95t79.5 62t99 22q57 0 95.5 -24.5t55.5 -71.5h2l16 80
h147l-98 -505q-12 -59 -35.5 -99.5t-58 -65.5t-78.5 -36t-97 -11zM284 145q33 0 58 15t42 39.5t25.5 55.5t8.5 62q0 51 -25.5 82t-76.5 31q-29 0 -52.5 -13.5t-40.5 -37t-26.5 -54.5t-9.5 -66q0 -52 25.5 -83t71.5 -31zM299 762h150l82 -148h-126l-35 81h-2l-60 -81h-140z
" />
    <glyph glyph-name="Gbreve" unicode="&#x11e;" horiz-adv-x="768" 
d="M340 -16q-84 0 -141 28.5t-94 81.5q-30 41 -44.5 94.5t-14.5 111.5q0 61 13 118.5t37.5 107.5t59.5 92t79 72q49 35 105.5 51t121.5 16q66 0 117 -17.5t87.5 -49t57.5 -76.5t27 -99h-168q-6 45 -37.5 75t-95.5 30q-59 0 -102.5 -28.5t-72.5 -73.5t-43.5 -100.5
t-14.5 -109.5q0 -91 39 -140.5t117 -49.5q38 0 71 12t58.5 33t42.5 48.5t22 58.5l1 4h-150l25 124h305l-78 -398h-115l5 99h-3q-35 -54 -92 -84.5t-125 -30.5zM648 921q-17 -69 -59.5 -105.5t-114.5 -36.5q-33 0 -60 9t-46 27t-29.5 44.5t-8.5 61.5h89q2 -22 16.5 -35
t45.5 -13q58 0 75 48h92z" />
    <glyph glyph-name="gbreve" unicode="&#x11f;" horiz-adv-x="602" 
d="M236 -185q-109 0 -174 44t-72 122h150q8 -24 29.5 -41.5t68.5 -17.5q53 0 80 27.5t37 74.5l3 15q3 17 7.5 35.5t9.5 32.5h-3q-27 -35 -61 -54.5t-78 -19.5q-42 0 -78.5 15t-62.5 43t-41 68t-15 89q0 66 19.5 121t53 95t79.5 62t99 22q57 0 95.5 -24.5t55.5 -71.5h2l16 80
h147l-98 -505q-12 -59 -35.5 -99.5t-58 -65.5t-78.5 -36t-97 -11zM284 145q33 0 58 15t42 39.5t25.5 55.5t8.5 62q0 51 -25.5 82t-76.5 31q-29 0 -52.5 -13.5t-40.5 -37t-26.5 -54.5t-9.5 -66q0 -52 25.5 -83t71.5 -31zM352 606q-69 0 -109.5 41.5t-32.5 113.5h87
q-1 -27 14.5 -44t47.5 -17q35 0 54 16t27 45h90q-14 -72 -58.5 -113.5t-119.5 -41.5z" />
    <glyph glyph-name="Gdotaccent" unicode="&#x120;" horiz-adv-x="768" 
d="M340 -16q-84 0 -141 28.5t-94 81.5q-30 41 -44.5 94.5t-14.5 111.5q0 61 13 118.5t37.5 107.5t59.5 92t79 72q49 35 105.5 51t121.5 16q66 0 117 -17.5t87.5 -49t57.5 -76.5t27 -99h-168q-6 45 -37.5 75t-95.5 30q-59 0 -102.5 -28.5t-72.5 -73.5t-43.5 -100.5
t-14.5 -109.5q0 -91 39 -140.5t117 -49.5q38 0 71 12t58.5 33t42.5 48.5t22 58.5l1 4h-150l25 124h305l-78 -398h-115l5 99h-3q-35 -54 -92 -84.5t-125 -30.5zM420 920h157l-26 -135h-157z" />
    <glyph glyph-name="gdotaccent" unicode="&#x121;" horiz-adv-x="602" 
d="M236 -185q-109 0 -174 44t-72 122h150q8 -24 29.5 -41.5t68.5 -17.5q53 0 80 27.5t37 74.5l3 15q3 17 7.5 35.5t9.5 32.5h-3q-27 -35 -61 -54.5t-78 -19.5q-42 0 -78.5 15t-62.5 43t-41 68t-15 89q0 66 19.5 121t53 95t79.5 62t99 22q57 0 95.5 -24.5t55.5 -71.5h2l16 80
h147l-98 -505q-12 -59 -35.5 -99.5t-58 -65.5t-78.5 -36t-97 -11zM284 145q33 0 58 15t42 39.5t25.5 55.5t8.5 62q0 51 -25.5 82t-76.5 31q-29 0 -52.5 -13.5t-40.5 -37t-26.5 -54.5t-9.5 -66q0 -52 25.5 -83t71.5 -31zM301 744h156l-27 -137h-156z" />
    <glyph glyph-name="uni0122" unicode="&#x122;" horiz-adv-x="768" 
d="M340 -16q-84 0 -141 28.5t-94 81.5q-30 41 -44.5 94.5t-14.5 111.5q0 61 13 118.5t37.5 107.5t59.5 92t79 72q49 35 105.5 51t121.5 16q66 0 117 -17.5t87.5 -49t57.5 -76.5t27 -99h-168q-6 45 -37.5 75t-95.5 30q-59 0 -102.5 -28.5t-72.5 -73.5t-43.5 -100.5
t-14.5 -109.5q0 -91 39 -140.5t117 -49.5q38 0 71 12t58.5 33t42.5 48.5t22 58.5l1 4h-150l25 124h305l-78 -398h-115l5 99h-3q-35 -54 -92 -84.5t-125 -30.5zM237 -210q72 9 81 56h-66l20 103h149l-16 -81q-14 -69 -62 -99t-117 -32z" />
    <glyph glyph-name="uni0123" unicode="&#x123;" horiz-adv-x="602" 
d="M236 -185q-109 0 -174 44t-72 122h150q8 -24 29.5 -41.5t68.5 -17.5q53 0 80 27.5t37 74.5l3 15q3 17 7.5 35.5t9.5 32.5h-3q-27 -35 -61 -54.5t-78 -19.5q-42 0 -78.5 15t-62.5 43t-41 68t-15 89q0 66 19.5 121t53 95t79.5 62t99 22q57 0 95.5 -24.5t55.5 -71.5h2l16 80
h147l-98 -505q-12 -59 -35.5 -99.5t-58 -65.5t-78.5 -36t-97 -11zM284 145q33 0 58 15t42 39.5t25.5 55.5t8.5 62q0 51 -25.5 82t-76.5 31q-29 0 -52.5 -13.5t-40.5 -37t-26.5 -54.5t-9.5 -66q0 -52 25.5 -83t71.5 -31zM459 766q-72 -9 -81 -56h66l-20 -103h-149l16 81
q14 69 62 99t117 32z" />
    <glyph glyph-name="Hcircumflex" unicode="&#x124;" horiz-adv-x="733" 
d="M156 744h167l-56 -288h275l56 288h167l-145 -744h-167l62 317h-275l-62 -317h-167zM413 916h150l84 -131h-126l-37 64h-2l-58 -64h-140z" />
    <glyph glyph-name="hcircumflex" unicode="&#x125;" horiz-adv-x="593" 
d="M145 744h153l-38 -198q-2 -12 -7.5 -38.5t-10.5 -51.5h2q31 43 72 67.5t98 24.5q41 0 72 -17.5t49.5 -47t25 -69t-2.5 -84.5l-65 -330h-153l62 319q8 45 -8 73t-62 28q-44 0 -76.5 -32.5t-43.5 -86.5l-59 -301h-153zM341 916h150l84 -131h-126l-37 64h-2l-58 -64h-140z
" />
    <glyph glyph-name="Hbar" unicode="&#x126;" horiz-adv-x="733" 
d="M74 628h59l23 116h167l-23 -116h275l23 116h167l-23 -116h60l-18 -88h-59l-105 -540h-167l62 317h-276l-61 -317h-167l105 540h-60zM266 456h276l16 84h-275z" />
    <glyph glyph-name="hbar" unicode="&#x127;" horiz-adv-x="593" 
d="M74 675h57l14 69h153l-13 -69h133l-15 -77h-133l-10 -52q-1 -6 -3 -16l-4.5 -22.5t-5.5 -26t-5 -25.5h2q31 43 72 67.5t98 24.5q41 0 72 -17.5t49.5 -47t25 -69t-2.5 -84.5l-65 -330h-153l62 319q8 45 -8 73t-62 28q-44 0 -76.5 -32.5t-43.5 -86.5l-59 -301h-153l116 598
h-57z" />
    <glyph glyph-name="Itilde" unicode="&#x128;" horiz-adv-x="292" 
d="M157 744h168l-145 -744h-168zM328 786q-23 0 -41 7t-33.5 15t-28 15t-23.5 7q-13 0 -24 -11.5t-16 -33.5h-82q8 71 42 106t77 35q23 0 41 -7t32 -15t26 -15t24 -7q31 0 40 42h83q-8 -63 -38 -100.5t-79 -37.5z" />
    <glyph glyph-name="itilde" unicode="&#x129;" horiz-adv-x="257" 
d="M105 532h153l-103 -532h-154zM276 613q-23 0 -41 7t-33.5 15t-28 15t-23.5 7q-13 0 -24 -11.5t-16 -33.5h-82q8 71 42 106t77 35q23 0 41 -7t32 -15t26 -15t24 -7q31 0 40 42h83q-8 -63 -38 -100.5t-79 -37.5z" />
    <glyph glyph-name="Imacron" unicode="&#x12a;" horiz-adv-x="292" 
d="M157 744h168l-145 -744h-168zM130 897h281l-21 -108h-280z" />
    <glyph glyph-name="imacron" unicode="&#x12b;" horiz-adv-x="257" 
d="M105 532h153l-103 -532h-154zM96 724h245l-21 -108h-244z" />
    <glyph glyph-name="Ibreve" unicode="&#x12c;" horiz-adv-x="292" 
d="M157 744h168l-145 -744h-168zM425 921q-17 -69 -59.5 -105.5t-114.5 -36.5q-33 0 -60 9t-46 27t-29.5 44.5t-8.5 61.5h89q2 -22 16.5 -35t45.5 -13q58 0 75 48h92z" />
    <glyph glyph-name="ibreve" unicode="&#x12d;" horiz-adv-x="257" 
d="M105 532h153l-103 -532h-154zM195 606q-69 0 -109.5 41.5t-32.5 113.5h87q-1 -27 14.5 -44t47.5 -17q35 0 54 16t27 45h90q-14 -72 -58.5 -113.5t-119.5 -41.5z" />
    <glyph glyph-name="Iogonek" unicode="&#x12e;" horiz-adv-x="292" 
d="M157 744h168l-145 -742q-37 -14 -56.5 -35.5t-19.5 -40.5q0 -14 9 -20t24 -6q9 0 16.5 1t13.5 3h2l-16 -80q-9 -3 -26 -5.5t-38 -2.5q-53 0 -82.5 21.5t-29.5 61.5q0 39 24 62.5t53 38.5h-42z" />
    <glyph glyph-name="iogonek" unicode="&#x12f;" horiz-adv-x="257" 
d="M105 532h154l-104 -531q-35 -14 -54 -35t-19 -40q0 -14 9 -20t24 -6q9 0 16.5 1t13.5 3h2l-16 -80q-9 -3 -26 -5.5t-38 -2.5q-49 0 -78.5 21.5t-29.5 61.5q0 21 8 37.5t20.5 28.5t27 20.5t28.5 14.5h-41zM146 744h156l-27 -137h-156z" />
    <glyph glyph-name="Idotaccent" unicode="&#x130;" horiz-adv-x="292" 
d="M157 744h168l-145 -744h-168zM196 920h157l-26 -135h-157z" />
    <glyph glyph-name="dotlessi" unicode="&#x131;" horiz-adv-x="257" 
d="M105 532h153l-103 -532h-154z" />
    <glyph glyph-name="IJ" unicode="&#x132;" horiz-adv-x="868" 
d="M157 744h168l-145 -744h-168zM541 -14q-63 0 -110 16t-76.5 48t-39.5 79.5t2 110.5l8 42h153l-8 -48q-11 -59 8 -84.5t63 -25.5q39 0 62 26t31 68l103 526h167l-106 -544q-18 -90 -72 -147q-31 -32 -78.5 -49.5t-106.5 -17.5z" />
    <glyph glyph-name="ij" unicode="&#x133;" horiz-adv-x="514" 
d="M227 -181q-23 0 -46 3t-40 8l19 106h5q8 -1 15 -1.5t14 -0.5q28 1 42 11.5t20 40.5l106 546h154l-108 -558q-9 -45 -25.5 -75t-40 -48t-52.5 -25t-63 -7zM105 532h154l-104 -532h-153zM403 744h156l-27 -137h-156zM146 744h156l-27 -137h-156z" />
    <glyph glyph-name="Jcircumflex" unicode="&#x134;" horiz-adv-x="568" 
d="M241 -14q-63 0 -110 16t-76.5 48t-39.5 79.5t2 110.5l8 42h153l-8 -48q-11 -59 8 -84.5t63 -25.5q39 0 62 26t31 68l103 526h167l-106 -544q-18 -90 -72 -147q-31 -32 -78.5 -49.5t-106.5 -17.5zM468 916h150l84 -131h-126l-37 64h-2l-58 -64h-140z" />
    <glyph glyph-name="jcircumflex" unicode="&#x135;" horiz-adv-x="257" 
d="M-30 -181q-23 0 -46 3t-40 8l19 106h5q8 -1 15 -1.5t14 -0.5q28 1 42 11.5t20 40.5l106 546h154l-108 -558q-9 -45 -25.5 -75t-40 -48t-52.5 -25t-63 -7zM138 762h150l82 -148h-126l-35 81h-2l-60 -81h-140z" />
    <glyph glyph-name="uni0136" unicode="&#x136;" horiz-adv-x="708" 
d="M314 336l-85 -75l-50 -261h-167l145 744h167l-24 -122q-11 -51 -22 -98.5t-19 -77.5l330 298h201l-346 -308l219 -436h-182zM207 -210q72 9 81 56h-66l20 103h149l-16 -81q-14 -69 -62 -99t-117 -32z" />
    <glyph glyph-name="uni0137" unicode="&#x137;" horiz-adv-x="574" 
d="M145 744h152l-45 -228q-12 -60 -22 -103.5t-17 -69.5l205 189h183l-233 -205l150 -327h-168l-100 233l-64 -55l-34 -178h-152zM127 -210q72 9 81 56h-66l20 103h149l-16 -81q-14 -69 -62 -99t-117 -32z" />
    <glyph glyph-name="kgreenlandic" unicode="&#x138;" horiz-adv-x="574" 
d="M104 532h151l-3 -16q-12 -60 -22 -103.5t-17 -69.5l205 189h183l-233 -205l150 -327h-168l-100 233l-64 -55l-34 -178h-152z" />
    <glyph glyph-name="Lacute" unicode="&#x139;" horiz-adv-x="593" 
d="M157 744h167l-117 -601h335l-28 -143h-502zM238 916h182l-128 -131h-115z" />
    <glyph glyph-name="lacute" unicode="&#x13a;" horiz-adv-x="260" 
d="M148 744h154l-145 -744h-154zM223 916h182l-128 -131h-115z" />
    <glyph glyph-name="uni013B" unicode="&#x13b;" horiz-adv-x="593" 
d="M157 744h167l-117 -601h335l-28 -143h-502zM150 -210q72 9 81 56h-66l20 103h149l-16 -81q-14 -69 -62 -99t-117 -32z" />
    <glyph glyph-name="uni013C" unicode="&#x13c;" horiz-adv-x="260" 
d="M148 744h154l-145 -744h-154zM-35 -210q72 9 81 56h-66l20 103h149l-16 -81q-14 -69 -62 -99t-117 -32z" />
    <glyph glyph-name="Lcaron" unicode="&#x13d;" horiz-adv-x="593" 
d="M157 744h167l-117 -601h335l-28 -143h-502zM414 566q36 5 55.5 18.5t23.5 41.5h-68l23 118h147l-19 -100q-12 -66 -55.5 -97.5t-118.5 -33.5z" />
    <glyph glyph-name="lcaron" unicode="&#x13e;" horiz-adv-x="260" 
d="M148 744h154l-145 -744h-154zM313 599q32 5 47.5 16.5t19.5 32.5h-58l19 96h129l-15 -81q-11 -57 -48.5 -84t-103.5 -29z" />
    <glyph glyph-name="Ldot" unicode="&#x13f;" horiz-adv-x="593" 
d="M157 744h167l-117 -601h335l-28 -143h-502zM414 432h139l-27 -140h-139z" />
    <glyph glyph-name="ldot" unicode="&#x140;" horiz-adv-x="401" 
d="M148 744h154l-145 -744h-154zM294 432h139l-27 -140h-139z" />
    <glyph glyph-name="Lslash" unicode="&#x141;" horiz-adv-x="599" 
d="M16 319l70 31l77 394h167l-61 -313l226 101l-23 -113l-225 -100l-34 -176h335l-28 -143h-502l46 237l-70 -31z" />
    <glyph glyph-name="lslash" unicode="&#x142;" horiz-adv-x="309" 
d="M21 326l77 47l73 371h155l-52 -263l83 50l-23 -113l-82 -50l-71 -368h-155l50 260l-76 -47z" />
    <glyph glyph-name="Nacute" unicode="&#x143;" horiz-adv-x="739" 
d="M157 744h171l127 -334q11 -29 22 -64.5t20 -66.5q11 -36 21 -73h2q5 41 10 81q5 35 10 74.5t12 71.5l61 311h159l-145 -744h-171l-126 330q-11 29 -23 65t-21 68q-11 37 -21 74h-2q-4 -42 -9 -82q-5 -35 -10.5 -74.5t-11.5 -71.5l-60 -309h-160zM462 916h182l-128 -131
h-115z" />
    <glyph glyph-name="nacute" unicode="&#x144;" horiz-adv-x="593" 
d="M103 532h148l-17 -86h3q32 49 76 75.5t101 26.5q41 0 72 -17.5t49.5 -47t25 -69t-2.5 -84.5l-65 -330h-153l62 319q8 45 -8 73t-62 28q-44 0 -76.5 -32.5t-43.5 -86.5l-59 -301h-153zM365 773h182l-143 -161h-115z" />
    <glyph glyph-name="uni0145" unicode="&#x145;" horiz-adv-x="739" 
d="M157 744h171l127 -334q11 -29 22 -64.5t20 -66.5q11 -36 21 -73h2q5 41 10 81q5 35 10 74.5t12 71.5l61 311h159l-145 -744h-171l-126 330q-11 29 -23 65t-21 68q-11 37 -21 74h-2q-4 -42 -9 -82q-5 -35 -10.5 -74.5t-11.5 -71.5l-60 -309h-160zM204 -210q72 9 81 56h-66
l20 103h149l-16 -81q-14 -69 -62 -99t-117 -32z" />
    <glyph glyph-name="uni0146" unicode="&#x146;" horiz-adv-x="593" 
d="M103 532h148l-17 -86h3q32 49 76 75.5t101 26.5q41 0 72 -17.5t49.5 -47t25 -69t-2.5 -84.5l-65 -330h-153l62 319q8 45 -8 73t-62 28q-44 0 -76.5 -32.5t-43.5 -86.5l-59 -301h-153zM124 -210q72 9 81 56h-66l20 103h149l-16 -81q-14 -69 -62 -99t-117 -32z" />
    <glyph glyph-name="Ncaron" unicode="&#x147;" horiz-adv-x="739" 
d="M157 744h171l127 -334q11 -29 22 -64.5t20 -66.5q11 -36 21 -73h2q5 41 10 81q5 35 10 74.5t12 71.5l61 311h159l-145 -744h-171l-126 330q-11 29 -23 65t-21 68q-11 37 -21 74h-2q-4 -42 -9 -82q-5 -35 -10.5 -74.5t-11.5 -71.5l-60 -309h-160zM551 785h-150l-84 131
h126l37 -64h2l58 64h140z" />
    <glyph glyph-name="ncaron" unicode="&#x148;" horiz-adv-x="593" 
d="M103 532h148l-17 -86h3q32 49 76 75.5t101 26.5q41 0 72 -17.5t49.5 -47t25 -69t-2.5 -84.5l-65 -330h-153l62 319q8 45 -8 73t-62 28q-44 0 -76.5 -32.5t-43.5 -86.5l-59 -301h-153zM204 760h126l39 -81h2l56 81h140l-131 -148h-150z" />
    <glyph glyph-name="napostrophe" unicode="&#x149;" horiz-adv-x="593" 
d="M103 532h148l-17 -86h3q32 49 76 75.5t101 26.5q41 0 72 -17.5t49.5 -47t25 -69t-2.5 -84.5l-65 -330h-153l62 319q8 45 -8 73t-62 28q-44 0 -76.5 -32.5t-43.5 -86.5l-59 -301h-153zM32 599q32 5 47.5 16.5t19.5 32.5h-58l19 96h129l-15 -81q-11 -57 -48.5 -84
t-103.5 -29z" />
    <glyph glyph-name="Eng" unicode="&#x14a;" horiz-adv-x="739" 
d="M377 -47q33 0 53 10.5t28 28.5l-128 338q-11 29 -23 65t-21 68q-11 37 -21 74h-2q-4 -42 -9 -82q-5 -35 -10.5 -74.5t-11.5 -71.5l-60 -309h-160l145 744h171l127 -334q11 -29 22 -64.5t20 -66.5q11 -36 21 -73h2q5 41 10 81q5 35 10 74.5t12 71.5l61 311h159l-139 -715
q-9 -45 -23 -81t-40 -66q-56 -67 -181 -67q-52 0 -92 12l24 132h6q11 -2 23.5 -4t26.5 -2z" />
    <glyph glyph-name="eng" unicode="&#x14b;" horiz-adv-x="593" 
d="M402 319q8 45 -8 73t-62 28q-44 0 -76.5 -32.5t-43.5 -86.5l-59 -301h-153l103 532h148l-17 -86h3q32 49 76 75.5t101 26.5q41 0 72 -17.5t49.5 -47t25 -69t-2.5 -84.5l-70 -356q-9 -45 -25.5 -75t-40 -48t-52.5 -25t-63 -7q-23 0 -46 3t-40 8l19 106h5q8 -1 15 -1.5
t14 -0.5q28 1 42.5 11.5t20.5 40.5z" />
    <glyph glyph-name="Omacron" unicode="&#x14c;" horiz-adv-x="784" 
d="M380 -18q-76 0 -137.5 24.5t-104.5 68.5t-66.5 105t-23.5 135q0 91 29.5 171.5t83 140.5t127.5 95t164 35q76 0 136.5 -24t103.5 -68t66 -105t23 -134q0 -93 -29 -174t-81.5 -141t-126.5 -94.5t-164 -34.5zM384 118q55 0 97.5 25.5t71 68.5t43 98.5t14.5 114.5
q0 45 -11 81.5t-32 62.5t-52 40.5t-72 14.5q-54 0 -95.5 -26.5t-70 -69.5t-43.5 -98.5t-15 -112.5q0 -44 10.5 -80.5t31 -63t51.5 -41t72 -14.5zM340 897h305l-21 -108h-304z" />
    <glyph glyph-name="omacron" unicode="&#x14d;" horiz-adv-x="604" 
d="M278 -17q-58 0 -105 18.5t-80 51.5t-50.5 79t-17.5 100q0 66 23 124t63.5 100.5t96.5 67t122 24.5q57 0 103.5 -18.5t80 -51.5t51.5 -78t18 -99q0 -68 -23 -126.5t-63.5 -101t-96.5 -66.5t-122 -24zM283 93q33 0 60 17.5t45.5 46.5t28.5 66.5t10 77.5q0 66 -27 102
t-76 36q-33 0 -59.5 -18t-45 -47t-28.5 -67t-10 -78q0 -65 26 -100.5t76 -35.5zM233 724h305l-21 -108h-304z" />
    <glyph glyph-name="Obreve" unicode="&#x14e;" horiz-adv-x="784" 
d="M380 -18q-76 0 -137.5 24.5t-104.5 68.5t-66.5 105t-23.5 135q0 91 29.5 171.5t83 140.5t127.5 95t164 35q76 0 136.5 -24t103.5 -68t66 -105t23 -134q0 -93 -29 -174t-81.5 -141t-126.5 -94.5t-164 -34.5zM384 118q55 0 97.5 25.5t71 68.5t43 98.5t14.5 114.5
q0 45 -11 81.5t-32 62.5t-52 40.5t-72 14.5q-54 0 -95.5 -26.5t-70 -69.5t-43.5 -98.5t-15 -112.5q0 -44 10.5 -80.5t31 -63t51.5 -41t72 -14.5zM647 921q-17 -69 -59.5 -105.5t-114.5 -36.5q-33 0 -60 9t-46 27t-29.5 44.5t-8.5 61.5h89q2 -22 16.5 -35t45.5 -13
q58 0 75 48h92z" />
    <glyph glyph-name="obreve" unicode="&#x14f;" horiz-adv-x="604" 
d="M278 -17q-58 0 -105 18.5t-80 51.5t-50.5 79t-17.5 100q0 66 23 124t63.5 100.5t96.5 67t122 24.5q57 0 103.5 -18.5t80 -51.5t51.5 -78t18 -99q0 -68 -23 -126.5t-63.5 -101t-96.5 -66.5t-122 -24zM283 93q33 0 60 17.5t45.5 46.5t28.5 66.5t10 77.5q0 66 -27 102
t-76 36q-33 0 -59.5 -18t-45 -47t-28.5 -67t-10 -78q0 -65 26 -100.5t76 -35.5zM362 606q-69 0 -109.5 41.5t-32.5 113.5h87q-1 -27 14.5 -44t47.5 -17q35 0 54 16t27 45h90q-14 -72 -58.5 -113.5t-119.5 -41.5z" />
    <glyph glyph-name="Ohungarumlaut" unicode="&#x150;" horiz-adv-x="784" 
d="M380 -18q-76 0 -137.5 24.5t-104.5 68.5t-66.5 105t-23.5 135q0 91 29.5 171.5t83 140.5t127.5 95t164 35q76 0 136.5 -24t103.5 -68t66 -105t23 -134q0 -93 -29 -174t-81.5 -141t-126.5 -94.5t-164 -34.5zM384 118q55 0 97.5 25.5t71 68.5t43 98.5t14.5 114.5
q0 45 -11 81.5t-32 62.5t-52 40.5t-72 14.5q-54 0 -95.5 -26.5t-70 -69.5t-43.5 -98.5t-15 -112.5q0 -44 10.5 -80.5t31 -63t51.5 -41t72 -14.5zM565 916h143l-103 -131h-97zM375 916h145l-105 -131h-97z" />
    <glyph glyph-name="ohungarumlaut" unicode="&#x151;" horiz-adv-x="604" 
d="M278 -17q-58 0 -105 18.5t-80 51.5t-50.5 79t-17.5 100q0 66 23 124t63.5 100.5t96.5 67t122 24.5q57 0 103.5 -18.5t80 -51.5t51.5 -78t18 -99q0 -68 -23 -126.5t-63.5 -101t-96.5 -66.5t-122 -24zM283 93q33 0 60 17.5t45.5 46.5t28.5 66.5t10 77.5q0 66 -27 102
t-76 36q-33 0 -59.5 -18t-45 -47t-28.5 -67t-10 -78q0 -65 26 -100.5t76 -35.5zM466 773h143l-115 -161h-97zM276 773h145l-117 -161h-97z" />
    <glyph glyph-name="OE" unicode="&#x152;" horiz-adv-x="1124" 
d="M344 -18q-68 0 -121.5 25t-90.5 69t-56.5 105t-19.5 132q0 97 30 178.5t82.5 140.5t123.5 92t153 33q70 0 119.5 -24.5t78.5 -68.5l15 80h508l-28 -140h-354l-30 -153h303l-26 -131h-303l-33 -173h366l-29 -147h-506l12 69q-40 -42 -88.5 -64.5t-105.5 -22.5zM383 116
q69 0 117 44t68 122q3 13 7 33.5t7 44t5.5 46t2.5 38.5q2 87 -35 132.5t-110 45.5q-50 0 -90 -24.5t-68.5 -66.5t-43.5 -97.5t-15 -117.5q0 -94 37 -147t118 -53z" />
    <glyph glyph-name="oe" unicode="&#x153;" horiz-adv-x="974" 
d="M670 -16q-69 0 -116.5 23.5t-75.5 64.5q-36 -42 -87.5 -65.5t-115.5 -23.5q-57 0 -103 18.5t-79 51.5t-50.5 79t-17.5 100q0 66 23 124t63.5 100.5t95.5 67t120 24.5t111.5 -24.5t75.5 -67.5q36 43 86.5 67.5t114.5 24.5q60 0 104.5 -20t73.5 -54.5t43.5 -81.5t13.5 -102
q-1 -16 -2 -31.5t-4 -31.5h-377v-2q0 -62 27.5 -96.5t83.5 -34.5q65 0 93 56h154q-32 -79 -98 -122.5t-157 -43.5zM280 93q32 0 58 17.5t44.5 46.5t28.5 66.5t10 77.5q0 66 -26 102t-74 36q-33 0 -59 -18t-44 -47t-27.5 -67t-9.5 -78q0 -65 25.5 -100.5t73.5 -35.5zM712 439
q-52 0 -85.5 -35.5t-48.5 -88.5h223q6 57 -17.5 90.5t-71.5 33.5z" />
    <glyph glyph-name="Racute" unicode="&#x154;" horiz-adv-x="697" 
d="M157 744h306q54 0 99 -15t77 -43.5t47.5 -69t9.5 -91.5q-7 -67 -47.5 -112.5t-117.5 -67.5v-3q49 -16 72.5 -49t23.5 -90q0 -41 -3 -80.5t-3 -67.5q0 -40 12 -46v-9h-161q-5 4 -9 17.5t-4 31.5q0 29 3.5 66.5t3.5 76.5q0 45 -24.5 69t-84.5 24h-123l-55 -285h-167z
M258 409h144q60 0 91 27.5t36 73.5q2 22 -2 41t-15.5 32.5t-31 21t-49.5 7.5h-133zM411 916h182l-128 -131h-115z" />
    <glyph glyph-name="racute" unicode="&#x155;" horiz-adv-x="401" 
d="M103 532h147l-19 -101h3q32 60 72.5 84.5t88.5 24.5q24 0 32 -4l-23 -136h-4q-17 3 -33 3q-65 1 -107.5 -37.5t-57.5 -117.5l-49 -248h-153zM287 773h182l-143 -161h-115z" />
    <glyph glyph-name="uni0156" unicode="&#x156;" horiz-adv-x="697" 
d="M157 744h306q54 0 99 -15t77 -43.5t47.5 -69t9.5 -91.5q-7 -67 -47.5 -112.5t-117.5 -67.5v-3q49 -16 72.5 -49t23.5 -90q0 -41 -3 -80.5t-3 -67.5q0 -40 12 -46v-9h-161q-5 4 -9 17.5t-4 31.5q0 29 3.5 66.5t3.5 76.5q0 45 -24.5 69t-84.5 24h-123l-55 -285h-167z
M258 409h144q60 0 91 27.5t36 73.5q2 22 -2 41t-15.5 32.5t-31 21t-49.5 7.5h-133zM208 -210q72 9 81 56h-66l20 103h149l-16 -81q-14 -69 -62 -99t-117 -32z" />
    <glyph glyph-name="uni0157" unicode="&#x157;" horiz-adv-x="401" 
d="M103 532h147l-19 -101h3q32 60 72.5 84.5t88.5 24.5q24 0 32 -4l-23 -136h-4q-17 3 -33 3q-65 1 -107.5 -37.5t-57.5 -117.5l-49 -248h-153zM-44 -210q72 9 81 56h-66l20 103h149l-16 -81q-14 -69 -62 -99t-117 -32z" />
    <glyph glyph-name="Rcaron" unicode="&#x158;" horiz-adv-x="697" 
d="M157 744h306q54 0 99 -15t77 -43.5t47.5 -69t9.5 -91.5q-7 -67 -47.5 -112.5t-117.5 -67.5v-3q49 -16 72.5 -49t23.5 -90q0 -41 -3 -80.5t-3 -67.5q0 -40 12 -46v-9h-161q-5 4 -9 17.5t-4 31.5q0 29 3.5 66.5t3.5 76.5q0 45 -24.5 69t-84.5 24h-123l-55 -285h-167z
M258 409h144q60 0 91 27.5t36 73.5q2 22 -2 41t-15.5 32.5t-31 21t-49.5 7.5h-133zM500 785h-150l-84 131h126l37 -64h2l58 64h140z" />
    <glyph glyph-name="rcaron" unicode="&#x159;" horiz-adv-x="401" 
d="M103 532h147l-19 -101h3q32 60 72.5 84.5t88.5 24.5q24 0 32 -4l-23 -136h-4q-17 3 -33 3q-65 1 -107.5 -37.5t-57.5 -117.5l-49 -248h-153zM126 760h126l39 -81h2l56 81h140l-131 -148h-150z" />
    <glyph glyph-name="Sacute" unicode="&#x15a;" horiz-adv-x="671" 
d="M336 -18q-155 0 -238.5 67.5t-86.5 185.5h170q8 -59 44.5 -89.5t111.5 -30.5q56 0 91.5 24t35.5 68q0 20 -9.5 34.5t-29 26t-47.5 22.5t-64 23q-47 16 -87.5 33.5t-70.5 41.5t-47.5 57.5t-17.5 81.5q0 51 19 93.5t55.5 72.5t90.5 47t124 17q129 0 202 -58t82 -164h-164
q-5 43 -37.5 69.5t-88.5 26.5q-54 0 -84.5 -22.5t-30.5 -57.5q0 -18 9.5 -32t30 -26t50.5 -23.5t71 -24.5q43 -14 82.5 -32t69.5 -43t47.5 -60t17.5 -84q0 -53 -21 -98t-60 -77.5t-94.5 -50.5t-125.5 -18zM394 916h182l-128 -131h-115z" />
    <glyph glyph-name="sacute" unicode="&#x15b;" horiz-adv-x="531" 
d="M251 -17q-118 0 -184 48.5t-69 132.5h146q4 -39 31 -60t74 -21q41 0 63 17.5t22 46.5q0 15 -9 26t-25 19t-38.5 14.5t-49.5 13.5q-31 9 -60 20t-51.5 28.5t-36 42.5t-13.5 62q0 42 16.5 74.5t46.5 55t71.5 34t89.5 11.5q109 0 165 -42t67 -116h-145q-5 29 -27 44.5
t-61 15.5q-35 0 -56 -15t-21 -41q0 -14 8.5 -23t24 -16t38 -13.5t49.5 -13.5q31 -8 61 -19.5t53.5 -29.5t38.5 -45t15 -66q0 -45 -17 -79.5t-48 -58t-74 -35.5t-95 -12zM303 773h182l-143 -161h-115z" />
    <glyph glyph-name="Scircumflex" unicode="&#x15c;" horiz-adv-x="671" 
d="M336 -18q-155 0 -238.5 67.5t-86.5 185.5h170q8 -59 44.5 -89.5t111.5 -30.5q56 0 91.5 24t35.5 68q0 20 -9.5 34.5t-29 26t-47.5 22.5t-64 23q-47 16 -87.5 33.5t-70.5 41.5t-47.5 57.5t-17.5 81.5q0 51 19 93.5t55.5 72.5t90.5 47t124 17q129 0 202 -58t82 -164h-164
q-5 43 -37.5 69.5t-88.5 26.5q-54 0 -84.5 -22.5t-30.5 -57.5q0 -18 9.5 -32t30 -26t50.5 -23.5t71 -24.5q43 -14 82.5 -32t69.5 -43t47.5 -60t17.5 -84q0 -53 -21 -98t-60 -77.5t-94.5 -50.5t-125.5 -18zM350 916h150l84 -131h-126l-37 64h-2l-58 -64h-140z" />
    <glyph glyph-name="scircumflex" unicode="&#x15d;" horiz-adv-x="531" 
d="M251 -17q-118 0 -184 48.5t-69 132.5h146q4 -39 31 -60t74 -21q41 0 63 17.5t22 46.5q0 15 -9 26t-25 19t-38.5 14.5t-49.5 13.5q-31 9 -60 20t-51.5 28.5t-36 42.5t-13.5 62q0 42 16.5 74.5t46.5 55t71.5 34t89.5 11.5q109 0 165 -42t67 -116h-145q-5 29 -27 44.5
t-61 15.5q-35 0 -56 -15t-21 -41q0 -14 8.5 -23t24 -16t38 -13.5t49.5 -13.5q31 -8 61 -19.5t53.5 -29.5t38.5 -45t15 -66q0 -45 -17 -79.5t-48 -58t-74 -35.5t-95 -12zM243 762h150l82 -148h-126l-35 81h-2l-60 -81h-140z" />
    <glyph glyph-name="Scedilla" unicode="&#x15e;" horiz-adv-x="671" 
d="M251 -209q-34 0 -60 8.5t-44 21.5l20 35q32 -16 64 -16q28 0 44.5 10t16.5 30q0 13 -9 20t-23 7q-12 0 -21.5 -2t-17.5 -5l-13 28l59 58q-123 14 -188.5 79t-67.5 170h170q8 -59 44.5 -89.5t111.5 -30.5q56 0 91.5 24t35.5 68q0 20 -9.5 34.5t-29 26t-47.5 22.5t-64 23
q-47 16 -87.5 33.5t-70.5 41.5t-47.5 57.5t-17.5 81.5q0 51 19 93.5t55.5 72.5t90.5 47t124 17q129 0 202 -58t82 -164h-164q-5 43 -37.5 69.5t-88.5 26.5q-54 0 -84.5 -22.5t-30.5 -57.5q0 -18 9.5 -32t30 -26t50.5 -23.5t71 -24.5q43 -14 82.5 -32t69.5 -43t47.5 -60
t17.5 -84q0 -53 -21 -98t-60 -77.5t-94.5 -50.5t-125.5 -18h-11l-42 -35l1 -2q42 6 72.5 -10t30.5 -54q0 -44 -38 -67t-98 -23z" />
    <glyph glyph-name="scedilla" unicode="&#x15f;" horiz-adv-x="531" 
d="M168 -209q-34 0 -60 8.5t-44 21.5l20 35q32 -16 64 -16q28 0 44.5 10t16.5 30q0 13 -9 20t-23 7q-12 0 -21.5 -2t-17.5 -5l-13 28l60 60q-88 12 -136.5 58t-50.5 118h146q4 -39 31 -60t74 -21q41 0 63 17.5t22 46.5q0 15 -9 26t-25 19t-38.5 14.5t-49.5 13.5
q-31 9 -60 20t-51.5 28.5t-36 42.5t-13.5 62q0 42 16.5 74.5t46.5 55t71.5 34t89.5 11.5q109 0 165 -42t67 -116h-145q-5 29 -27 44.5t-61 15.5q-35 0 -56 -15t-21 -41q0 -14 8.5 -23t24 -16t38 -13.5t49.5 -13.5q31 -8 61 -19.5t53.5 -29.5t38.5 -45t15 -66
q0 -45 -17 -79.5t-48 -58t-74 -35.5t-95 -12h-8l-43 -36l1 -2q42 6 72.5 -10t30.5 -54q0 -44 -38 -67t-98 -23z" />
    <glyph glyph-name="Scaron" unicode="&#x160;" horiz-adv-x="671" 
d="M336 -18q-155 0 -238.5 67.5t-86.5 185.5h170q8 -59 44.5 -89.5t111.5 -30.5q56 0 91.5 24t35.5 68q0 20 -9.5 34.5t-29 26t-47.5 22.5t-64 23q-47 16 -87.5 33.5t-70.5 41.5t-47.5 57.5t-17.5 81.5q0 51 19 93.5t55.5 72.5t90.5 47t124 17q129 0 202 -58t82 -164h-164
q-5 43 -37.5 69.5t-88.5 26.5q-54 0 -84.5 -22.5t-30.5 -57.5q0 -18 9.5 -32t30 -26t50.5 -23.5t71 -24.5q43 -14 82.5 -32t69.5 -43t47.5 -60t17.5 -84q0 -53 -21 -98t-60 -77.5t-94.5 -50.5t-125.5 -18zM483 785h-150l-84 131h126l37 -64h2l58 64h140z" />
    <glyph glyph-name="scaron" unicode="&#x161;" horiz-adv-x="531" 
d="M251 -17q-118 0 -184 48.5t-69 132.5h146q4 -39 31 -60t74 -21q41 0 63 17.5t22 46.5q0 15 -9 26t-25 19t-38.5 14.5t-49.5 13.5q-31 9 -60 20t-51.5 28.5t-36 42.5t-13.5 62q0 42 16.5 74.5t46.5 55t71.5 34t89.5 11.5q109 0 165 -42t67 -116h-145q-5 29 -27 44.5
t-61 15.5q-35 0 -56 -15t-21 -41q0 -14 8.5 -23t24 -16t38 -13.5t49.5 -13.5q31 -8 61 -19.5t53.5 -29.5t38.5 -45t15 -66q0 -45 -17 -79.5t-48 -58t-74 -35.5t-95 -12zM142 760h126l39 -81h2l56 81h140l-131 -148h-150z" />
    <glyph glyph-name="uni0162" unicode="&#x162;" horiz-adv-x="657" 
d="M121 744h603l-28 -142h-219l-116 -602h-167l116 602h-217zM157 -210q72 9 81 56h-66l20 103h149l-16 -81q-14 -69 -62 -99t-117 -32z" />
    <glyph glyph-name="uni0163" unicode="&#x163;" horiz-adv-x="383" 
d="M71 532h77l33 170h151l-33 -170h101l-19 -98h-101l-51 -267q-6 -32 7 -43.5t41 -11.5q9 0 19 1t17 2h5l-20 -112q-12 -3 -33.5 -6t-52.5 -3q-36 0 -65 9.5t-47.5 29t-25.5 49.5t1 71l54 281h-78zM54 -210q72 9 81 56h-66l20 103h149l-16 -81q-14 -69 -62 -99t-117 -32z
" />
    <glyph glyph-name="Tcaron" unicode="&#x164;" horiz-adv-x="657" 
d="M121 744h603l-28 -142h-219l-116 -602h-167l116 602h-217zM504 785h-150l-84 131h126l37 -64h2l58 64h140z" />
    <glyph glyph-name="tcaron" unicode="&#x165;" horiz-adv-x="383" 
d="M71 532h78l33 170h152l-33 -170h102l-20 -100h-102l-51 -264q-6 -30 7.5 -40.5t40.5 -10.5q8 0 18 0.5t18 1.5h8l-23 -117q-13 -2 -36.5 -5t-54.5 -3q-37 0 -65.5 6.5t-47 23t-25 43t1.5 67.5l57 298h-78zM358 609q31 3 46.5 14t20.5 31h-58l17 90h129l-11 -58
q-14 -69 -53 -96.5t-101 -30.5z" />
    <glyph glyph-name="Tbar" unicode="&#x166;" horiz-adv-x="657" 
d="M121 744h603l-28 -142h-219l-34 -179h146l-20 -98h-145l-63 -325h-167l63 325h-144l20 98h143l34 179h-217z" />
    <glyph glyph-name="tbar" unicode="&#x167;" horiz-adv-x="383" 
d="M71 532h77l33 170h151l-33 -170h101l-19 -98h-101l-15 -78h102l-17 -89h-102l-19 -100q-6 -32 7 -43.5t41 -11.5q9 0 19 1t17 2h5l-20 -112q-12 -3 -33.5 -6t-52.5 -3q-36 0 -65 9.5t-47.5 29t-25.5 49.5t1 71l22 114h-79l17 89h79l15 78h-78z" />
    <glyph glyph-name="Utilde" unicode="&#x168;" horiz-adv-x="710" 
d="M336 -14q-74 0 -131.5 19t-94.5 56.5t-50.5 92t0.5 126.5l91 464h166l-93 -479q-12 -66 14.5 -105t103.5 -39q62 0 99 33.5t49 96.5l96 493h167l-98 -505q-25 -130 -103 -191.5t-216 -61.5zM532 786q-23 0 -41 7t-33.5 15t-28 15t-23.5 7q-13 0 -24 -11.5t-16 -33.5h-82
q8 71 42 106t77 35q23 0 41 -7t32 -15t26 -15t24 -7q31 0 40 42h83q-8 -63 -38 -100.5t-79 -37.5z" />
    <glyph glyph-name="utilde" unicode="&#x169;" horiz-adv-x="589" 
d="M184 -16q-44 0 -76 16.5t-51 45.5t-24.5 69t3.5 88l63 329h154l-63 -324q-9 -44 6 -69.5t57 -26.5q49 -1 80.5 29.5t42.5 84.5l59 306h154l-104 -532h-148l14 73h-2q-32 -43 -71 -66t-94 -23zM436 613q-23 0 -41 7t-33.5 15t-28 15t-23.5 7q-13 0 -24 -11.5t-16 -33.5
h-82q8 71 42 106t77 35q23 0 41 -7t32 -15t26 -15t24 -7q31 0 40 42h83q-8 -63 -38 -100.5t-79 -37.5z" />
    <glyph glyph-name="Umacron" unicode="&#x16a;" horiz-adv-x="710" 
d="M336 -14q-74 0 -131.5 19t-94.5 56.5t-50.5 92t0.5 126.5l91 464h166l-93 -479q-12 -66 14.5 -105t103.5 -39q62 0 99 33.5t49 96.5l96 493h167l-98 -505q-25 -130 -103 -191.5t-216 -61.5zM322 897h305l-21 -108h-304z" />
    <glyph glyph-name="umacron" unicode="&#x16b;" horiz-adv-x="589" 
d="M184 -16q-44 0 -76 16.5t-51 45.5t-24.5 69t3.5 88l63 329h154l-63 -324q-9 -44 6 -69.5t57 -26.5q49 -1 80.5 29.5t42.5 84.5l59 306h154l-104 -532h-148l14 73h-2q-32 -43 -71 -66t-94 -23zM226 724h305l-21 -108h-304z" />
    <glyph glyph-name="Ubreve" unicode="&#x16c;" horiz-adv-x="710" 
d="M336 -14q-74 0 -131.5 19t-94.5 56.5t-50.5 92t0.5 126.5l91 464h166l-93 -479q-12 -66 14.5 -105t103.5 -39q62 0 99 33.5t49 96.5l96 493h167l-98 -505q-25 -130 -103 -191.5t-216 -61.5zM629 921q-17 -69 -59.5 -105.5t-114.5 -36.5q-33 0 -60 9t-46 27t-29.5 44.5
t-8.5 61.5h89q2 -22 16.5 -35t45.5 -13q58 0 75 48h92z" />
    <glyph glyph-name="ubreve" unicode="&#x16d;" horiz-adv-x="589" 
d="M184 -16q-44 0 -76 16.5t-51 45.5t-24.5 69t3.5 88l63 329h154l-63 -324q-9 -44 6 -69.5t57 -26.5q49 -1 80.5 29.5t42.5 84.5l59 306h154l-104 -532h-148l14 73h-2q-32 -43 -71 -66t-94 -23zM352 606q-69 0 -109.5 41.5t-32.5 113.5h87q-1 -27 14.5 -44t47.5 -17
q35 0 54 16t27 45h90q-14 -72 -58.5 -113.5t-119.5 -41.5z" />
    <glyph glyph-name="Uring" unicode="&#x16e;" horiz-adv-x="710" 
d="M336 -14q-74 0 -131.5 19t-94.5 56.5t-50.5 92t0.5 126.5l91 464h166l-93 -479q-12 -66 14.5 -105t103.5 -39q62 0 99 33.5t49 96.5l96 493h167l-98 -505q-25 -130 -103 -191.5t-216 -61.5zM452 746q-23 0 -43.5 8.5t-36 23t-24.5 34.5t-9 44q0 23 9 43t24.5 35t36 24
t43.5 9t43.5 -9t35.5 -24t24 -35t9 -43q0 -24 -9 -44t-24 -34.5t-35.5 -23t-43.5 -8.5zM452 803q23 0 37.5 15t14.5 38t-14.5 39t-37.5 16t-37.5 -16t-14.5 -39t14.5 -38t37.5 -15z" />
    <glyph glyph-name="uring" unicode="&#x16f;" horiz-adv-x="589" 
d="M184 -16q-44 0 -76 16.5t-51 45.5t-24.5 69t3.5 88l63 329h154l-63 -324q-9 -44 6 -69.5t57 -26.5q49 -1 80.5 29.5t42.5 84.5l59 306h154l-104 -532h-148l14 73h-2q-32 -43 -71 -66t-94 -23zM355 596q-23 0 -43.5 8.5t-36 23t-24.5 34.5t-9 44q0 23 9 43t24.5 35t36 24
t43.5 9t43.5 -9t35.5 -24t24 -35t9 -43q0 -24 -9 -44t-24 -34.5t-35.5 -23t-43.5 -8.5zM355 653q23 0 37.5 15t14.5 38t-14.5 39t-37.5 16t-37.5 -16t-14.5 -39t14.5 -38t37.5 -15z" />
    <glyph glyph-name="Uhungarumlaut" unicode="&#x170;" horiz-adv-x="710" 
d="M336 -14q-74 0 -131.5 19t-94.5 56.5t-50.5 92t0.5 126.5l91 464h166l-93 -479q-12 -66 14.5 -105t103.5 -39q62 0 99 33.5t49 96.5l96 493h167l-98 -505q-25 -130 -103 -191.5t-216 -61.5zM556 916h143l-103 -131h-97zM366 916h145l-105 -131h-97z" />
    <glyph glyph-name="uhungarumlaut" unicode="&#x171;" horiz-adv-x="589" 
d="M184 -16q-44 0 -76 16.5t-51 45.5t-24.5 69t3.5 88l63 329h154l-63 -324q-9 -44 6 -69.5t57 -26.5q49 -1 80.5 29.5t42.5 84.5l59 306h154l-104 -532h-148l14 73h-2q-32 -43 -71 -66t-94 -23zM269 773h145l-117 -161h-97zM459 773h143l-115 -161h-97z" />
    <glyph glyph-name="Uogonek" unicode="&#x172;" horiz-adv-x="710" 
d="M336 -184q-53 0 -82.5 21.5t-29.5 61.5q0 33 20 54.5t43 34.5q-63 6 -111 28t-78 58.5t-40.5 88t2.5 117.5l91 464h166l-93 -479q-12 -66 14.5 -105t103.5 -39q62 0 99 33.5t49 96.5l96 493h167l-98 -505q-17 -89 -56 -141.5t-94 -78.5q-31 -15 -59 -25t-49 -19.5
t-33.5 -21t-12.5 -29.5q0 -12 9 -18t24 -6q9 0 16.5 1t13.5 3h2l-16 -80q-9 -3 -26 -5.5t-38 -2.5z" />
    <glyph glyph-name="uogonek" unicode="&#x173;" horiz-adv-x="589" 
d="M396 -184q-50 0 -79 21.5t-29 61.5q0 21 8 37.5t20.5 28.5t27 20.5t28.5 14.5h-35l14 73h-2q-32 -43 -71 -66t-94 -23q-44 0 -76 16.5t-51 45.5t-24.5 69t3.5 88l63 329h154l-63 -324q-9 -44 6 -69.5t57 -26.5q49 -1 80.5 29.5t42.5 84.5l59 306h154l-104 -532
q-36 -14 -55 -34.5t-19 -39.5q0 -14 9 -20t24 -6q9 0 16.5 1t13.5 3h2l-16 -80q-9 -3 -26 -5.5t-38 -2.5z" />
    <glyph glyph-name="Wcircumflex" unicode="&#x174;" horiz-adv-x="977" 
d="M104 744h167l12 -274q2 -41 0.5 -94.5t-3.5 -102.5q-3 -57 -6 -117h2q16 58 34 113q15 48 32.5 99.5t34.5 90.5l120 285h158l9 -284q1 -39 1 -91t-1 -100q-1 -55 -2 -113h2q15 60 33 117q14 49 32.5 103t35.5 95l119 273h171l-345 -744h-163l-11 313q-1 35 0 79.5t3 85.5
q2 48 5 96h-2l-30 -96q-13 -41 -28.5 -85.5t-29.5 -79.5l-133 -313h-163zM527 916h150l84 -131h-126l-37 64h-2l-58 -64h-140z" />
    <glyph glyph-name="wcircumflex" unicode="&#x175;" horiz-adv-x="806" 
d="M59 532h153l13 -203q2 -26 3 -55t1 -55v-59h2q9 28 19 56q8 24 19 53t23 55l91 208h131l17 -201q2 -26 3 -55.5t2 -55.5q1 -31 2 -61h2q7 28 16 56q8 24 18.5 52.5t22.5 54.5l97 210h157l-265 -532h-145l-14 213q-2 24 -1.5 52.5t0.5 54.5q0 30 1 60h-2q-11 -29 -22 -57
q-10 -24 -21.5 -52t-22.5 -52l-99 -219h-143zM411 762h150l82 -148h-126l-35 81h-2l-60 -81h-140z" />
    <glyph glyph-name="Ycircumflex" unicode="&#x176;" horiz-adv-x="692" 
d="M265 278l-158 466h176l48 -156q8 -26 15 -56.5t13 -57.5q7 -32 13 -63h2q17 31 35 63q15 27 34 57.5t36 56.5l110 156h183l-339 -462l-55 -282h-167zM388 916h150l84 -131h-126l-37 64h-2l-58 -64h-140z" />
    <glyph glyph-name="ycircumflex" unicode="&#x177;" horiz-adv-x="547" 
d="M79 -178h-17.5t-33.5 0.5t-33.5 1t-16.5 0.5l23 120h5h8t17 -0.5t17 -0.5h10q36 0 56.5 15t28.5 42q3 13 1.5 42t-7.5 65l-79 425h156l27 -199q4 -29 6.5 -62.5t4.5 -62.5q2 -33 2 -66h2q12 31 24 64q11 27 24.5 59t27.5 60l104 207h158l-293 -545q-25 -46 -48.5 -77.5
t-49.5 -51t-56.5 -28t-67.5 -8.5zM285 762h150l82 -148h-126l-35 81h-2l-60 -81h-140z" />
    <glyph glyph-name="Ydieresis" unicode="&#x178;" horiz-adv-x="692" 
d="M265 278l-158 466h176l48 -156q8 -26 15 -56.5t13 -57.5q7 -32 13 -63h2q17 31 35 63q15 27 34 57.5t36 56.5l110 156h183l-339 -462l-55 -282h-167zM274 919h151l-26 -134h-151zM515 919h150l-26 -134h-150z" />
    <glyph glyph-name="Zacute" unicode="&#x179;" horiz-adv-x="673" 
d="M12 135l334 338q20 20 45.5 43t48.5 43q26 23 53 46l1 3q-28 -2 -56 -3q-24 -1 -51 -1.5t-48 -0.5h-210l28 141h559l-26 -131l-322 -327q-23 -23 -50.5 -48.5t-52.5 -47.5q-29 -26 -59 -50v-3q29 1 59 3q25 1 53.5 2t51.5 1h243l-28 -143h-600zM423 916h182l-128 -131
h-115z" />
    <glyph glyph-name="zacute" unicode="&#x17a;" 
d="M6 114l227 218q15 14 33 29t34 28q18 15 37 29v3l-40 -4q-17 -2 -37 -2.5t-36 -0.5h-136l23 118h422l-20 -110l-220 -211q-17 -16 -36.5 -32.5t-37.5 -30.5q-21 -17 -42 -32l-1 -4q21 2 43 4q19 2 40.5 3t39.5 1h169l-24 -120h-460zM334 773h182l-143 -161h-115z" />
    <glyph glyph-name="Zdotaccent" unicode="&#x17b;" horiz-adv-x="673" 
d="M12 135l334 338q20 20 45.5 43t48.5 43q26 23 53 46l1 3q-28 -2 -56 -3q-24 -1 -51 -1.5t-48 -0.5h-210l28 141h559l-26 -131l-322 -327q-23 -23 -50.5 -48.5t-52.5 -47.5q-29 -26 -59 -50v-3q29 1 59 3q25 1 53.5 2t51.5 1h243l-28 -143h-600zM382 920h157l-26 -135
h-157z" />
    <glyph glyph-name="zdotaccent" unicode="&#x17c;" 
d="M6 114l227 218q15 14 33 29t34 28q18 15 37 29v3l-40 -4q-17 -2 -37 -2.5t-36 -0.5h-136l23 118h422l-20 -110l-220 -211q-17 -16 -36.5 -32.5t-37.5 -30.5q-21 -17 -42 -32l-1 -4q21 2 43 4q19 2 40.5 3t39.5 1h169l-24 -120h-460zM277 744h156l-27 -137h-156z" />
    <glyph glyph-name="Zcaron" unicode="&#x17d;" horiz-adv-x="673" 
d="M12 135l334 338q20 20 45.5 43t48.5 43q26 23 53 46l1 3q-28 -2 -56 -3q-24 -1 -51 -1.5t-48 -0.5h-210l28 141h559l-26 -131l-322 -327q-23 -23 -50.5 -48.5t-52.5 -47.5q-29 -26 -59 -50v-3q29 1 59 3q25 1 53.5 2t51.5 1h243l-28 -143h-600zM512 785h-150l-84 131h126
l37 -64h2l58 64h140z" />
    <glyph glyph-name="zcaron" unicode="&#x17e;" 
d="M6 114l227 218q15 14 33 29t34 28q18 15 37 29v3l-40 -4q-17 -2 -37 -2.5t-36 -0.5h-136l23 118h422l-20 -110l-220 -211q-17 -16 -36.5 -32.5t-37.5 -30.5q-21 -17 -42 -32l-1 -4q21 2 43 4q19 2 40.5 3t39.5 1h169l-24 -120h-460zM173 760h126l39 -81h2l56 81h140
l-131 -148h-150z" />
    <glyph glyph-name="florin" unicode="&#x192;" horiz-adv-x="451" 
d="M71 432h97l32 142q9 40 25.5 70.5t42.5 50.5q19 14 44.5 21.5t54 10t58 1t58.5 -6.5l-16 -109q-52 4 -78 -5.5t-35 -51.5l-28 -123h116l-19 -98h-119l-77 -348q-9 -40 -23.5 -69.5t-37.5 -48.5q-18 -14 -42 -21t-50.5 -9t-53 0t-47.5 5l16 101q36 -3 55.5 7.5t28.5 50.5
l73 332h-94z" />
    <glyph glyph-name="AEacute" unicode="&#x1fc;" horiz-adv-x="1026" 
d="M357 744h713l-28 -143h-356l-30 -150h306l-26 -131h-306l-33 -171h368l-29 -149h-536l28 146h-222l-76 -146h-170zM267 264h184l66 337h-75zM690 916h182l-128 -131h-115z" />
    <glyph glyph-name="aeacute" unicode="&#x1fd;" horiz-adv-x="913" 
d="M181 -14q-88 0 -133.5 40.5t-45.5 106.5q0 49 18 80.5t50 51t77 29t99 14.5q77 7 108.5 23t31.5 52q0 26 -20 43.5t-59 17.5q-41 0 -67 -19t-34 -54h-144q15 80 79 128t171 48q64 0 105.5 -16.5t64.5 -47.5q33 31 75.5 48t95.5 17q58 0 102.5 -19.5t74 -53t44.5 -79.5
t15 -99q0 -17 -1.5 -34.5t-3.5 -35.5h-378v-2q0 -62 27.5 -96.5t82.5 -34.5q32 0 56 14.5t38 41.5h154q-32 -79 -98.5 -122.5t-157.5 -43.5q-74 0 -126.5 27t-82.5 72q-26 -32 -54 -51t-56.5 -29.5t-56 -13.5t-51.5 -3zM229 81q52 0 82.5 30t38.5 75l15 72q-14 -8 -27.5 -13
t-28 -8.5t-30.5 -6t-35 -6.5q-47 -9 -68.5 -27.5t-21.5 -52.5t22.5 -48.5t52.5 -14.5zM525 773h182l-143 -161h-115zM650 439q-52 0 -85 -35.5t-48 -88.5h223q6 57 -17.5 90.5t-72.5 33.5z" />
    <glyph glyph-name="Oslashacute" unicode="&#x1fe;" horiz-adv-x="784" 
d="M-5 7l110 108q-57 83 -57 200q0 91 29.5 171.5t83 140.5t127.5 95t164 35q69 0 126 -20.5t99 -57.5l103 101l52 -51l-107 -105q27 -41 41.5 -90.5t14.5 -107.5q0 -93 -29 -174t-81.5 -141t-126.5 -94.5t-164 -34.5q-70 0 -127.5 20t-99.5 58l-107 -105zM219 317
q0 -45 9 -81l340 335q-21 26 -52 39.5t-73 13.5q-54 0 -95.5 -26.5t-70 -69.5t-43.5 -98.5t-15 -112.5zM384 118q55 0 97.5 25.5t71 68.5t43 98.5t14.5 114.5q0 42 -9 77l-340 -335q20 -23 50 -36t73 -13zM459 916h182l-128 -131h-115z" />
    <glyph glyph-name="oslashacute" unicode="&#x1ff;" horiz-adv-x="604" 
d="M-19 -13l91 89q-48 65 -48 156q0 66 23 124t63.5 100.5t97 67t122.5 24.5q51 0 93 -15t74 -41l85 83l42 -44l-85 -84q21 -30 32.5 -67t11.5 -79q0 -68 -23 -126.5t-63.5 -101t-97 -66.5t-122.5 -24q-49 0 -89.5 13t-72.5 37l-92 -90zM179 229q0 -26 3 -45l222 217
q-26 38 -80 38q-33 0 -60 -18t-46 -47t-29 -67t-10 -78zM369 773h182l-143 -161h-115zM283 93q33 0 60 17.5t46 46.5t29.5 66.5t10.5 77.5q0 19 -3 37l-218 -214q26 -31 75 -31z" />
    <glyph glyph-name="uni0218" unicode="&#x218;" horiz-adv-x="671" 
d="M336 -18q-155 0 -238.5 67.5t-86.5 185.5h170q8 -59 44.5 -89.5t111.5 -30.5q56 0 91.5 24t35.5 68q0 20 -9.5 34.5t-29 26t-47.5 22.5t-64 23q-47 16 -87.5 33.5t-70.5 41.5t-47.5 57.5t-17.5 81.5q0 51 19 93.5t55.5 72.5t90.5 47t124 17q129 0 202 -58t82 -164h-164
q-5 43 -37.5 69.5t-88.5 26.5q-54 0 -84.5 -22.5t-30.5 -57.5q0 -18 9.5 -32t30 -26t50.5 -23.5t71 -24.5q43 -14 82.5 -32t69.5 -43t47.5 -60t17.5 -84q0 -53 -21 -98t-60 -77.5t-94.5 -50.5t-125.5 -18zM177 -210q72 9 81 56h-66l20 103h149l-16 -81q-14 -69 -62 -99
t-117 -32z" />
    <glyph glyph-name="uni0219" unicode="&#x219;" horiz-adv-x="531" 
d="M251 -17q-118 0 -184 48.5t-69 132.5h146q4 -39 31 -60t74 -21q41 0 63 17.5t22 46.5q0 15 -9 26t-25 19t-38.5 14.5t-49.5 13.5q-31 9 -60 20t-51.5 28.5t-36 42.5t-13.5 62q0 42 16.5 74.5t46.5 55t71.5 34t89.5 11.5q109 0 165 -42t67 -116h-145q-5 29 -27 44.5
t-61 15.5q-35 0 -56 -15t-21 -41q0 -14 8.5 -23t24 -16t38 -13.5t49.5 -13.5q31 -8 61 -19.5t53.5 -29.5t38.5 -45t15 -66q0 -45 -17 -79.5t-48 -58t-74 -35.5t-95 -12zM104 -210q72 9 81 56h-66l20 103h149l-16 -81q-14 -69 -62 -99t-117 -32z" />
    <glyph glyph-name="uni021A" unicode="&#x21a;" horiz-adv-x="657" 
d="M121 744h603l-28 -142h-219l-116 -602h-167l116 602h-217zM157 -210q72 9 81 56h-66l20 103h149l-16 -81q-14 -69 -62 -99t-117 -32z" />
    <glyph glyph-name="uni021B" unicode="&#x21b;" horiz-adv-x="383" 
d="M71 532h77l33 170h151l-33 -170h101l-19 -98h-101l-51 -267q-6 -32 7 -43.5t41 -11.5q9 0 19 1t17 2h5l-20 -112q-12 -3 -33.5 -6t-52.5 -3q-36 0 -65 9.5t-47.5 29t-25.5 49.5t1 71l54 281h-78zM54 -210q72 9 81 56h-66l20 103h149l-16 -81q-14 -69 -62 -99t-117 -32z
" />
    <glyph glyph-name="uni0237" unicode="&#x237;" horiz-adv-x="257" 
d="M-30 -181q-23 0 -46 3t-40 8l19 106h5q8 -1 15 -1.5t14 -0.5q28 1 42 11.5t20 40.5l106 546h154l-108 -558q-9 -45 -25.5 -75t-40 -48t-52.5 -25t-63 -7z" />
    <glyph glyph-name="circumflex" unicode="&#x2c6;" 
d="M283 762h150l82 -148h-126l-35 81h-2l-60 -81h-140z" />
    <glyph glyph-name="caron" unicode="&#x2c7;" 
d="M180 760h126l39 -81h2l56 81h140l-131 -148h-150z" />
    <glyph glyph-name="uni02C9" unicode="&#x2c9;" 
d="M208 745h305l-21 -108h-304z" />
    <glyph glyph-name="breve" unicode="&#x2d8;" 
d="M374 606q-69 0 -109.5 41.5t-32.5 113.5h87q-1 -27 14.5 -44t47.5 -17q35 0 54 16t27 45h90q-14 -72 -58.5 -113.5t-119.5 -41.5z" />
    <glyph glyph-name="dotaccent" unicode="&#x2d9;" 
d="M281 744h156l-27 -137h-156z" />
    <glyph glyph-name="ring" unicode="&#x2da;" horiz-adv-x="530" 
d="M353 596q-23 0 -43.5 8.5t-36 23t-24.5 34.5t-9 44q0 23 9 43t24.5 35t36 24t43.5 9t43.5 -9t35.5 -24t24 -35t9 -43q0 -24 -9 -44t-24 -34.5t-35.5 -23t-43.5 -8.5zM353 653q23 0 37.5 15t14.5 38t-14.5 39t-37.5 16t-37.5 -16t-14.5 -39t14.5 -38t37.5 -15z" />
    <glyph glyph-name="ogonek" unicode="&#x2db;" 
d="M145 -184q-53 0 -82.5 21.5t-29.5 61.5q0 21 8.5 37.5t22 28.5t28.5 20.5t29 14.5h102q-29 -18 -46 -36.5t-17 -37.5q0 -14 9 -20t24 -6q9 0 16.5 1t13.5 3h2l-16 -80q-9 -3 -26 -5.5t-38 -2.5z" />
    <glyph glyph-name="tilde" unicode="&#x2dc;" 
d="M412 613q-23 0 -41 7t-33.5 15t-28 15t-23.5 7q-13 0 -24 -11.5t-16 -33.5h-82q8 71 42 106t77 35q23 0 41 -7t32 -15t26 -15t24 -7q31 0 40 42h83q-8 -63 -38 -100.5t-79 -37.5z" />
    <glyph glyph-name="hungarumlaut" unicode="&#x2dd;" 
d="M440 773h143l-115 -161h-97zM250 773h145l-117 -161h-97z" />
    <glyph glyph-name="uni0394" unicode="&#x394;" horiz-adv-x="711" 
d="M-1 112l359 632h185l114 -632l-21 -112h-658zM484 130l-45 275q-6 36 -9 71.5t-5 64.5q-2 33 -1 64h-2q-10 -27 -22 -57q-11 -26 -25.5 -57.5t-31.5 -63.5l-162 -297h303z" />
    <glyph glyph-name="uni03A9" unicode="&#x3a9;" horiz-adv-x="768" 
d="M19 126h126v2q-24 15 -41 37.5t-28 49.5t-16 57.5t-5 61.5q0 94 29.5 171.5t81.5 133.5t123.5 87t155.5 31q73 0 132.5 -21t101.5 -62t64.5 -101.5t22.5 -139.5q0 -58 -14.5 -106.5t-37.5 -87t-53 -66.5t-61 -45v-2h110l-24 -126h-315l24 124q46 7 83.5 34t64.5 67.5
t41.5 91.5t14.5 105q0 100 -42.5 152t-115.5 52q-54 0 -95 -24t-69.5 -65t-43 -96t-14.5 -117q0 -168 107 -199l-24 -125h-307z" />
    <glyph glyph-name="uni03BC" unicode="&#x3bc;" horiz-adv-x="593" 
d="M151 10q-1 -12 -3 -27q-2 -13 -4 -29.5t-6 -34.5l-19 -96h-153l137 709h154l-63 -324q-9 -44 6 -69.5t57 -26.5q49 -1 80.5 29.5t42.5 84.5l59 306h154l-104 -532h-148l14 73h-2q-24 -38 -62.5 -60.5t-77.5 -22.5q-24 0 -39 6t-21 14h-2z" />
    <glyph glyph-name="pi" unicode="&#x3c0;" horiz-adv-x="666" 
d="M128 434h-72l19 98h611l-19 -98h-84l-52 -272q-5 -27 3.5 -39t29.5 -12q11 0 17.5 1t11.5 2h3l-22 -111q-14 -5 -32.5 -7.5t-39.5 -2.5q-34 0 -61 9t-43.5 28t-22 48.5t2.5 71.5l54 284h-152l-83 -434h-152z" />
    <glyph glyph-name="Wgrave" unicode="&#x1e80;" horiz-adv-x="977" 
d="M104 744h167l12 -274q2 -41 0.5 -94.5t-3.5 -102.5q-3 -57 -6 -117h2q16 58 34 113q15 48 32.5 99.5t34.5 90.5l120 285h158l9 -284q1 -39 1 -91t-1 -100q-1 -55 -2 -113h2q15 60 33 117q14 49 32.5 103t35.5 95l119 273h171l-345 -744h-163l-11 313q-1 35 0 79.5t3 85.5
q2 48 5 96h-2l-30 -96q-13 -41 -28.5 -85.5t-29.5 -79.5l-133 -313h-163zM446 916h172l28 -131h-109z" />
    <glyph glyph-name="wgrave" unicode="&#x1e81;" horiz-adv-x="806" 
d="M59 532h153l13 -203q2 -26 3 -55t1 -55v-59h2q9 28 19 56q8 24 19 53t23 55l91 208h131l17 -201q2 -26 3 -55.5t2 -55.5q1 -31 2 -61h2q7 28 16 56q8 24 18.5 52.5t22.5 54.5l97 210h157l-265 -532h-145l-14 213q-2 24 -1.5 52.5t0.5 54.5q0 30 1 60h-2q-11 -29 -22 -57
q-10 -24 -21.5 -52t-22.5 -52l-99 -219h-143zM309 773h172l38 -161h-109z" />
    <glyph glyph-name="Wacute" unicode="&#x1e82;" horiz-adv-x="977" 
d="M104 744h167l12 -274q2 -41 0.5 -94.5t-3.5 -102.5q-3 -57 -6 -117h2q16 58 34 113q15 48 32.5 99.5t34.5 90.5l120 285h158l9 -284q1 -39 1 -91t-1 -100q-1 -55 -2 -113h2q15 60 33 117q14 49 32.5 103t35.5 95l119 273h171l-345 -744h-163l-11 313q-1 35 0 79.5t3 85.5
q2 48 5 96h-2l-30 -96q-13 -41 -28.5 -85.5t-29.5 -79.5l-133 -313h-163zM571 916h182l-128 -131h-115z" />
    <glyph glyph-name="wacute" unicode="&#x1e83;" horiz-adv-x="806" 
d="M59 532h153l13 -203q2 -26 3 -55t1 -55v-59h2q9 28 19 56q8 24 19 53t23 55l91 208h131l17 -201q2 -26 3 -55.5t2 -55.5q1 -31 2 -61h2q7 28 16 56q8 24 18.5 52.5t22.5 54.5l97 210h157l-265 -532h-145l-14 213q-2 24 -1.5 52.5t0.5 54.5q0 30 1 60h-2q-11 -29 -22 -57
q-10 -24 -21.5 -52t-22.5 -52l-99 -219h-143zM471 773h182l-143 -161h-115z" />
    <glyph glyph-name="Wdieresis" unicode="&#x1e84;" horiz-adv-x="977" 
d="M104 744h167l12 -274q2 -41 0.5 -94.5t-3.5 -102.5q-3 -57 -6 -117h2q16 58 34 113q15 48 32.5 99.5t34.5 90.5l120 285h158l9 -284q1 -39 1 -91t-1 -100q-1 -55 -2 -113h2q15 60 33 117q14 49 32.5 103t35.5 95l119 273h171l-345 -744h-163l-11 313q-1 35 0 79.5t3 85.5
q2 48 5 96h-2l-30 -96q-13 -41 -28.5 -85.5t-29.5 -79.5l-133 -313h-163zM654 919h150l-26 -134h-150zM413 919h151l-26 -134h-151z" />
    <glyph glyph-name="wdieresis" unicode="&#x1e85;" horiz-adv-x="806" 
d="M59 532h153l13 -203q2 -26 3 -55t1 -55v-59h2q9 28 19 56q8 24 19 53t23 55l91 208h131l17 -201q2 -26 3 -55.5t2 -55.5q1 -31 2 -61h2q7 28 16 56q8 24 18.5 52.5t22.5 54.5l97 210h157l-265 -532h-145l-14 213q-2 24 -1.5 52.5t0.5 54.5q0 30 1 60h-2q-11 -29 -22 -57
q-10 -24 -21.5 -52t-22.5 -52l-99 -219h-143zM538 745h145l-27 -138h-145zM300 745h145l-27 -138h-145z" />
    <glyph glyph-name="Ygrave" unicode="&#x1ef2;" horiz-adv-x="692" 
d="M265 278l-158 466h176l48 -156q8 -26 15 -56.5t13 -57.5q7 -32 13 -63h2q17 31 35 63q15 27 34 57.5t36 56.5l110 156h183l-339 -462l-55 -282h-167zM307 916h172l28 -131h-109z" />
    <glyph glyph-name="ygrave" unicode="&#x1ef3;" horiz-adv-x="547" 
d="M79 -178h-17.5t-33.5 0.5t-33.5 1t-16.5 0.5l23 120h5h8t17 -0.5t17 -0.5h10q36 0 56.5 15t28.5 42q3 13 1.5 42t-7.5 65l-79 425h156l27 -199q4 -29 6.5 -62.5t4.5 -62.5q2 -33 2 -66h2q12 31 24 64q11 27 24.5 59t27.5 60l104 207h158l-293 -545q-25 -46 -48.5 -77.5
t-49.5 -51t-56.5 -28t-67.5 -8.5zM175 773h172l38 -161h-109z" />
    <glyph glyph-name="uni2009" unicode="&#x2009;" horiz-adv-x="110" 
 />
    <glyph glyph-name="endash" unicode="&#x2013;" horiz-adv-x="500" 
d="M65 331h401l-26 -133h-401z" />
    <glyph glyph-name="emdash" unicode="&#x2014;" horiz-adv-x="1000" 
d="M115 331h800l-27 -133h-799z" />
    <glyph glyph-name="quoteleft" unicode="&#x2018;" horiz-adv-x="224" 
d="M104 587q9 42 25.5 71.5t40 48t51.5 28t60 12.5l-11 -58q-31 -7 -54 -28.5t-33 -70.5v-2h65l-29 -147h-144z" />
    <glyph glyph-name="quoteright" unicode="&#x2019;" horiz-adv-x="224" 
d="M83 495q32 8 55 29.5t32 70.5l1 2h-65l29 147h143l-29 -146q-8 -42 -25 -71.5t-40 -48.5t-51.5 -28.5t-59.5 -11.5z" />
    <glyph glyph-name="quotesinglbase" unicode="&#x201a;" horiz-adv-x="224" 
d="M-32 -102q32 8 54.5 29.5t32.5 70.5v2h-65l29 147h144l-29 -146q-8 -42 -25 -71.5t-40.5 -48.5t-52 -28.5t-59.5 -11.5z" />
    <glyph glyph-name="quotedblleft" unicode="&#x201c;" horiz-adv-x="431" 
d="M104 587q9 42 25.5 71.5t40 48t51.5 28t60 12.5l-11 -58q-31 -7 -54 -28.5t-33 -70.5v-2h65l-29 -147h-144zM312 587q8 42 25 71.5t40 48t51 28t60 12.5l-10 -58q-32 -7 -55 -28.5t-32 -70.5l-1 -2h65l-29 -147h-143z" />
    <glyph glyph-name="quotedblright" unicode="&#x201d;" horiz-adv-x="431" 
d="M291 495q31 8 54 29.5t33 70.5v2h-65l29 147h144l-29 -146q-9 -42 -25.5 -71.5t-40 -48.5t-52 -28.5t-59.5 -11.5zM83 495q32 8 55 29.5t32 70.5l1 2h-65l29 147h143l-29 -146q-8 -42 -25 -71.5t-40 -48.5t-51.5 -28.5t-59.5 -11.5z" />
    <glyph glyph-name="quotedblbase" unicode="&#x201e;" horiz-adv-x="432" 
d="M175 -102q32 8 54.5 29.5t32.5 70.5v2h-65l30 147h143l-29 -146q-8 -42 -25 -71.5t-40.5 -48.5t-52 -28.5t-59.5 -11.5zM-32 -102q32 8 54.5 29.5t32.5 70.5v2h-65l29 147h144l-29 -146q-8 -42 -25 -71.5t-40.5 -48.5t-52 -28.5t-59.5 -11.5z" />
    <glyph glyph-name="dagger" unicode="&#x2020;" horiz-adv-x="616" 
d="M98 537h181l41 207h164l-41 -207h183l-25 -127h-182l-108 -553h-164l108 553h-182z" />
    <glyph glyph-name="daggerdbl" unicode="&#x2021;" horiz-adv-x="616" 
d="M419 410l-43 -219h183l-25 -128h-183l-40 -206h-164l40 206h-182l25 128h182l43 219h-182l25 127h181l41 207h164l-41 -207h183l-25 -127h-182z" />
    <glyph glyph-name="bullet" unicode="&#x2022;" horiz-adv-x="389" 
d="M196 183q-30 0 -57 12t-47 32t-32 47.5t-12 58.5t12 58.5t32 48.5t47 33t57 12q31 0 58 -12t47 -33t32 -48.5t12 -58.5t-12 -58.5t-32 -47.5t-47 -32t-58 -12z" />
    <glyph glyph-name="ellipsis" unicode="&#x2026;" horiz-adv-x="808" 
d="M25 164h164l-32 -164h-164zM304 164h164l-32 -164h-164zM583 164h164l-32 -164h-164z" />
    <glyph glyph-name="perthousand" unicode="&#x2030;" horiz-adv-x="1322" 
d="M673 712h92l-489 -712h-92zM244 311q-36 0 -67 12t-53.5 34.5t-35 55t-12.5 73.5q0 53 16 97.5t43.5 76.5t65 49.5t80.5 17.5q76 0 121 -46.5t45 -129.5q0 -53 -16 -97t-43.5 -75.5t-64.5 -49.5t-79 -18zM246 395q21 0 37 15.5t27.5 40.5t17.5 56t6 62q0 35 -13.5 56
t-41.5 21q-21 0 -37 -15.5t-27.5 -40.5t-17.5 -56t-6 -62q0 -35 13 -56t42 -21zM669 -18q-36 0 -67 12t-53.5 34.5t-35 55t-12.5 73.5q0 53 16 97.5t43.5 76.5t65 50t80.5 18q76 0 121 -47t45 -130q0 -53 -16 -97t-43.5 -75.5t-64.5 -49.5t-79 -18zM671 66q21 0 37 15.5
t27.5 40.5t17.5 56.5t6 62.5q0 35 -13.5 55.5t-41.5 20.5q-21 0 -37 -15.5t-27.5 -40.5t-17.5 -56t-6 -62q0 -35 13 -56t42 -21zM1080 -18q-36 0 -67 12t-53.5 34.5t-35 55t-12.5 73.5q0 53 16 97.5t43.5 76.5t65 50t80.5 18q76 0 121.5 -47t45.5 -130q0 -53 -16 -97
t-44 -75.5t-65 -49.5t-79 -18zM1082 66q21 0 37 15.5t27.5 40.5t17.5 56.5t6 62.5q0 35 -13.5 55.5t-41.5 20.5q-21 0 -37 -15.5t-27.5 -40.5t-17.5 -56t-6 -62q0 -35 13 -56t42 -21z" />
    <glyph glyph-name="minute" unicode="&#x2032;" horiz-adv-x="237" 
d="M161 744h134l-91 -286h-134z" />
    <glyph glyph-name="second" unicode="&#x2033;" horiz-adv-x="435" 
d="M358 744h135l-90 -286h-135zM161 744h134l-91 -286h-134z" />
    <glyph glyph-name="guilsinglleft" unicode="&#x2039;" horiz-adv-x="296" 
d="M47 197l28 147l211 159l-30 -146l-124 -92v-2l87 -100l-26 -138z" />
    <glyph glyph-name="guilsinglright" unicode="&#x203a;" horiz-adv-x="297" 
d="M43 172l124 92v2l-87 100l26 137l146 -171l-28 -147l-211 -160z" />
    <glyph glyph-name="fraction" unicode="&#x2044;" horiz-adv-x="265" 
d="M364 744h104l-648 -874h-103z" />
    <glyph glyph-name="uni2070" unicode="&#x2070;" horiz-adv-x="461" 
d="M245 275q-88 0 -137 49.5t-49 135.5q0 63 18.5 116.5t51.5 92.5t77.5 61t96.5 22q87 0 135.5 -45t48.5 -142q0 -62 -17 -115t-48.5 -92t-76.5 -61t-100 -22zM249 371q27 0 48 18.5t34.5 47t20.5 64t7 70.5q0 86 -59 86q-27 0 -48 -18.5t-35.5 -48t-22 -65t-7.5 -69.5
q0 -42 16.5 -63.5t45.5 -21.5z" />
    <glyph glyph-name="uni2074" unicode="&#x2074;" horiz-adv-x="434" 
d="M256 385h-218l22 109l262 256h125l-54 -278h64l-17 -87h-63l-19 -99h-121zM138 470q13 0 25 1q11 0 23.5 0.5t23.5 0.5h63l18 91q2 11 5 24.5t6 24.5q4 13 8 27h-2q-10 -12 -21 -24q-9 -11 -20 -22.5t-21 -21.5l-40 -38q-11 -11 -23 -21.5t-22 -19.5q-11 -11 -23 -20v-2z
" />
    <glyph glyph-name="uni2075" unicode="&#x2075;" horiz-adv-x="413" 
d="M230 275q-40 0 -73 10t-58 28.5t-39.5 45.5t-17.5 60h122q4 -22 21.5 -35.5t45.5 -13.5q32 0 53.5 21t21.5 57q0 33 -17 48t-42 15q-20 1 -36.5 -6.5t-27.5 -20.5h-112l87 260h287l-17 -95h-202l-30 -87h3q14 14 36.5 24.5t59.5 10.5q22 0 45.5 -8t42.5 -25t31.5 -45
t12.5 -68q0 -41 -14 -73.5t-40 -55t-62.5 -35t-80.5 -12.5z" />
    <glyph glyph-name="uni2076" unicode="&#x2076;" horiz-adv-x="422" 
d="M248 275q-68 0 -114 31q-33 24 -52.5 66t-19.5 103q0 31 6.5 63.5t19 62.5t31 56.5t43.5 47.5q28 23 61 36t81 13q73 0 113.5 -34.5t45.5 -85.5h-115q-4 14 -14 24t-34 10q-35 0 -63 -28.5t-43 -75.5h2q17 18 41.5 28.5t58.5 10.5q29 0 55.5 -10.5t46 -29.5t31 -46
t11.5 -61q0 -40 -15 -73.5t-41 -57.5t-61 -37t-75 -13zM245 368q32 0 56 22.5t24 61.5q0 31 -19 49.5t-47 18.5q-32 0 -57 -22t-25 -60q0 -30 18.5 -50t49.5 -20z" />
    <glyph glyph-name="uni2077" unicode="&#x2077;" horiz-adv-x="391" 
d="M84 285q12 63 37 118t56.5 100t66 79.5t65.5 58.5v3l-44 -2q-19 -1 -41.5 -1.5t-42.5 -0.5h-95l18 104h339l-16 -94q-36 -31 -70 -70.5t-61.5 -86.5t-48.5 -99.5t-32 -108.5h-131v0z" />
    <glyph glyph-name="uni2078" unicode="&#x2078;" horiz-adv-x="425" 
d="M238 273q-43 0 -78 10.5t-59.5 29t-38 43.5t-13.5 54q0 53 30 82.5t77 42.5v2q-29 15 -41.5 36.5t-12.5 47.5q0 31 13.5 55.5t37.5 41.5t56.5 26t69.5 9q80 0 127 -32t47 -92q0 -34 -20.5 -63t-67.5 -41v-3q35 -14 52.5 -41.5t17.5 -57.5q0 -37 -15 -65t-41.5 -47
t-62.5 -28.5t-78 -9.5zM275 562q29 0 46 17t17 43q0 23 -15.5 37.5t-44.5 14.5q-28 0 -45.5 -18t-17.5 -44q0 -23 16.5 -36.5t43.5 -13.5zM239 363q29 0 51 18t22 54q0 26 -19 40.5t-46 14.5q-29 0 -51.5 -17.5t-22.5 -51.5q0 -29 18.5 -43.5t47.5 -14.5z" />
    <glyph glyph-name="uni2079" unicode="&#x2079;" horiz-adv-x="422" 
d="M211 275q-74 0 -118 34t-49 91h118q2 -14 13.5 -26.5t40.5 -12.5q12 0 26 4.5t27.5 16.5t25 32t19.5 52h-3q-37 -40 -97 -40q-31 0 -58 10t-47 29t-31.5 45.5t-11.5 58.5q0 42 15.5 76t42.5 58t63.5 37.5t79.5 13.5q41 0 69 -9t49 -25q28 -21 45.5 -58.5t17.5 -101.5
q0 -68 -22.5 -131.5t-71.5 -106.5q-29 -26 -63.5 -36.5t-79.5 -10.5zM250 510q34 0 58 22t24 64q0 32 -18 49t-47 17q-35 0 -59 -23.5t-24 -62.5q0 -29 17 -47.5t49 -18.5z" />
    <glyph glyph-name="uni2080" unicode="&#x2080;" horiz-adv-x="461" 
d="M167 -171q-88 0 -137 49.5t-49 135.5q0 63 18.5 116.5t51.5 92.5t77.5 61t96.5 22q87 0 135.5 -45t48.5 -142q0 -62 -17 -115t-48.5 -92t-76.5 -61t-100 -22zM171 -75q27 0 48 18.5t34.5 47t20.5 64t7 70.5q0 86 -59 86q-27 0 -48 -18.5t-35.5 -48t-22 -65t-7.5 -69.5
q0 -42 16.5 -63.5t45.5 -21.5z" />
    <glyph glyph-name="uni2081" unicode="&#x2081;" horiz-adv-x="291" 
d="M93 121h-104l16 83q56 2 92.5 25t56.5 74h101l-90 -463h-126z" />
    <glyph glyph-name="uni2082" unicode="&#x2082;" horiz-adv-x="407" 
d="M-60 -160q6 53 27 85.5t48 55.5q42 35 87.5 59.5t80.5 45.5q27 17 41.5 35t14.5 41q0 21 -12.5 35.5t-38.5 14.5q-14 0 -25.5 -3.5t-21.5 -12.5q-11 -11 -17 -28t-9 -36h-119q7 42 16.5 67.5t30.5 50.5q23 26 58.5 42t87.5 16q45 0 78 -11t54 -30.5t31 -45t10 -55.5
q0 -43 -19 -72t-49 -51q-20 -15 -43 -27.5t-45.5 -24t-43 -23.5t-35.5 -25v-1h190l-21 -102h-356v0z" />
    <glyph glyph-name="uni2083" unicode="&#x2083;" horiz-adv-x="424" 
d="M167 -171q-53 0 -90 13t-61 38q-25 24 -34 57.5t-7 61.5h116q0 -14 3 -27.5t11.5 -25t22.5 -18.5t37 -7q32 0 49 18.5t17 41.5q0 29 -16.5 42.5t-45.5 13.5h-27l15 84h22q32 0 51.5 12t19.5 41q0 20 -13.5 33t-39.5 13q-35 0 -52.5 -19t-23.5 -47h-116q11 72 60.5 113
t134.5 41q33 0 63.5 -7t54.5 -22t38.5 -38t14.5 -55q0 -82 -95 -106v-1q34 -9 55.5 -36t21.5 -60q0 -39 -14.5 -68t-40 -48t-59 -28.5t-72.5 -9.5z" />
    <glyph glyph-name="uni2084" unicode="&#x2084;" horiz-adv-x="434" 
d="M178 -61h-218l22 109l262 256h125l-54 -278h64l-17 -87h-63l-19 -99h-121zM60 24q13 0 25 1q11 0 23.5 0.5t23.5 0.5h63l18 91q2 11 5 24.5t6 24.5q4 13 8 27h-2q-10 -12 -21 -24q-9 -11 -20 -22.5t-21 -21.5l-40 -38q-11 -11 -23 -21.5t-22 -19.5q-11 -11 -23 -20v-2z
" />
    <glyph glyph-name="uni2085" unicode="&#x2085;" horiz-adv-x="413" 
d="M152 -171q-40 0 -73 10t-58 28.5t-39.5 45.5t-17.5 60h122q4 -22 21.5 -35.5t45.5 -13.5q32 0 53.5 21t21.5 57q0 33 -17 48t-42 15q-20 1 -36.5 -6.5t-27.5 -20.5h-112l87 260h287l-17 -95h-202l-30 -87h3q14 14 36.5 24.5t59.5 10.5q22 0 45.5 -8t42.5 -25t31.5 -45
t12.5 -68q0 -41 -14 -73.5t-40 -55t-62.5 -35t-80.5 -12.5z" />
    <glyph glyph-name="uni2086" unicode="&#x2086;" horiz-adv-x="422" 
d="M170 -171q-68 0 -114 31q-33 24 -52.5 66t-19.5 103q0 31 6.5 63.5t19 62.5t31 56.5t43.5 47.5q28 23 61 36t81 13q73 0 113.5 -34.5t45.5 -85.5h-115q-4 14 -14 24t-34 10q-35 0 -63 -28.5t-43 -75.5h2q17 18 41.5 28.5t58.5 10.5q29 0 55.5 -10.5t46 -29.5t31 -46
t11.5 -61q0 -40 -15 -73.5t-41 -57.5t-61 -37t-75 -13zM167 -78q32 0 56 22.5t24 61.5q0 31 -19 49.5t-47 18.5q-32 0 -57 -22t-25 -60q0 -30 18.5 -50t49.5 -20z" />
    <glyph glyph-name="uni2087" unicode="&#x2087;" horiz-adv-x="391" 
d="M6 -161q12 63 37 118t56.5 100t66 79.5t65.5 58.5v3l-44 -2q-19 -1 -41.5 -1.5t-42.5 -0.5h-95l18 104h339l-16 -94q-36 -31 -70 -70.5t-61.5 -86.5t-48.5 -99.5t-32 -108.5h-131v0z" />
    <glyph glyph-name="uni2088" unicode="&#x2088;" horiz-adv-x="425" 
d="M160 -173q-43 0 -78 10.5t-59.5 29t-38 43.5t-13.5 54q0 53 30 82.5t77 42.5v2q-29 15 -41.5 36.5t-12.5 47.5q0 31 13.5 55.5t37.5 41.5t56.5 26t69.5 9q80 0 127 -32t47 -92q0 -34 -20.5 -63t-67.5 -41v-3q35 -14 52.5 -41.5t17.5 -57.5q0 -37 -15 -65t-41.5 -47
t-62.5 -28.5t-78 -9.5zM197 116q29 0 46 17t17 43q0 23 -15.5 37.5t-44.5 14.5q-28 0 -45.5 -18t-17.5 -44q0 -23 16.5 -36.5t43.5 -13.5zM161 -83q29 0 51 18t22 54q0 26 -19 40.5t-46 14.5q-29 0 -51.5 -17.5t-22.5 -51.5q0 -29 18.5 -43.5t47.5 -14.5z" />
    <glyph glyph-name="uni2089" unicode="&#x2089;" horiz-adv-x="422" 
d="M133 -171q-74 0 -118 34t-49 91h118q2 -14 13.5 -26.5t40.5 -12.5q12 0 26 4.5t27.5 16.5t25 32t19.5 52h-3q-37 -40 -97 -40q-31 0 -58 10t-47 29t-31.5 45.5t-11.5 58.5q0 42 15.5 76t42.5 58t63.5 37.5t79.5 13.5q41 0 69 -9t49 -25q28 -21 45.5 -58.5t17.5 -101.5
q0 -68 -22.5 -131.5t-71.5 -106.5q-29 -26 -63.5 -36.5t-79.5 -10.5zM172 64q34 0 58 22t24 64q0 32 -18 49t-47 17q-35 0 -59 -23.5t-24 -62.5q0 -29 17 -47.5t49 -18.5z" />
    <glyph glyph-name="Euro" unicode="&#x20ac;" horiz-adv-x="674" 
d="M58 453h54q18 63 49.5 113.5t73 86t92.5 55t109 19.5q63 0 109.5 -18t78 -50.5t48.5 -78t20 -100.5h-158q-4 57 -27.5 90t-74.5 33q-27 0 -50.5 -11.5t-43 -31.5t-35 -47.5t-26.5 -59.5h161l-13 -64h-165q-4 -19 -6.5 -37.5t-3.5 -37.5h161l-13 -63h-149q4 -73 32 -106.5
t82 -33.5t87.5 36.5t51.5 101.5h156q-12 -60 -38 -109t-64 -84t-88 -54t-109 -19q-119 0 -190.5 69t-79.5 199h-71l13 63h58q1 20 3 38.5t5 36.5h-52z" />
    <glyph glyph-name="uni2113" unicode="&#x2113;" horiz-adv-x="428" 
d="M132 588q9 45 27.5 76t44 50.5t57 28.5t65.5 9q66 0 102.5 -37.5t36.5 -110.5q0 -65 -18 -118t-51.5 -97t-80.5 -80t-105 -66l-8 -40q-9 -47 3 -65t52 -18q18 0 32 3t28 7h3l-24 -120q-18 -7 -44 -11.5t-58 -4.5q-41 0 -72.5 11t-51 33.5t-25 57.5t6.5 83l1 4
q-13 -5 -29 -9.5t-29 -7.5l17 91q14 4 30.5 9t28.5 10zM231 350q15 10 44 39q39 41 62 97t23 119q0 25 -8.5 35.5t-24.5 10.5q-14 0 -28 -12t-21 -44z" />
    <glyph glyph-name="trademark" unicode="&#x2122;" horiz-adv-x="946" 
d="M537 744h145l12 -117q2 -20 2.5 -45t1.5 -47q1 -26 1 -52h2q9 26 20 52q8 22 18.5 46.5t20.5 44.5l57 118h154l-75 -382h-99l22 113q5 23 11 51.5t11 53.5q6 29 13 57h-3q-12 -27 -23 -54q-10 -23 -22.5 -49.5t-23.5 -48.5l-63 -123h-86l-12 123q-2 23 -3.5 49.5
t-3.5 49.5q-2 26 -3 53h-3q-6 -28 -10 -57q-5 -25 -9 -53.5t-9 -51.5l-22 -113h-96zM145 744h328l-18 -90h-110l-57 -292h-109l57 292h-109z" />
    <glyph glyph-name="Omega" unicode="&#x2126;" horiz-adv-x="768" 
d="M19 126h126v2q-24 15 -41 37.5t-28 49.5t-16 57.5t-5 61.5q0 94 29.5 171.5t81.5 133.5t123.5 87t155.5 31q73 0 132.5 -21t101.5 -62t64.5 -101.5t22.5 -139.5q0 -58 -14.5 -106.5t-37.5 -87t-53 -66.5t-61 -45v-2h110l-24 -126h-315l24 124q46 7 83.5 34t64.5 67.5
t41.5 91.5t14.5 105q0 100 -42.5 152t-115.5 52q-54 0 -95 -24t-69.5 -65t-43 -96t-14.5 -117q0 -168 107 -199l-24 -125h-307z" />
    <glyph glyph-name="estimated" unicode="&#x212e;" horiz-adv-x="751" 
d="M216 364v-275q32 -23 76.5 -36.5t102.5 -13.5q109 0 172 49t92 137h58q-12 -52 -39 -95.5t-67.5 -75.5t-94.5 -50t-121 -18q-87 0 -155 28.5t-115 80t-71.5 122.5t-24.5 156t27 156t75 122t114 79t144 28q66 0 121 -18.5t95 -53.5q66 -56 91.5 -136.5t24.5 -185.5h-505z
M389 709q-54 0 -98 -14.5t-75 -37.5v-244h321v258q-27 16 -64.5 27t-83.5 11z" />
    <glyph glyph-name="onethird" unicode="&#x2153;" horiz-adv-x="965" 
d="M174 567h-104l16 83q56 2 92.5 25t56.5 74h101l-90 -463h-126zM705 744h104l-648 -874h-103zM689 -121q-53 0 -90 13t-61 38q-25 24 -34 57.5t-7 61.5h116q0 -14 3 -27.5t11.5 -25t22.5 -18.5t37 -7q32 0 49 18.5t17 41.5q0 29 -16.5 42.5t-45.5 13.5h-27l15 84h22
q32 0 51.5 12t19.5 41q0 20 -13.5 33t-39.5 13q-35 0 -52.5 -19t-23.5 -47h-116q11 72 60.5 113t134.5 41q33 0 63.5 -7t54.5 -22t38.5 -38t14.5 -55q0 -82 -95 -106v-1q34 -9 55.5 -36t21.5 -60q0 -39 -14.5 -68t-40 -48t-59 -28.5t-72.5 -9.5z" />
    <glyph glyph-name="twothirds" unicode="&#x2154;" horiz-adv-x="1053" 
d="M21 286q6 53 27 85.5t48 55.5q42 35 87.5 59.5t80.5 45.5q27 17 41.5 35t14.5 41q0 21 -12.5 35.5t-38.5 14.5q-14 0 -25.5 -3.5t-21.5 -12.5q-11 -11 -17 -28t-9 -36h-119q7 42 16.5 67.5t30.5 50.5q23 26 58.5 42t87.5 16q45 0 78 -11t54 -30.5t31 -45t10 -55.5
q0 -43 -19 -72t-49 -51q-20 -15 -43 -27.5t-45.5 -24t-43 -23.5t-35.5 -25v-1h190l-21 -102h-356zM809 744h104l-648 -874h-103zM777 -121q-53 0 -90 13t-61 38q-25 24 -34 57.5t-7 61.5h116q0 -14 3 -27.5t11.5 -25t22.5 -18.5t37 -7q32 0 49 18.5t17 41.5q0 29 -16.5 42.5
t-45.5 13.5h-27l15 84h22q32 0 51.5 12t19.5 41q0 20 -13.5 33t-39.5 13q-35 0 -52.5 -19t-23.5 -47h-116q11 72 60.5 113t134.5 41q33 0 63.5 -7t54.5 -22t38.5 -38t14.5 -55q0 -82 -95 -106v-1q34 -9 55.5 -36t21.5 -60q0 -39 -14.5 -68t-40 -48t-59 -28.5t-72.5 -9.5z
" />
    <glyph glyph-name="oneeighth" unicode="&#x215b;" horiz-adv-x="943" 
d="M174 567h-104l16 83q56 2 92.5 25t56.5 74h101l-90 -463h-126zM695 744h104l-648 -874h-103zM648 -123q-43 0 -78 10.5t-59.5 29t-38 43.5t-13.5 54q0 53 30 82.5t77 42.5v2q-29 15 -41.5 36.5t-12.5 47.5q0 31 13.5 55.5t37.5 41.5t56.5 26t69.5 9q80 0 127 -32t47 -92
q0 -34 -20.5 -63t-67.5 -41v-3q35 -14 52.5 -41.5t17.5 -57.5q0 -37 -15 -65t-41.5 -47t-62.5 -28.5t-78 -9.5zM685 166q29 0 46 17t17 43q0 23 -15.5 37.5t-44.5 14.5q-28 0 -45.5 -18t-17.5 -44q0 -23 16.5 -36.5t43.5 -13.5zM649 -33q29 0 51 18t22 54q0 26 -19 40.5
t-46 14.5q-29 0 -51.5 -17.5t-22.5 -51.5q0 -29 18.5 -43.5t47.5 -14.5z" />
    <glyph glyph-name="threeeighths" unicode="&#x215c;" horiz-adv-x="1022" 
d="M248 275q-53 0 -90 13t-61 38q-25 24 -34 57.5t-7 61.5h116q0 -14 3 -27.5t11.5 -25t22.5 -18.5t37 -7q32 0 49 18.5t17 41.5q0 29 -16.5 42.5t-45.5 13.5h-27l15 84h22q32 0 51.5 12t19.5 41q0 20 -13.5 33t-39.5 13q-35 0 -52.5 -19t-23.5 -47h-116q11 72 60.5 113
t134.5 41q33 0 63.5 -7t54.5 -22t38.5 -38t14.5 -55q0 -82 -95 -106v-1q34 -9 55.5 -36t21.5 -60q0 -39 -14.5 -68t-40 -48t-59 -28.5t-72.5 -9.5zM775 744h104l-648 -874h-103zM727 -123q-43 0 -78 10.5t-59.5 29t-38 43.5t-13.5 54q0 53 30 82.5t77 42.5v2
q-29 15 -41.5 36.5t-12.5 47.5q0 31 13.5 55.5t37.5 41.5t56.5 26t69.5 9q80 0 127 -32t47 -92q0 -34 -20.5 -63t-67.5 -41v-3q35 -14 52.5 -41.5t17.5 -57.5q0 -37 -15 -65t-41.5 -47t-62.5 -28.5t-78 -9.5zM764 166q29 0 46 17t17 43q0 23 -15.5 37.5t-44.5 14.5
q-28 0 -45.5 -18t-17.5 -44q0 -23 16.5 -36.5t43.5 -13.5zM728 -33q29 0 51 18t22 54q0 26 -19 40.5t-46 14.5q-29 0 -51.5 -17.5t-22.5 -51.5q0 -29 18.5 -43.5t47.5 -14.5z" />
    <glyph glyph-name="fiveeighths" unicode="&#x215d;" horiz-adv-x="999" 
d="M233 275q-40 0 -73 10t-58 28.5t-39.5 45.5t-17.5 60h122q4 -22 21.5 -35.5t45.5 -13.5q32 0 53.5 21t21.5 57q0 33 -17 48t-42 15q-20 1 -36.5 -6.5t-27.5 -20.5h-112l87 260h287l-17 -95h-202l-30 -87h3q14 14 36.5 24.5t59.5 10.5q22 0 45.5 -8t42.5 -25t31.5 -45
t12.5 -68q0 -41 -14 -73.5t-40 -55t-62.5 -35t-80.5 -12.5zM759 744h104l-648 -874h-103zM704 -123q-43 0 -78 10.5t-59.5 29t-38 43.5t-13.5 54q0 53 30 82.5t77 42.5v2q-29 15 -41.5 36.5t-12.5 47.5q0 31 13.5 55.5t37.5 41.5t56.5 26t69.5 9q80 0 127 -32t47 -92
q0 -34 -20.5 -63t-67.5 -41v-3q35 -14 52.5 -41.5t17.5 -57.5q0 -37 -15 -65t-41.5 -47t-62.5 -28.5t-78 -9.5zM741 166q29 0 46 17t17 43q0 23 -15.5 37.5t-44.5 14.5q-28 0 -45.5 -18t-17.5 -44q0 -23 16.5 -36.5t43.5 -13.5zM705 -33q29 0 51 18t22 54q0 26 -19 40.5
t-46 14.5q-29 0 -51.5 -17.5t-22.5 -51.5q0 -29 18.5 -43.5t47.5 -14.5z" />
    <glyph glyph-name="seveneighths" unicode="&#x215e;" horiz-adv-x="969" 
d="M87 285q12 63 37 118t56.5 100t66 79.5t65.5 58.5v3l-44 -2q-19 -1 -41.5 -1.5t-42.5 -0.5h-95l18 104h339l-16 -94q-36 -31 -70 -70.5t-61.5 -86.5t-48.5 -99.5t-32 -108.5h-131zM700 744h104l-648 -874h-103zM674 -123q-43 0 -78 10.5t-59.5 29t-38 43.5t-13.5 54
q0 53 30 82.5t77 42.5v2q-29 15 -41.5 36.5t-12.5 47.5q0 31 13.5 55.5t37.5 41.5t56.5 26t69.5 9q80 0 127 -32t47 -92q0 -34 -20.5 -63t-67.5 -41v-3q35 -14 52.5 -41.5t17.5 -57.5q0 -37 -15 -65t-41.5 -47t-62.5 -28.5t-78 -9.5zM711 166q29 0 46 17t17 43
q0 23 -15.5 37.5t-44.5 14.5q-28 0 -45.5 -18t-17.5 -44q0 -23 16.5 -36.5t43.5 -13.5zM675 -33q29 0 51 18t22 54q0 26 -19 40.5t-46 14.5q-29 0 -51.5 -17.5t-22.5 -51.5q0 -29 18.5 -43.5t47.5 -14.5z" />
    <glyph glyph-name="partialdiff" unicode="&#x2202;" horiz-adv-x="616" 
d="M416 446q-17 75 -75.5 116.5t-167.5 56.5v132q107 -8 184 -40t126.5 -86t73 -130t23.5 -173q0 -74 -18 -136t-54.5 -107t-92 -70t-130.5 -25q-61 0 -108 17.5t-79.5 49t-49.5 73.5t-17 92q0 59 19 109.5t53.5 87t83 57t107.5 20.5q38 0 69.5 -10.5t52.5 -33.5zM287 94
q32 0 56 15t39.5 39.5t23.5 55t8 62.5q0 54 -25 85t-73 31q-59 0 -93.5 -45.5t-34.5 -118.5q0 -57 25 -90.5t74 -33.5z" />
    <glyph glyph-name="Delta" unicode="&#x2206;" horiz-adv-x="711" 
d="M-1 112l359 632h185l114 -632l-21 -112h-658zM484 130l-45 275q-6 36 -9 71.5t-5 64.5q-2 33 -1 64h-2q-10 -27 -22 -57q-11 -26 -25.5 -57.5t-31.5 -63.5l-162 -297h303z" />
    <glyph glyph-name="product" unicode="&#x220f;" horiz-adv-x="764" 
d="M695 744v-848h-172v703h-283v-703h-171v848h626z" />
    <glyph glyph-name="summation" unicode="&#x2211;" horiz-adv-x="672" 
d="M49 -104v143l256 289v2l-256 279v135h571v-134h-376v-2l228 -243v-67l-235 -260v-2h393v-140h-581z" />
    <glyph glyph-name="minus" unicode="&#x2212;" horiz-adv-x="595" 
d="M81 403h491l-24 -122h-491z" />
    <glyph glyph-name="uni2215" unicode="&#x2215;" horiz-adv-x="265" 
d="M364 744h104l-648 -874h-103z" />
    <glyph glyph-name="uni2219" unicode="&#x2219;" horiz-adv-x="253" 
d="M74 412h164l-32 -165h-164z" />
    <glyph glyph-name="radical" unicode="&#x221a;" horiz-adv-x="683" 
d="M18 345h185l56 -143q10 -26 18.5 -50.5t14.5 -44.5q7 -23 13 -43h2q5 20 11 43q5 20 11.5 44.5t14.5 50.5l170 542h160l-278 -848h-168l-134 315h-76v134z" />
    <glyph glyph-name="infinity" unicode="&#x221e;" horiz-adv-x="749" 
d="M194 127q-41 0 -72 15t-52 41t-32 60.5t-11 73.5t11 73.5t32.5 60.5t52.5 41t71 15q32 0 58.5 -9t48.5 -24t41 -35.5t36 -44.5q16 24 34.5 44.5t39.5 35.5t46.5 24t56.5 9q37 0 67.5 -13.5t52.5 -38t34.5 -60t12.5 -78.5q0 -44 -12.5 -79t-34.5 -59.5t-52.5 -38
t-67.5 -13.5q-62 0 -103 32.5t-74 81.5q-17 -24 -36 -45t-41 -36.5t-48.5 -24t-58.5 -8.5zM205 395q-32 0 -46.5 -23t-14.5 -55t14.5 -55.5t46.5 -23.5q31 0 54 24t41 54q-18 32 -41 55.5t-54 23.5zM544 238q32 0 47.5 23.5t15.5 55.5t-15.5 55t-47.5 23q-29 0 -50.5 -23.5
t-40.5 -55.5q19 -30 40.5 -54t50.5 -24z" />
    <glyph glyph-name="integral" unicode="&#x222b;" horiz-adv-x="387" 
d="M-1 -54h3q10 -2 20.5 -3t24.5 -1q33 0 49 12.5t16 47.5v585q0 93 44 134.5t133 41.5q22 0 47 -2.5t46 -8.5v-119h-2q-15 5 -41 5q-35 0 -52 -12.5t-17 -47.5v-586q0 -91 -43.5 -133.5t-132.5 -42.5q-23 0 -48.5 2.5t-46.5 7.5v120z" />
    <glyph glyph-name="approxequal" unicode="&#x2248;" horiz-adv-x="592" 
d="M441 356q-29 0 -58.5 5.5t-57.5 12t-53 12t-44 5.5q-36 0 -48 -42h-101q12 91 54 131t100 40q28 0 57.5 -6t57 -12.5t51.5 -12.5t42 -6q21 0 31 9.5t14 29.5h102q-10 -82 -45.5 -124t-101.5 -42zM398 136q-29 0 -58.5 5.5t-57.5 12t-53 12t-44 5.5q-37 0 -47 -42h-101
q11 91 53 131t100 40q28 0 58 -5.5t57.5 -12.5t51.5 -12.5t42 -5.5q21 0 30.5 9t13.5 29h102q-10 -81 -45.5 -123.5t-101.5 -42.5z" />
    <glyph glyph-name="notequal" unicode="&#x2260;" horiz-adv-x="592" 
d="M106 489h272l74 106h101l-74 -106h104l-24 -117h-161l-69 -99h213l-24 -117h-270l-73 -106h-102l73 106h-105l24 117h163l69 99h-215z" />
    <glyph glyph-name="lessequal" unicode="&#x2264;" horiz-adv-x="531" 
d="M29 120h419l-23 -120h-419zM64 304l29 151l446 130l-27 -135l-182 -46q-23 -6 -49 -11.5t-49 -10.5q-27 -5 -54 -11v-2q24 -7 49 -13q21 -5 45 -12t44 -13l162 -56l-26 -130z" />
    <glyph glyph-name="greaterequal" unicode="&#x2265;" horiz-adv-x="531" 
d="M429 0h-419l23 120h419zM512 428l-29 -151l-446 -130l27 135l182 46q22 5 48.5 11t49.5 11q27 5 54 11v2q-25 7 -50 13q-21 5 -44.5 11.5t-43.5 13.5l-162 56l26 130z" />
    <glyph glyph-name="uni24C5" unicode="&#x24c5;" horiz-adv-x="867" 
d="M455 -18q-80 0 -150 29t-121.5 81t-81 123t-29.5 154q0 84 29.5 155t81 122.5t121.5 81t150 29.5q81 0 150.5 -29.5t121.5 -81t81.5 -122.5t29.5 -155q0 -83 -29.5 -154t-81.5 -123t-121.5 -81t-150.5 -29zM455 32q69 0 128.5 25.5t102.5 70.5t67.5 107t24.5 134
q0 73 -24.5 134.5t-67.5 106.5t-102.5 70.5t-128.5 25.5t-128 -25.5t-102.5 -70.5t-68 -106.5t-24.5 -134.5q0 -72 24.5 -134t68 -107t102.5 -70.5t128 -25.5zM301 578h193q38 0 66 -10t48 -29q42 -39 42 -102q0 -61 -38.5 -100t-103.5 -39h-98v-138h-109v418zM410 381h73
q27 0 43 14.5t16 39.5q0 26 -15.5 41t-44.5 15h-72v-110z" />
    <glyph glyph-name="lozenge" unicode="&#x25ca;" horiz-adv-x="633" 
d="M610 371l-209 -371h-168l-210 372l209 372h168zM268 216q13 -25 22 -44t15 -33q7 -16 11 -28h2q4 12 11 28q11 29 36 77l80 152l-82 158q-13 24 -21.5 43t-14.5 33q-7 16 -12 28h-2q-5 -12 -11 -28q-6 -14 -14.5 -33t-21.5 -43l-81 -152z" />
    <glyph glyph-name="uniF001" unicode="&#xf001;" horiz-adv-x="634" 
d="M150 532l10 52q9 48 24.5 76.5t41.5 48.5q24 18 60.5 27t79.5 8q20 -1 40 -3t40 -7l-19 -108q-59 6 -84 -3.5t-32 -49.5l-8 -41h109l-19 -99h-109l-84 -433h-154l84 433h-76l19 99h77zM482 532h154l-104 -532h-153zM496 607l27 137h155l-27 -137h-155z" />
    <glyph glyph-name="uniF002" unicode="&#xf002;" horiz-adv-x="636" 
d="M160 584q9 49 25.5 77.5t42.5 48.5q22 17 55.5 25.5t74.5 8.5q21 0 43 -2.5t45 -7.5l-19 -108q-59 6 -84 -3.5t-32 -49.5l-8 -41h109l-19 -99h-109l-84 -433h-154l84 433h-76l19 99h77zM524 744h153l-145 -744h-153z" />
    <glyph glyph-name="uniF8FF" unicode="&#xf8ff;" horiz-adv-x="880" 
d="M68 745h745v-745h-745v745zM190 299h175v-176h150v176h175v149h-175v170h-150v-170h-175v-149z" />
    <glyph glyph-name="glyph326" horiz-adv-x="257" 
d="M-30 -181q-23 0 -46 3t-40 8l19 106h5q8 -1 15 -1.5t14 -0.5q28 1 42 11.5t20 40.5l106 546h154l-108 -558q-9 -45 -25.5 -75t-40 -48t-52.5 -25t-63 -7z" />
    <glyph glyph-name="glyph336" 
d="M32 -210q72 9 81 56h-66l20 103h149l-16 -81q-14 -69 -62 -99t-117 -32z" />
    <glyph glyph-name="zero.dnom" horiz-adv-x="461" 
d="M171 -121q-88 0 -137 49.5t-49 135.5q0 63 18.5 116.5t51.5 92.5t77.5 61t96.5 22q87 0 135.5 -45t48.5 -142q0 -62 -17 -115t-48.5 -92t-76.5 -61t-100 -22zM175 -25q27 0 48 18.5t34.5 47t20.5 64t7 70.5q0 86 -59 86q-27 0 -48 -18.5t-35.5 -48t-22 -65t-7.5 -69.5
q0 -42 16.5 -63.5t45.5 -21.5z" />
    <glyph glyph-name="one.dnom" horiz-adv-x="291" 
d="M97 171h-104l16 83q56 2 92.5 25t56.5 74h101l-90 -463h-126z" />
    <glyph glyph-name="two.dnom" horiz-adv-x="407" 
d="M-56 -110q6 53 27 85.5t48 55.5q42 35 87.5 59.5t80.5 45.5q27 17 41.5 35t14.5 41q0 21 -12.5 35.5t-38.5 14.5q-14 0 -25.5 -3.5t-21.5 -12.5q-11 -11 -17 -28t-9 -36h-119q7 42 16.5 67.5t30.5 50.5q23 26 58.5 42t87.5 16q45 0 78 -11t54 -30.5t31 -45t10 -55.5
q0 -43 -19 -72t-49 -51q-20 -15 -43 -27.5t-45.5 -24t-43 -23.5t-35.5 -25v-1h190l-21 -102h-356v0z" />
    <glyph glyph-name="three.dnom" horiz-adv-x="424" 
d="M171 -121q-53 0 -90 13t-61 38q-25 24 -34 57.5t-7 61.5h116q0 -14 3 -27.5t11.5 -25t22.5 -18.5t37 -7q32 0 49 18.5t17 41.5q0 29 -16.5 42.5t-45.5 13.5h-27l15 84h22q32 0 51.5 12t19.5 41q0 20 -13.5 33t-39.5 13q-35 0 -52.5 -19t-23.5 -47h-116q11 72 60.5 113
t134.5 41q33 0 63.5 -7t54.5 -22t38.5 -38t14.5 -55q0 -82 -95 -106v-1q34 -9 55.5 -36t21.5 -60q0 -39 -14.5 -68t-40 -48t-59 -28.5t-72.5 -9.5z" />
    <glyph glyph-name="four.dnom" horiz-adv-x="434" 
d="M182 -11h-218l22 109l262 256h125l-54 -278h64l-17 -87h-63l-19 -99h-121zM64 74q13 0 25 1q11 0 23.5 0.5t23.5 0.5h63l18 91q2 11 5 24.5t6 24.5q4 13 8 27h-2q-10 -12 -21 -24q-9 -11 -20 -22.5t-21 -21.5l-40 -38q-11 -11 -23 -21.5t-22 -19.5q-11 -11 -23 -20v-2z
" />
    <glyph glyph-name="five.dnom" horiz-adv-x="413" 
d="M156 -121q-40 0 -73 10t-58 28.5t-39.5 45.5t-17.5 60h122q4 -22 21.5 -35.5t45.5 -13.5q32 0 53.5 21t21.5 57q0 33 -17 48t-42 15q-20 1 -36.5 -6.5t-27.5 -20.5h-112l87 260h287l-17 -95h-202l-30 -87h3q14 14 36.5 24.5t59.5 10.5q22 0 45.5 -8t42.5 -25t31.5 -45
t12.5 -68q0 -41 -14 -73.5t-40 -55t-62.5 -35t-80.5 -12.5z" />
    <glyph glyph-name="six.dnom" horiz-adv-x="422" 
d="M174 -121q-68 0 -114 31q-33 24 -52.5 66t-19.5 103q0 31 6.5 63.5t19 62.5t31 56.5t43.5 47.5q28 23 61 36t81 13q73 0 113.5 -34.5t45.5 -85.5h-115q-4 14 -14 24t-34 10q-35 0 -63 -28.5t-43 -75.5h2q17 18 41.5 28.5t58.5 10.5q29 0 55.5 -10.5t46 -29.5t31 -46
t11.5 -61q0 -40 -15 -73.5t-41 -57.5t-61 -37t-75 -13zM171 -28q32 0 56 22.5t24 61.5q0 31 -19 49.5t-47 18.5q-32 0 -57 -22t-25 -60q0 -30 18.5 -50t49.5 -20z" />
    <glyph glyph-name="seven.dnom" horiz-adv-x="391" 
d="M10 -111q12 63 37 118t56.5 100t66 79.5t65.5 58.5v3l-44 -2q-19 -1 -41.5 -1.5t-42.5 -0.5h-95l18 104h339l-16 -94q-36 -31 -70 -70.5t-61.5 -86.5t-48.5 -99.5t-32 -108.5h-131v0z" />
    <glyph glyph-name="eight.dnom" horiz-adv-x="425" 
d="M164 -123q-43 0 -78 10.5t-59.5 29t-38 43.5t-13.5 54q0 53 30 82.5t77 42.5v2q-29 15 -41.5 36.5t-12.5 47.5q0 31 13.5 55.5t37.5 41.5t56.5 26t69.5 9q80 0 127 -32t47 -92q0 -34 -20.5 -63t-67.5 -41v-3q35 -14 52.5 -41.5t17.5 -57.5q0 -37 -15 -65t-41.5 -47
t-62.5 -28.5t-78 -9.5zM201 166q29 0 46 17t17 43q0 23 -15.5 37.5t-44.5 14.5q-28 0 -45.5 -18t-17.5 -44q0 -23 16.5 -36.5t43.5 -13.5zM165 -33q29 0 51 18t22 54q0 26 -19 40.5t-46 14.5q-29 0 -51.5 -17.5t-22.5 -51.5q0 -29 18.5 -43.5t47.5 -14.5z" />
    <glyph glyph-name="nine.dnom" horiz-adv-x="422" 
d="M137 -121q-74 0 -118 34t-49 91h118q2 -14 13.5 -26.5t40.5 -12.5q12 0 26 4.5t27.5 16.5t25 32t19.5 52h-3q-37 -40 -97 -40q-31 0 -58 10t-47 29t-31.5 45.5t-11.5 58.5q0 42 15.5 76t42.5 58t63.5 37.5t79.5 13.5q41 0 69 -9t49 -25q28 -21 45.5 -58.5t17.5 -101.5
q0 -68 -22.5 -131.5t-71.5 -106.5q-29 -26 -63.5 -36.5t-79.5 -10.5zM176 114q34 0 58 22t24 64q0 32 -18 49t-47 17q-35 0 -59 -23.5t-24 -62.5q0 -29 17 -47.5t49 -18.5z" />
    <glyph glyph-name="zero.numr" horiz-adv-x="461" 
d="M245 275q-88 0 -137 49.5t-49 135.5q0 63 18.5 116.5t51.5 92.5t77.5 61t96.5 22q87 0 135.5 -45t48.5 -142q0 -62 -17 -115t-48.5 -92t-76.5 -61t-100 -22zM249 371q27 0 48 18.5t34.5 47t20.5 64t7 70.5q0 86 -59 86q-27 0 -48 -18.5t-35.5 -48t-22 -65t-7.5 -69.5
q0 -42 16.5 -63.5t45.5 -21.5z" />
    <glyph glyph-name="one.numr" horiz-adv-x="291" 
d="M171 567h-104l16 83q56 2 92.5 25t56.5 74h101l-90 -463h-126z" />
    <glyph glyph-name="two.numr" horiz-adv-x="407" 
d="M18 286q6 53 27 85.5t48 55.5q42 35 87.5 59.5t80.5 45.5q27 17 41.5 35t14.5 41q0 21 -12.5 35.5t-38.5 14.5q-14 0 -25.5 -3.5t-21.5 -12.5q-11 -11 -17 -28t-9 -36h-119q7 42 16.5 67.5t30.5 50.5q23 26 58.5 42t87.5 16q45 0 78 -11t54 -30.5t31 -45t10 -55.5
q0 -43 -19 -72t-49 -51q-20 -15 -43 -27.5t-45.5 -24t-43 -23.5t-35.5 -25v-1h190l-21 -102h-356v0z" />
    <glyph glyph-name="three.numr" horiz-adv-x="424" 
d="M245 275q-53 0 -90 13t-61 38q-25 24 -34 57.5t-7 61.5h116q0 -14 3 -27.5t11.5 -25t22.5 -18.5t37 -7q32 0 49 18.5t17 41.5q0 29 -16.5 42.5t-45.5 13.5h-27l15 84h22q32 0 51.5 12t19.5 41q0 20 -13.5 33t-39.5 13q-35 0 -52.5 -19t-23.5 -47h-116q11 72 60.5 113
t134.5 41q33 0 63.5 -7t54.5 -22t38.5 -38t14.5 -55q0 -82 -95 -106v-1q34 -9 55.5 -36t21.5 -60q0 -39 -14.5 -68t-40 -48t-59 -28.5t-72.5 -9.5z" />
    <glyph glyph-name="four.numr" horiz-adv-x="434" 
d="M256 385h-218l22 109l262 256h125l-54 -278h64l-17 -87h-63l-19 -99h-121zM138 470q13 0 25 1q11 0 23.5 0.5t23.5 0.5h63l18 91q2 11 5 24.5t6 24.5q4 13 8 27h-2q-10 -12 -21 -24q-9 -11 -20 -22.5t-21 -21.5l-40 -38q-11 -11 -23 -21.5t-22 -19.5q-11 -11 -23 -20v-2z
" />
    <glyph glyph-name="five.numr" horiz-adv-x="413" 
d="M230 275q-40 0 -73 10t-58 28.5t-39.5 45.5t-17.5 60h122q4 -22 21.5 -35.5t45.5 -13.5q32 0 53.5 21t21.5 57q0 33 -17 48t-42 15q-20 1 -36.5 -6.5t-27.5 -20.5h-112l87 260h287l-17 -95h-202l-30 -87h3q14 14 36.5 24.5t59.5 10.5q22 0 45.5 -8t42.5 -25t31.5 -45
t12.5 -68q0 -41 -14 -73.5t-40 -55t-62.5 -35t-80.5 -12.5z" />
    <glyph glyph-name="six.numr" horiz-adv-x="422" 
d="M248 275q-68 0 -114 31q-33 24 -52.5 66t-19.5 103q0 31 6.5 63.5t19 62.5t31 56.5t43.5 47.5q28 23 61 36t81 13q73 0 113.5 -34.5t45.5 -85.5h-115q-4 14 -14 24t-34 10q-35 0 -63 -28.5t-43 -75.5h2q17 18 41.5 28.5t58.5 10.5q29 0 55.5 -10.5t46 -29.5t31 -46
t11.5 -61q0 -40 -15 -73.5t-41 -57.5t-61 -37t-75 -13zM245 368q32 0 56 22.5t24 61.5q0 31 -19 49.5t-47 18.5q-32 0 -57 -22t-25 -60q0 -30 18.5 -50t49.5 -20z" />
    <glyph glyph-name="seven.numr" horiz-adv-x="391" 
d="M84 285q12 63 37 118t56.5 100t66 79.5t65.5 58.5v3l-44 -2q-19 -1 -41.5 -1.5t-42.5 -0.5h-95l18 104h339l-16 -94q-36 -31 -70 -70.5t-61.5 -86.5t-48.5 -99.5t-32 -108.5h-131v0z" />
    <glyph glyph-name="eight.numr" horiz-adv-x="425" 
d="M238 273q-43 0 -78 10.5t-59.5 29t-38 43.5t-13.5 54q0 53 30 82.5t77 42.5v2q-29 15 -41.5 36.5t-12.5 47.5q0 31 13.5 55.5t37.5 41.5t56.5 26t69.5 9q80 0 127 -32t47 -92q0 -34 -20.5 -63t-67.5 -41v-3q35 -14 52.5 -41.5t17.5 -57.5q0 -37 -15 -65t-41.5 -47
t-62.5 -28.5t-78 -9.5zM275 562q29 0 46 17t17 43q0 23 -15.5 37.5t-44.5 14.5q-28 0 -45.5 -18t-17.5 -44q0 -23 16.5 -36.5t43.5 -13.5zM239 363q29 0 51 18t22 54q0 26 -19 40.5t-46 14.5q-29 0 -51.5 -17.5t-22.5 -51.5q0 -29 18.5 -43.5t47.5 -14.5z" />
    <glyph glyph-name="nine.numr" horiz-adv-x="422" 
d="M211 275q-74 0 -118 34t-49 91h118q2 -14 13.5 -26.5t40.5 -12.5q12 0 26 4.5t27.5 16.5t25 32t19.5 52h-3q-37 -40 -97 -40q-31 0 -58 10t-47 29t-31.5 45.5t-11.5 58.5q0 42 15.5 76t42.5 58t63.5 37.5t79.5 13.5q41 0 69 -9t49 -25q28 -21 45.5 -58.5t17.5 -101.5
q0 -68 -22.5 -131.5t-71.5 -106.5q-29 -26 -63.5 -36.5t-79.5 -10.5zM250 510q34 0 58 22t24 64q0 32 -18 49t-47 17q-35 0 -59 -23.5t-24 -62.5q0 -29 17 -47.5t49 -18.5z" />
    <glyph glyph-name="acute.aalt" 
d="M340 916h182l-128 -131h-115z" />
    <glyph glyph-name="breve.aalt" 
d="M554 921q-17 -69 -59.5 -105.5t-114.5 -36.5q-33 0 -60 9t-46 27t-29.5 44.5t-8.5 61.5h89q2 -22 16.5 -35t45.5 -13q58 0 75 48h92z" />
    <glyph glyph-name="glyph432" horiz-adv-x="492" 
d="M240 599q32 5 47.5 16.5t19.5 32.5h-58l19 96h129l-15 -81q-11 -57 -48.5 -84t-103.5 -29z" />
    <glyph glyph-name="glyph433" 
d="M396 785h-150l-84 131h126l37 -64h2l58 64h140z" />
    <glyph glyph-name="circumflex.aalt" 
d="M292 916h150l84 -131h-126l-37 64h-2l-58 -64h-140z" />
    <glyph glyph-name="glyph435" 
d="M32 -210q72 9 81 56h-66l20 103h149l-16 -81q-14 -69 -62 -99t-117 -32z" />
    <glyph glyph-name="dieresis.aalt" 
d="M420 919h150l-26 -134h-150zM179 919h151l-26 -134h-151z" />
    <glyph glyph-name="dotaccent.aalt" 
d="M296 920h157l-26 -135h-157z" />
    <glyph glyph-name="grave.aalt" 
d="M224 916h172l28 -131h-109z" />
    <glyph glyph-name="hungarumlaut.aalt" 
d="M453 916h143l-103 -131h-97zM263 916h145l-105 -131h-97z" />
    <glyph glyph-name="macron.aalt" 
d="M219 897h305l-21 -108h-304z" />
    <glyph glyph-name="ring.aalt" horiz-adv-x="530" 
d="M365 766q-23 0 -43.5 8.5t-36 23t-24.5 34.5t-9 44q0 23 9 43t24.5 35t36 24t43.5 9t43.5 -9t35.5 -24t24 -35t9 -43q0 -24 -9 -44t-24 -34.5t-35.5 -23t-43.5 -8.5zM365 823q23 0 37.5 15t14.5 38t-14.5 39t-37.5 16t-37.5 -16t-14.5 -39t14.5 -38t37.5 -15z" />
    <glyph glyph-name="tilde.aalt" 
d="M431 786q-23 0 -41 7t-33.5 15t-28 15t-23.5 7q-13 0 -24 -11.5t-16 -33.5h-82q8 71 42 106t77 35q23 0 41 -7t32 -15t26 -15t24 -7q31 0 40 42h83q-8 -63 -38 -100.5t-79 -37.5z" />
    <glyph glyph-name="glyph445" horiz-adv-x="657" 
d="M121 744h603l-28 -142h-219l-116 -602h-167l116 602h-217zM157 -210q72 9 81 56h-66l20 103h149l-16 -81q-14 -69 -62 -99t-117 -32z" />
    <glyph glyph-name="glyph447" horiz-adv-x="257" 
d="M105 532h154l-104 -532h-153zM146 744h156l-27 -137h-156z" />
    <glyph glyph-name="glyph450" horiz-adv-x="383" 
d="M71 532h77l33 170h151l-33 -170h101l-19 -98h-101l-51 -267q-6 -32 7 -43.5t41 -11.5q9 0 19 1t17 2h5l-20 -112q-12 -3 -33.5 -6t-52.5 -3q-36 0 -65 9.5t-47.5 29t-25.5 49.5t1 71l54 281h-78zM54 -210q72 9 81 56h-66l20 103h149l-16 -81q-14 -69 -62 -99t-117 -32z
" />
    <glyph glyph-name="glyph451" horiz-adv-x="492" 
d="M79 -210q72 9 81 56h-66l20 103h149l-16 -81q-14 -69 -62 -99t-117 -32z" />
    <glyph glyph-name="glyph452" horiz-adv-x="492" 
d="M441 766q-72 -9 -81 -56h66l-20 -103h-149l16 81q14 69 62 99t117 32z" />
    <glyph glyph-name="R.aalt" horiz-adv-x="699" 
d="M360 273h-126l-53 -273h-169l145 744h302q67 0 114 -18t76 -49q26 -28 40 -66t14 -82q0 -96 -47.5 -158t-131.5 -85l121 -286h-178zM259 403h150q60 0 92 32t32 86q0 38 -23.5 61.5t-71.5 23.5h-139z" />
    <glyph glyph-name="Racute.aalt" horiz-adv-x="699" 
d="M360 273h-126l-53 -273h-169l145 744h302q67 0 114 -18t76 -49q26 -28 40 -66t14 -82q0 -96 -47.5 -158t-131.5 -85l121 -286h-178zM259 403h150q60 0 92 32t32 86q0 38 -23.5 61.5t-71.5 23.5h-139zM418 916h182l-128 -131h-115z" />
    <glyph glyph-name="Rcaron.aalt" horiz-adv-x="699" 
d="M360 273h-126l-53 -273h-169l145 744h302q67 0 114 -18t76 -49q26 -28 40 -66t14 -82q0 -96 -47.5 -158t-131.5 -85l121 -286h-178zM259 403h150q60 0 92 32t32 86q0 38 -23.5 61.5t-71.5 23.5h-139zM507 785h-150l-84 131h126l37 -64h2l58 64h140z" />
    <glyph glyph-name="uni0156.aalt" horiz-adv-x="699" 
d="M360 273h-126l-53 -273h-169l145 744h302q67 0 114 -18t76 -49q26 -28 40 -66t14 -82q0 -96 -47.5 -158t-131.5 -85l121 -286h-178zM259 403h150q60 0 92 32t32 86q0 38 -23.5 61.5t-71.5 23.5h-139zM206 -210q72 9 81 56h-66l20 103h149l-16 -81q-14 -69 -62 -99
t-117 -32z" />
    <glyph glyph-name="Ccedilla.aalt" horiz-adv-x="735" 
d="M237 -129q37 2 56 12t23 34h-66l15 81q-100 29 -157.5 110t-57.5 205q0 93 29.5 174t82 141t126 94.5t162.5 34.5q70 0 122.5 -18.5t89.5 -50.5q44 -38 63 -88.5t21 -106.5h-166q-3 26 -12 49t-26 40t-42 27t-60 10q-53 0 -94 -26.5t-68.5 -69.5t-41.5 -97t-14 -109
q0 -91 38.5 -144t119.5 -53q63 0 107.5 38t57.5 102h170q-16 -71 -44.5 -120.5t-73.5 -85.5q-37 -30 -82.5 -47.5t-102.5 -22.5l-10 -49q-12 -61 -53.5 -89t-122.5 -28z" />
    <glyph glyph-name="Scedilla.aalt" horiz-adv-x="671" 
d="M209 -129q37 2 56 12t23 34h-66l14 74q-108 20 -165.5 83t-59.5 161h170q8 -59 44.5 -89.5t111.5 -30.5q56 0 91.5 24t35.5 68q0 20 -9.5 34.5t-29 26t-47.5 22.5t-64 23q-47 16 -87.5 33.5t-70.5 41.5t-47.5 57.5t-17.5 81.5q0 51 19 93.5t55.5 72.5t90.5 47t124 17
q129 0 202 -58t82 -164h-164q-5 43 -37.5 69.5t-88.5 26.5q-54 0 -84.5 -22.5t-30.5 -57.5q0 -18 9.5 -32t30 -26t50.5 -23.5t71 -24.5q43 -14 82.5 -32t69.5 -43t47.5 -60t17.5 -84t-17.5 -90.5t-50 -73t-79.5 -51.5t-106 -26l-10 -50q-12 -61 -53.5 -89t-122.5 -28z" />
    <glyph glyph-name="ccedilla.aalt" horiz-adv-x="567" 
d="M138 -129q37 2 56 12t23 34h-66l16 83q-66 25 -104.5 81.5t-38.5 139.5q0 70 21.5 129.5t61 103t94.5 68.5t122 25q54 0 95.5 -15t70.5 -41.5t45.5 -62.5t19.5 -78h-149q-5 37 -25 60t-61 23q-34 0 -60 -18t-44 -48.5t-27 -70t-9 -82.5q0 -57 24.5 -87t69.5 -30
q84 0 113 101h153q-21 -97 -79.5 -150.5t-146.5 -63.5l-10 -49q-12 -61 -53.5 -89t-122.5 -28z" />
    <glyph glyph-name="scedilla.aalt" horiz-adv-x="531" 
d="M127 -129q37 2 56 12t23 34h-66l15 77q-74 17 -114.5 61t-42.5 109h146q4 -39 31 -60t74 -21q41 0 63 17.5t22 46.5q0 15 -9 26t-25 19t-38.5 14.5t-49.5 13.5q-31 9 -60 20t-51.5 28.5t-36 42.5t-13.5 62q0 42 16.5 74.5t46.5 55t71.5 34t89.5 11.5q109 0 165 -42
t67 -116h-145q-5 29 -27 44.5t-61 15.5q-35 0 -56 -15t-21 -41q0 -14 8.5 -23t24 -16t38 -13.5t49.5 -13.5q31 -8 61 -19.5t53.5 -29.5t38.5 -45t15 -66q0 -79 -50 -124.5t-133 -56.5l-10 -52q-12 -61 -53.5 -89t-122.5 -28z" />
    <glyph glyph-name="hyphen.aalt" horiz-adv-x="370" 
d="M63 405h302l-29 -151h-302z" />
    <glyph glyph-name="endash.aalt" horiz-adv-x="500" 
d="M79 396h398l-27 -133h-398z" />
    <glyph glyph-name="emdash.aalt" horiz-adv-x="1000" 
d="M128 397h799l-26 -133h-799z" />
    <glyph glyph-name="questiondown.aalt" horiz-adv-x="569" 
d="M316 744h164l-32 -164h-164zM255 -12q-52 0 -96 12t-76 35.5t-50 59t-18 82.5q0 34 9 61t24 48t33.5 37t38.5 28q24 15 42.5 25t32.5 18t25.5 14.5t20.5 14.5q15 13 22.5 26t12.5 36h142q-6 -36 -15.5 -62t-23 -45.5t-31.5 -35t-42 -30.5q-23 -15 -45.5 -26.5t-41 -25
t-30 -31.5t-11.5 -46q0 -32 23 -50.5t66 -18.5q48 0 82 30.5t43 88.5h153q-16 -117 -89.5 -181t-200.5 -64z" />
    <glyph glyph-name="exclamdown.aalt" horiz-adv-x="284" 
d="M50 191l99 294h79l-20 -302l-36 -183h-160zM155 744h163l-32 -164h-163z" />
    <glyph glyph-name="parenleft.aalt" horiz-adv-x="360" 
d="M164 -103q-42 70 -69 161.5t-27 195.5q0 89 20.5 170.5t55.5 153.5t83 133.5t102 110.5h133q-110 -125 -174 -271t-64 -324q0 -93 16 -176.5t44 -153.5h-120v0z" />
    <glyph glyph-name="parenright.aalt" horiz-adv-x="360" 
d="M-64 -103q55 63 99.5 130.5t75.5 141t47.5 154t16.5 169.5q0 93 -16.5 176.5t-44.5 153.5h121q42 -70 69 -161.5t27 -195.5q0 -89 -20.5 -170.5t-55.5 -153.5t-83 -133.5t-102 -110.5h-134v0z" />
    <glyph glyph-name="bracketleft.aalt" horiz-adv-x="427" 
d="M179 822h315l-23 -120h-169l-133 -686h169l-24 -119h-314z" />
    <glyph glyph-name="bracketright.aalt" horiz-adv-x="428" 
d="M-5 16h168l133 686h-167l23 120h315l-180 -925h-315z" />
    <glyph glyph-name="braceleft.aalt" horiz-adv-x="431" 
d="M298 -103q-59 0 -101.5 11.5t-67.5 36t-32.5 64.5t3.5 97l24 125q8 40 -8.5 60.5t-68.5 22.5l21 114q54 2 77.5 18t31.5 54l28 143q10 54 28.5 88.5t47.5 54.5t69.5 28t94.5 8h52l-23 -120h-28q-44 0 -66 -14.5t-30 -57.5l-31 -159q-10 -50 -34.5 -72.5t-69.5 -33.5v-3
q40 -15 54.5 -42.5t3.5 -79.5l-29 -149q-8 -45 9 -60t57 -15h31l-23 -119h-20v0z" />
    <glyph glyph-name="braceright.aalt" horiz-adv-x="429" 
d="M-5 16h29q45 0 66.5 15t29.5 59l31 161q10 50 34 72.5t69 33.5v3q-39 15 -53.5 42.5t-3.5 80.5l28 145q8 45 -9 59.5t-57 14.5h-31l24 120h20q59 0 101.5 -11t67.5 -36t32 -65t-4 -97l-24 -122q-8 -40 9 -60t69 -22l-22 -115q-53 -2 -77 -18t-32 -54l-27 -145
q-10 -54 -28.5 -89t-47.5 -55t-70 -28t-95 -8h-52z" />
    <glyph glyph-name="guillemotleft.aalt" horiz-adv-x="502" 
d="M60 264l28 143l192 147l-28 -145l-107 -80v-2l73 -90l-25 -133zM282 264l28 143l192 147l-28 -145l-107 -80v-2l73 -90l-25 -133z" />
    <glyph glyph-name="guillemotright.aalt" horiz-adv-x="502" 
d="M470 394l-28 -143l-192 -147l28 145l107 80v2l-73 90l25 133zM248 394l-28 -143l-192 -147l28 145l107 80v2l-73 90l25 133z" />
    <glyph glyph-name="guilsinglleft.aalt" horiz-adv-x="296" 
d="M60 263l28 147l211 157l-31 -155l-116 -86v-2l81 -94l-27 -141z" />
    <glyph glyph-name="guilsinglright.aalt" horiz-adv-x="297" 
d="M265 393l-28 -147l-211 -157l31 155l116 86v2l-81 94l27 141z" />
    <glyph glyph-name="registered.aalt" horiz-adv-x="867" 
d="M456 -18q-80 0 -150 29t-122 81t-81.5 123t-29.5 154q0 84 29.5 155t81.5 122.5t122 81t150 29.5t150 -29.5t121.5 -81t81 -122.5t29.5 -155q0 -83 -29.5 -154t-81 -123t-121.5 -81t-150 -29zM456 32q69 0 128 25.5t102 70.5t67.5 107t24.5 134q0 73 -24.5 134.5
t-67.5 106.5t-102 70.5t-128 25.5t-128.5 -25.5t-103 -70.5t-68 -106.5t-24.5 -134.5q0 -72 24.5 -134t68 -107t103 -70.5t128.5 -25.5zM289 583h203q31 0 58 -8t47.5 -23t32 -38t11.5 -53q0 -36 -18.5 -62t-56.5 -39v-2q55 -17 64 -75q3 -20 4.5 -39.5t2.5 -35t3 -25.5
t7 -12v-7h-106q-5 3 -7 12.5t-3 23.5t-2 30.5t-4 31.5q-4 27 -19 41.5t-47 14.5h-61v-154h-109v419zM398 397h74q30 0 45 13t15 36t-14 37.5t-43 14.5h-77v-101z" />
    <glyph glyph-name="dollar.case" horiz-adv-x="667" 
d="M249 -2q-112 17 -173.5 78t-63.5 161h166q11 -92 95 -116l38 196q-46 15 -85.5 33t-69 42.5t-46 57.5t-16.5 79q0 50 19.5 91.5t57 71t92 46t123.5 16.5h10l16 81h66l-17 -87q93 -16 147 -70t61 -142h-159q-4 31 -22 55t-51 35l-34 -175q5 -2 13 -4q43 -14 82 -32
t68.5 -44t47 -61t17.5 -83q0 -53 -21 -96t-59.5 -74t-93.5 -48t-124 -17h-20l-24 -122h-65zM460 208q0 31 -22 50.5t-66 36.5l-35 -181q54 1 88.5 26t34.5 68zM260 553q-2 -27 18.5 -45t62.5 -35l32 163q-58 -1 -85 -25t-28 -58z" />
    <glyph glyph-name="Euro.case" horiz-adv-x="704" 
d="M60 473h57q19 66 51.5 119t76 90.5t97 57.5t113.5 20q65 0 113.5 -19t81.5 -53t51 -81.5t21 -104.5h-163q-5 60 -29.5 94.5t-79.5 34.5q-28 0 -52.5 -12t-45 -33t-37 -50t-28.5 -63h170l-13 -66h-174q-4 -20 -6.5 -39.5t-4.5 -39.5h169l-12 -66h-158q4 -77 33.5 -112.5
t86.5 -35.5t92 39t55 106h161q-12 -62 -39.5 -113t-67 -87.5t-91.5 -56.5t-114 -20q-124 0 -198.5 72.5t-82.5 207.5h-74l13 66h61q1 40 9 79h-54z" />
    <glyph glyph-name="sterling.case" horiz-adv-x="636" 
d="M68 410h56q-8 28 -14 56.5t-6 59.5q0 53 19 96t55 73.5t87 47t115 16.5q134 0 203.5 -68.5t70.5 -197.5h-160q0 138 -112 138q-52 0 -80 -33.5t-28 -87.5q0 -25 4 -49.5t9 -50.5h149l-18 -94h-122q-3 -56 -32 -99t-98 -82l1 -3q29 13 52.5 19.5t49.5 6.5q25 0 46 -5
t39.5 -11t36.5 -11t38 -5q33 0 59 12.5t44 26.5l57 -123q-35 -25 -79.5 -41t-87.5 -16q-40 0 -69.5 8.5t-55 19t-51 19t-57.5 8.5q-35 0 -63.5 -13t-55.5 -29l-68 125q29 15 54.5 34t44.5 41.5t30 49t11 58.5v10h-92z" />
    <glyph glyph-name="yen.case" horiz-adv-x="693" 
d="M98 347h154l-147 398h178l47 -143q8 -26 15.5 -58t14.5 -60q8 -33 15 -66h2l36 66q16 28 35 60t38 58l100 143h184l-303 -398h155l-13 -66h-182l-15 -76h183l-14 -66h-182l-27 -139h-159l27 139h-183l14 66h182l15 76h-182z" />
    <glyph glyph-name="zero.case" horiz-adv-x="708" 
d="M331 -18q-69 0 -121.5 22.5t-88.5 63t-54.5 96.5t-18.5 123q0 96 27 181.5t76 150t117.5 102t152.5 37.5q66 0 118 -21.5t88 -60.5t54.5 -94t18.5 -122q0 -99 -25.5 -186t-73.5 -152t-116.5 -102.5t-153.5 -37.5zM334 112q50 0 87 32t62 83t37 113.5t12 123.5
q0 79 -28.5 123t-88.5 44q-47 0 -84 -32.5t-62.5 -83.5t-38.5 -113t-13 -122q0 -81 28 -124.5t89 -43.5z" />
    <glyph glyph-name="one.case" horiz-adv-x="448" 
d="M245 490h-170l21 110q42 1 78 9.5t65 26t52 46t39 69.5h131l-146 -751h-165z" />
    <glyph glyph-name="two.case" horiz-adv-x="626" 
d="M-21 0q6 41 17 73.5t26 59.5t34 49t41 41q30 26 64 49t69 43.5t69.5 39t66.5 36.5q48 27 78 59.5t30 83.5q0 41 -23.5 67t-71.5 26q-26 0 -46 -5.5t-37 -22.5q-21 -18 -34 -50t-20 -71h-160q11 71 31 116.5t52 78.5q37 41 92.5 64t127.5 23q64 0 112.5 -17t80.5 -46.5
t48.5 -69t16.5 -85.5q0 -40 -10.5 -72t-29.5 -58.5t-44 -49t-54 -42.5q-33 -24 -71 -44.5t-75.5 -41t-72 -44t-61.5 -53.5v-2h335l-27 -135h-554v0z" />
    <glyph glyph-name="three.case" horiz-adv-x="672" 
d="M340 -18q-81 0 -138.5 22t-95.5 60t-53 89t-13 102h159q0 -28 6.5 -54.5t23 -46.5t43.5 -32.5t68 -12.5q60 0 92 34.5t32 88.5q0 45 -29 72.5t-84 27.5h-48l22 116h39q65 0 100 23.5t35 77.5q0 39 -25 64t-76 25q-59 0 -92.5 -36t-42.5 -92h-160q17 118 97 184t209 66
q52 0 98.5 -12t81.5 -36.5t55.5 -61.5t20.5 -86q0 -69 -38.5 -112t-112.5 -62v-2q55 -17 87.5 -61.5t32.5 -99.5q0 -61 -23 -107t-63 -76.5t-93.5 -46t-114.5 -15.5z" />
    <glyph glyph-name="four.case" horiz-adv-x="667" 
d="M359 168h-344l28 147l428 437h162l-91 -462h108l-24 -122h-108l-33 -168h-159zM153 285q19 1 37 2q16 1 34.5 2t33.5 1h125l36 186q3 17 7.5 36t9.5 36q5 19 12 40h-2q-15 -19 -30 -37q-14 -16 -29.5 -33.5t-29.5 -31.5l-100 -102q-14 -14 -32 -31t-34 -31
q-18 -17 -38 -34v-3z" />
    <glyph glyph-name="five.case" horiz-adv-x="647" 
d="M309 -18q-65 0 -118 17t-90.5 47.5t-58.5 72t-23 91.5h165q6 -42 36 -69.5t87 -27.5q30 0 56 11t44.5 31.5t29 49t10.5 63.5q0 51 -29.5 83.5t-79.5 32.5q-37 1 -69.5 -16t-51.5 -40h-153l139 416h443l-25 -132h-322l-55 -165h2q24 24 61 40t94 16q37 0 75 -13.5
t68.5 -41t49.5 -70.5t19 -103q0 -68 -22.5 -122t-63 -92t-96 -58.5t-122.5 -20.5z" />
    <glyph glyph-name="six.case" horiz-adv-x="669" 
d="M330 -18q-138 0 -213 86q-69 78 -69 222q0 54 10 110.5t30 108.5t49.5 97t68.5 77q43 38 95 57.5t121 19.5q58 0 102 -15.5t74.5 -41.5t47.5 -61t20 -74h-157q-3 14 -8.5 27.5t-16.5 24t-27 16.5t-40 6q-69 0 -118.5 -57t-75.5 -154h2q32 36 75.5 55.5t100.5 19.5
q48 0 90 -17t72.5 -47.5t48.5 -73.5t18 -95q0 -62 -23 -115t-63 -92t-95 -61.5t-119 -22.5zM325 106q31 0 58.5 12t47.5 33.5t31.5 51t11.5 64.5q0 56 -34.5 89.5t-87.5 33.5q-33 0 -61 -11.5t-48.5 -31.5t-32.5 -49t-12 -63q0 -28 9 -51.5t26 -41t40 -27t52 -9.5z" />
    <glyph glyph-name="seven.case" horiz-adv-x="589" 
d="M87 0q19 101 59.5 192.5t93 170t112.5 141t119 104.5v3q-28 -2 -58 -4q-26 -2 -57 -2.5t-62 -0.5h-200l27 140h534l-25 -127q-61 -50 -120 -115.5t-108.5 -144.5t-86 -169t-54.5 -188h-174v0z" />
    <glyph glyph-name="eight.case" horiz-adv-x="663" 
d="M320 -19q-65 0 -119.5 16t-94.5 45t-62.5 71t-22.5 94q0 42 13.5 76t37.5 59t57 42.5t72 26.5v4q-42 22 -64 57.5t-22 78.5q0 47 20.5 85.5t57.5 65.5t87.5 42t110.5 15t108.5 -13.5t83 -39t53.5 -61.5t19 -81q0 -61 -33 -107t-108 -65v-3q56 -23 83.5 -69t27.5 -99
q0 -59 -23 -103.5t-64 -75t-97 -46t-121 -15.5zM381 447q55 0 86.5 29t31.5 76q0 42 -29 67.5t-80 25.5q-54 0 -86.5 -29.5t-32.5 -76.5q0 -44 30.5 -68t79.5 -24zM319 103q65 0 102.5 36t37.5 96q0 49 -35 79t-94 30q-65 0 -103.5 -35t-38.5 -94q0 -51 35.5 -81.5
t95.5 -30.5z" />
    <glyph glyph-name="nine.case" horiz-adv-x="670" 
d="M295 -19q-60 0 -107.5 15.5t-80.5 43t-52 64.5t-22 81h158q2 -16 8.5 -31t19 -27t31 -19t45.5 -7q59 0 106 47q26 25 46 65t34 97h-2q-33 -34 -76.5 -54.5t-94.5 -20.5q-50 0 -93 17.5t-74.5 48.5t-49.5 73.5t-18 93.5q0 63 24 116.5t66 92.5t99.5 61t125.5 22
q62 0 108 -16t79 -44q43 -35 65 -89t22 -134q0 -61 -11 -123.5t-32 -119.5t-52 -105.5t-71 -80.5q-44 -35 -93 -51t-108 -16zM353 354q33 0 61 11.5t49 32.5t32.5 50.5t11.5 65.5q0 58 -34.5 91t-88.5 33q-33 0 -61.5 -12t-48.5 -33.5t-31.5 -51t-11.5 -63.5q0 -56 32.5 -90
t89.5 -34z" />
    <glyph glyph-name="percent.case" horiz-adv-x="959" 
d="M707 744h96l-512 -744h-95zM245 325q-38 0 -70.5 12.5t-56 36t-36.5 57.5t-13 76q0 55 16.5 101.5t45.5 80.5t68 52.5t84 18.5q79 0 126 -49t47 -136q0 -55 -16.5 -101t-45.5 -79t-67.5 -51.5t-81.5 -18.5zM246 412q22 0 39 16.5t29 42.5t18.5 58.5t6.5 64.5
q0 38 -14.5 60t-44.5 22q-21 0 -38 -16.5t-29 -42.5t-18 -58.5t-6 -65.5q0 -37 13 -59t44 -22zM716 -19q-38 0 -70 12.5t-55.5 36t-36.5 57.5t-13 77q0 55 16.5 101.5t45.5 80.5t67.5 52.5t83.5 18.5q80 0 127 -49t47 -136q0 -55 -17 -101t-45.5 -79.5t-67.5 -52t-82 -18.5z
M719 68q21 0 38 16.5t29 42.5t18 58.5t6 65.5q0 38 -14 59.5t-44 21.5q-22 0 -39 -16.5t-29 -42.5t-18 -58.5t-6 -65.5q0 -37 13.5 -59t45.5 -22z" />
    <glyph glyph-name="perthousand.case" horiz-adv-x="1381" 
d="M703 744h95l-511 -744h-96zM245 325q-38 0 -70.5 12.5t-56 36t-36.5 57.5t-13 76q0 55 16.5 101.5t45.5 80.5t68 52.5t84 18.5q79 0 126 -49t47 -136q0 -55 -16.5 -101t-45.5 -79t-67.5 -51.5t-81.5 -18.5zM246 412q22 0 39 16.5t29 42.5t18.5 58.5t6.5 64.5
q0 38 -14.5 60t-44.5 22q-21 0 -38 -16.5t-29 -42.5t-18 -58.5t-6 -65.5q0 -37 13 -59t44 -22zM708 -19q-38 0 -70 12.5t-55.5 36t-36.5 57.5t-13 77q0 55 16.5 101.5t45.5 80.5t67.5 52.5t83.5 18.5q80 0 127 -49t47 -136q0 -55 -17 -101t-45.5 -79.5t-67.5 -52t-82 -18.5z
M710 68q22 0 39 16.5t29 42.5t18 58.5t6 65.5q0 38 -14.5 59.5t-43.5 21.5q-22 0 -39 -16.5t-29 -42.5t-18 -58.5t-6 -65.5q0 -37 13.5 -59t44.5 -22zM1137 -19q-38 0 -70.5 12.5t-55.5 36t-36 57.5t-13 77q0 55 16.5 101.5t45.5 80.5t67.5 52.5t83.5 18.5q80 0 127 -49
t47 -136q0 -55 -16.5 -101t-45.5 -79.5t-67.5 -52t-82.5 -18.5zM1139 68q22 0 39 16.5t29 42.5t18 58.5t6 65.5q0 38 -14 59.5t-44 21.5q-22 0 -39 -16.5t-29 -42.5t-18 -58.5t-6 -65.5q0 -37 13.5 -59t44.5 -22z" />
    <glyph glyph-name="dollar.tnum" horiz-adv-x="640" 
d="M232 -2q-106 17 -163 76t-59 154h160q5 -44 25.5 -71.5t59.5 -38.5l36 185q-44 14 -81 31t-64.5 40t-43 55t-15.5 77q0 48 18.5 87.5t53.5 68t85.5 44.5t114.5 16h14l16 78h63l-17 -85q88 -15 138 -66.5t57 -136.5h-154q-4 30 -19.5 52t-44.5 33l-32 -164q6 -2 14 -4
q40 -13 76.5 -30.5t64.5 -42.5t44 -59t16 -79q0 -51 -19.5 -92.5t-56 -71t-89 -46t-117.5 -16.5h-19l-22 -116h-64zM430 199q0 29 -19.5 47.5t-59.5 35.5l-34 -171q51 1 82 24t31 64zM248 529q-1 -26 17 -43t56 -32l30 153q-55 -2 -78.5 -24t-24.5 -54z" />
    <glyph glyph-name="Euro.tnum" horiz-adv-x="640" 
d="M486 480q-1 19 -4.5 41t-13 40.5t-26.5 30.5t-45 12t-51 -12t-41.5 -32.5t-32 -48t-23.5 -58.5h149l-13 -65h-153q-4 -19 -6 -37.5t-4 -35.5h149l-13 -65h-138q1 -26 6.5 -51t18.5 -44.5t33.5 -32t52.5 -12.5q93 2 124 139h156q-12 -66 -38.5 -115.5t-64 -83t-84 -50
t-98.5 -16.5q-60 0 -108 19t-82.5 54t-54 84t-23.5 109h-66l13 65h54q3 38 9 73h-49l13 65h53q18 57 47 106.5t69 87t91 59t112 21.5q119 0 176.5 -63t62.5 -184h-157z" />
    <glyph glyph-name="sterling.tnum" horiz-adv-x="640" 
d="M80 393h52q-8 26 -13.5 54t-5.5 57q0 51 18.5 92t53 70t83 44.5t109.5 15.5q131 0 197.5 -65.5t68.5 -189.5h-155q-2 132 -106 132q-50 0 -76.5 -32t-26.5 -83q0 -23 4 -46.5t9 -48.5h142l-17 -90h-117q-1 -27 -8 -49.5t-22 -42.5t-38.5 -38.5t-56.5 -36.5l1 -3
q28 12 50.5 18.5t47.5 6.5q24 0 44 -5t37.5 -10.5t34.5 -10.5t37 -5q32 0 56.5 12t41.5 25l55 -124q-33 -24 -76 -39.5t-83 -15.5q-39 0 -67.5 8.5t-53 18t-48.5 18t-55 8.5q-33 0 -61 -12.5t-53 -27.5l-66 121q28 15 52 32.5t42 39t28 47t10 55.5v10h-87z" />
    <glyph glyph-name="yen.tnum" horiz-adv-x="640" 
d="M85 332h161l-126 381h165l36 -134q6 -23 11.5 -50.5t9.5 -51.5l8 -56h2l25 50q11 22 26 49t32 53l92 140h170l-276 -381h163l-12 -64h-172l-14 -72h172l-12 -64h-173l-25 -132h-155l25 132h-171l12 64h172l14 72h-172z" />
    <glyph glyph-name="cent.aalt" horiz-adv-x="640" 
d="M246 -12q-86 16 -136.5 76.5t-50.5 156.5q0 70 22 129t61.5 102t93.5 68t119 26l17 89h62l-18 -92q43 -7 75.5 -25t55 -44t35.5 -58.5t16 -69.5h-149q-4 29 -17 50.5t-39 30.5l-63 -328q65 12 91 101h153q-23 -109 -93 -163.5t-174 -54.5l-21 -111h-62zM214 214
q0 -43 14.5 -71t40.5 -39l63 325q-27 -7 -48.5 -27t-37 -49t-24 -64.5t-8.5 -74.5z" />
    <glyph glyph-name="florin.aalt" horiz-adv-x="640" 
d="M150 432h113l32 142q9 40 25.5 70.5t42.5 50.5q19 14 44.5 21.5t54 10t58 1t58.5 -6.5l-16 -109q-52 4 -78 -5.5t-35 -51.5l-28 -123h131l-19 -98h-134l-77 -348q-9 -40 -23.5 -69.5t-37.5 -48.5q-18 -14 -42 -21t-50.5 -9t-53 0t-47.5 5l16 101q36 -3 55.5 7.5
t28.5 50.5l73 332h-110z" />
    <glyph glyph-name="currency.aalt" horiz-adv-x="640" 
d="M90 169l68 68q-29 49 -29 113q0 63 29 112l-68 70l79 77l69 -71q45 25 102 25t102 -25l70 71l79 -77l-70 -70q15 -24 22 -52t7 -60q0 -62 -28 -112l69 -69l-79 -78l-70 71q-44 -24 -102 -24t-101 24l-70 -71zM340 232q45 0 69.5 32t24.5 86t-24.5 87t-69.5 33t-70.5 -33
t-25.5 -87t25.5 -86t70.5 -32z" />
    <glyph glyph-name="zero.tnum" horiz-adv-x="640" 
d="M296 -17q-62 0 -108.5 20.5t-77.5 57.5t-46.5 88t-15.5 111q0 48 8.5 101t26 105t44.5 99t64.5 83t85.5 57.5t107 21.5t105 -19t77.5 -55t48 -87.5t16.5 -115.5q0 -50 -8.5 -104t-26.5 -106t-45 -98.5t-64 -82t-85 -56t-106 -20.5zM211 248q0 -27 4 -52.5t14 -45
t27.5 -31t44.5 -11.5q28 0 51 17t41.5 45.5t32.5 65t23.5 75.5t14 77.5t4.5 70.5q0 67 -21 105t-69 38q-42 0 -73 -37.5t-52 -92t-31.5 -115.5t-10.5 -109z" />
    <glyph glyph-name="one.tnum" horiz-adv-x="640" 
d="M339 460h-179l21 106q94 2 153.5 38t88.5 115h126l-140 -719h-159z" />
    <glyph glyph-name="two.tnum" horiz-adv-x="640" 
d="M-1 0q11 78 41 127.5t72 85.5q59 51 127.5 90t129.5 74q45 26 73 56t28 78q0 38 -21 63t-66 25q-25 0 -43.5 -6t-35.5 -21q-20 -18 -32.5 -47.5t-19.5 -66.5h-153q11 67 29 110.5t48 75.5q35 38 89 60.5t124 22.5q61 0 107 -16t76.5 -44t45.5 -66t15 -82q0 -38 -10 -68
t-27.5 -55.5t-41 -46.5t-50.5 -40q-32 -23 -67.5 -42.5t-71 -39.5t-69 -42t-60.5 -50v-2h319l-26 -133h-530v0z" />
    <glyph glyph-name="three.tnum" horiz-adv-x="640" 
d="M325 -17q-75 0 -130 20.5t-93 57.5q-36 36 -50 85.5t-12 97.5h154q0 -27 6 -51.5t21 -44t40 -31t63 -11.5q56 0 85 33t29 84q0 42 -26.5 68.5t-76.5 26.5h-45l21 111h36q60 0 91.5 22.5t31.5 73.5q0 38 -21 61.5t-69 23.5q-56 0 -86 -34.5t-39 -87.5h-155q16 113 92 176
t199 63q49 0 92.5 -11.5t76.5 -35t52 -58.5t19 -83q0 -65 -37 -106.5t-106 -59.5v-2q51 -17 82.5 -58.5t31.5 -95.5q0 -59 -21.5 -102.5t-59 -73t-88 -44t-108.5 -14.5z" />
    <glyph glyph-name="four.tnum" horiz-adv-x="640" 
d="M342 161h-317l28 142l399 417h154l-87 -442h97l-22 -117h-98l-31 -161h-154zM156 274l36 2q15 1 32.5 1.5t32.5 0.5h108l35 177q2 16 6.5 34t9.5 35q5 18 11 38h-2l-26 -36q-11 -15 -25.5 -31.5t-27.5 -30.5l-92 -96q-14 -14 -30.5 -30t-31.5 -30q-18 -17 -36 -32v-2z
" />
    <glyph glyph-name="five.tnum" horiz-adv-x="640" 
d="M308 -17q-62 0 -112 16t-85.5 45.5t-55.5 69.5t-22 88h160q6 -40 33 -66t80 -26q27 0 50.5 10.5t41 29.5t27 46t9.5 60q0 48 -26.5 79t-72.5 31q-35 1 -64 -14.5t-47 -37.5h-148l133 398h417l-24 -128h-300l-52 -155h2q23 23 56.5 38t87.5 15q35 0 70.5 -12.5t64 -39.5
t46.5 -68.5t18 -98.5q0 -65 -21.5 -116.5t-59.5 -88t-90.5 -56t-115.5 -19.5z" />
    <glyph glyph-name="six.tnum" horiz-adv-x="640" 
d="M313 102q29 0 53 11.5t41.5 32t27.5 49t10 61.5q0 53 -29 85t-77 32q-30 0 -55 -10.5t-43.5 -30t-28.5 -46.5t-10 -60q0 -54 28.5 -89t82.5 -35zM318 -17q-63 0 -109 19t-81 57q-71 74 -71 219q0 52 10 105.5t29 103.5t47.5 93t64.5 74q42 35 88 54t110 19
q54 0 95.5 -14.5t70 -39.5t45 -58.5t19.5 -70.5h-152q-2 13 -7.5 25.5t-15 22.5t-24.5 16t-36 6q-63 0 -106 -54t-69 -147h2q31 34 68 53t90 19q45 0 83.5 -16.5t66.5 -45.5t44 -70.5t16 -90.5q0 -60 -21 -111t-58 -88.5t-88 -58.5t-111 -21z" />
    <glyph glyph-name="seven.tnum" horiz-adv-x="640" 
d="M121 0q19 97 57 184.5t87 162t105.5 134t111.5 100.5v2q-25 -2 -53 -3q-24 -2 -54 -2.5t-59 -0.5h-186l27 135h504l-23 -122q-58 -48 -113.5 -111t-102 -138t-81.5 -161t-52 -180h-168v0z" />
    <glyph glyph-name="eight.tnum" horiz-adv-x="640" 
d="M309 100q59 0 92.5 34.5t33.5 91.5q0 46 -31 74.5t-85 28.5q-59 0 -94 -33t-35 -90q0 -49 32 -77.5t87 -28.5zM368 428q50 0 77.5 27.5t27.5 72.5q0 40 -25 64.5t-72 24.5q-48 0 -77.5 -28.5t-29.5 -73.5q0 -42 27 -64.5t72 -22.5zM310 -18q-59 0 -110.5 15t-89.5 43.5
t-59.5 68t-21.5 89.5q0 81 48 129.5t124 65.5v3q-41 22 -62 56t-21 75q0 45 20 82t54.5 63t82 40.5t102.5 14.5t100.5 -13t78 -37.5t50.5 -59.5t18 -78q0 -58 -32 -102t-102 -63v-3q53 -22 79 -65t26 -94q0 -56 -22 -99t-60.5 -72t-90.5 -44t-112 -15z" />
    <glyph glyph-name="nine.tnum" horiz-adv-x="640" 
d="M333 340q60 0 99 41t39 110q0 56 -30 87t-78 31q-30 0 -55 -11.5t-43 -31.5t-28 -48t-10 -61q0 -53 26.5 -85t79.5 -32zM278 -18q-57 0 -101.5 15t-76 41t-49.5 61.5t-21 77.5h152q4 -30 26 -54.5t70 -24.5q25 0 46 8t42 27q51 47 79 162l-2 1q-29 -33 -67.5 -52
t-86.5 -19q-46 0 -85 16.5t-68 46t-45.5 70.5t-16.5 89q0 61 21.5 112t60.5 88.5t93 58.5t118 21q57 0 98 -15t73 -42q40 -34 61 -87t21 -140q0 -53 -9.5 -110t-28 -110t-47 -99t-66.5 -77q-42 -34 -88.5 -49.5t-102.5 -15.5z" />
    <glyph glyph-name="percent.tnum" horiz-adv-x="886" 
d="M661 712h92l-489 -712h-92zM228 320q-36 0 -66 12t-51.5 34t-34 53.5t-12.5 71.5q0 52 15.5 95.5t42.5 74.5t64 48.5t79 17.5q74 0 118 -45.5t44 -126.5q0 -51 -15.5 -94.5t-42.5 -74.5t-63.5 -48.5t-77.5 -17.5zM230 402q20 0 36 15.5t27 39.5t17 54.5t6 60.5
q0 35 -13 55.5t-40 20.5q-20 0 -36 -15.5t-27 -39.5t-17 -54.5t-6 -60.5q0 -35 12 -55.5t41 -20.5zM658 -18q-36 0 -66 12t-51.5 34t-34 53.5t-12.5 71.5q0 52 15.5 95.5t42.5 74.5t64 48.5t79 17.5q74 0 118 -45.5t44 -126.5q0 -51 -15.5 -94.5t-42.5 -74.5t-63.5 -48.5
t-77.5 -17.5zM660 64q20 0 36 15.5t27 39.5t17 54.5t6 60.5q0 35 -13 55.5t-40 20.5q-20 0 -36 -15.5t-27 -39.5t-17 -54.5t-6 -60.5q0 -35 12 -55.5t41 -20.5z" />
    <glyph glyph-name="perthousand.tnum" horiz-adv-x="1181" 
d="M612 712h92l-489 -712h-92zM206 331q-70 0 -114 44.5t-44 122.5q0 51 15 93t41 72t61 47t76 17q72 0 114 -44.5t42 -123.5q0 -50 -15 -92t-41 -72t-60.5 -47t-74.5 -17zM208 411q19 0 34.5 15t25.5 39t15.5 53.5t5.5 58.5q0 33 -12 53t-38 20q-20 0 -35 -15t-25.5 -39
t-16 -53.5t-5.5 -58.5q0 -33 11.5 -53t39.5 -20zM586 -18q-70 0 -114 44.5t-44 122.5q0 51 15 93t41 72t61 47t76 17q72 0 114 -44.5t42 -123.5q0 -50 -15 -92t-41 -72t-60.5 -47t-74.5 -17zM588 62q19 0 34.5 15t25.5 39t15.5 53.5t5.5 58.5q0 33 -12 53t-38 20
q-20 0 -35 -15t-25.5 -39t-16 -53.5t-5.5 -58.5q0 -33 11.5 -53t39.5 -20zM963 -18q-70 0 -114 44.5t-44 122.5q0 51 15 93t41 72t61 47t76 17q72 0 114 -44.5t42 -123.5q0 -50 -15 -92t-41 -72t-60.5 -47t-74.5 -17zM965 62q19 0 34.5 15t25.5 39t15.5 53.5t5.5 58.5
q0 33 -12 53t-38 20q-20 0 -35 -15t-25.5 -39t-16 -53.5t-5.5 -58.5q0 -33 11.5 -53t39.5 -20z" />
    <glyph glyph-name="minus.aalt" horiz-adv-x="640" 
d="M104 403h491l-24 -122h-491z" />
    <glyph glyph-name="multiply.aalt" horiz-adv-x="640" 
d="M68 179l185 162l-134 160l93 83l134 -161l183 161l75 -86l-185 -162l134 -159l-93 -83l-134 160l-184 -161z" />
    <glyph glyph-name="divide.aalt" horiz-adv-x="640" 
d="M310 624h163l-29 -147h-162zM111 404h476l-24 -123h-476zM229 207h163l-29 -147h-162z" />
    <glyph glyph-name="plusminus.aalt" horiz-adv-x="640" 
d="M116 473h180l33 165h130l-33 -165h182l-24 -122h-182l-32 -167h-130l32 167h-180zM47 118h492l-23 -118h-492z" />
    <glyph glyph-name="notequal.aalt" horiz-adv-x="640" 
d="M130 489h272l74 106h101l-74 -106h104l-24 -117h-161l-69 -99h213l-24 -117h-270l-73 -106h-102l73 106h-105l24 117h163l69 99h-215z" />
    <glyph glyph-name="approxequal.aalt" horiz-adv-x="640" 
d="M465 356q-29 0 -58.5 5.5t-57.5 12t-53 12t-44 5.5q-36 0 -48 -42h-101q12 91 54 131t100 40q28 0 57.5 -6t57 -12.5t51.5 -12.5t42 -6q21 0 31 9.5t14 29.5h102q-10 -82 -45.5 -124t-101.5 -42zM422 136q-29 0 -58.5 5.5t-57.5 12t-53 12t-44 5.5q-37 0 -47 -42h-101
q11 91 53 131t100 40q28 0 58 -5.5t57.5 -12.5t51.5 -12.5t42 -5.5q21 0 30.5 9t13.5 29h102q-10 -81 -45.5 -123.5t-101.5 -42.5z" />
    <glyph glyph-name="lessequal.aalt" horiz-adv-x="640" 
d="M64 120h456l-23 -120h-456zM99 304l29 151l483 130l-27 -135l-214 -49q-23 -5 -49 -10t-49 -10l-54 -10v-2q24 -6 49 -12q21 -5 45 -11t44 -12l194 -59l-26 -130z" />
    <glyph glyph-name="greaterequal.aalt" horiz-adv-x="640" 
d="M69 120h456l-23 -120h-456zM585 427l-29 -151l-483 -130l27 135l214 49q22 5 48.5 10t49.5 10l54 10v2q-25 5 -50 11q-21 5 -44.5 11.5t-43.5 12.5l-194 59l26 130z" />
    <glyph glyph-name="less.aalt" horiz-adv-x="640" 
d="M88 253l28 144l492 176l-27 -143l-219 -65q-28 -8 -54.5 -15.5t-48.5 -13.5q-26 -7 -49 -13v-2q22 -7 45 -14q20 -6 43 -13.5t46 -15.5l194 -69l-28 -139z" />
    <glyph glyph-name="equal.aalt" horiz-adv-x="640" 
d="M129 489h477l-23 -119h-477zM88 275h477l-24 -119h-476z" />
    <glyph glyph-name="greater.aalt" horiz-adv-x="640" 
d="M578 389l-28 -144l-492 -176l27 143l219 65q27 8 54 15.5t49 13.5q26 7 49 13v2q-22 7 -45 14q-20 6 -43.5 13.5t-45.5 15.5l-194 69l28 139z" />
    <glyph glyph-name="space.aalt" horiz-adv-x="320" 
 />
    <glyph glyph-name="comma.aalt" horiz-adv-x="320" 
d="M7 -114q37 5 62.5 30.5t33.5 79.5l1 4h-76l32 164h164l-34 -173q-9 -46 -26.5 -77.5t-42.5 -52t-57 -30t-70 -12.5z" />
    <glyph glyph-name="period.aalt" horiz-adv-x="320" 
d="M60 164h164l-32 -164h-164z" />
    <glyph glyph-name="colon.aalt" horiz-adv-x="320" 
d="M123 485h163l-31 -164h-164zM60 164h164l-32 -164h-164z" />
    <glyph glyph-name="semicolon.aalt" horiz-adv-x="320" 
d="M123 485h163l-31 -164h-164zM7 -114q37 5 62.5 30.5t33.5 79.5l1 4h-76l32 164h164l-34 -173q-9 -46 -26.5 -77.5t-42.5 -52t-57 -30t-70 -12.5z" />
    </font>
</defs>
</svg>
