<?xml version="1.0" standalone="no"?>
<!DOCTYPE svg PUBLIC "-//W3C//DTD SVG 1.1//EN" "http://www.w3.org/Graphics/SVG/1.1/DTD/svg11.dtd" >
<svg xmlns="http://www.w3.org/2000/svg" xmlns:xlink="http://www.w3.org/1999/xlink" version="1.1">
<metadata>
Created by FontForge 20201107 at Mon Oct  3 14:58:44 2016
 By 
Copyright (c) 2011 - 2012 Linotype Corp., www.linotype.com. All rights reserved. This font software may not be reproduced, modified, disclosed or transferred without the express written approval of Linotype Corp. 
</metadata>
<defs>
<font id="NeueHaasGroteskTextPro-Italic" horiz-adv-x="650" >
  <font-face 
    font-family="Neue Haas Grotesk Text Pro"
    font-weight="400"
    font-style="italic"
    font-stretch="normal"
    units-per-em="1000"
    panose-1="2 11 5 4 2 2 2 9 2 4"
    ascent="781"
    descent="-219"
    x-height="537"
    cap-height="744"
    bbox="-328 -245 1221 977"
    underline-thickness="50"
    underline-position="-100"
    slope="-11"
    unicode-range="U+000D-FB04"
  />
<missing-glyph horiz-adv-x="500" 
 />
    <glyph glyph-name="uniFB00" unicode="ff" horiz-adv-x="630" 
d="M162 537l17 89q13 63 54 92q36 26 97 26q34 0 66 -7l-14 -72q-31 2 -51.5 1t-33 -6.5t-19 -16t-9.5 -27.5l-16 -79h198l19 95q13 68 62 97q17 11 40 16t49 5q34 0 66 -7l-14 -72q-31 2 -51.5 1t-33.5 -6.5t-19.5 -16t-9.5 -27.5l-17 -85h105l-15 -71h-104l-90 -466h-91
l90 466h-197l-91 -466h-91l90 466h-78l15 71h77z" />
    <glyph glyph-name="uniFB01" unicode="fi" horiz-adv-x="556" 
d="M162 537l19 95q12 61 51 90q38 28 101 28q34 0 65 -7l-13 -72q-32 2 -52.5 1t-33 -6.5t-19.5 -16t-10 -27.5l-17 -85h105l-14 -71h-105l-90 -466h-91l90 466h-78l15 71h77zM452 537h91l-104 -537h-92zM469 636l21 108h95l-21 -108h-95z" />
    <glyph glyph-name="uniFB02" unicode="fl" horiz-adv-x="559" 
d="M181 632q7 35 22 58.5t38 37.5q35 22 91 22q34 0 66 -7l-13 -72q-32 2 -52.5 1t-33 -6.5t-19.5 -16t-10 -27.5l-17 -85h105l-14 -71h-105l-90 -466h-91l90 466h-78l15 71h77zM492 744h92l-145 -744h-92z" />
    <glyph glyph-name="uniFB03" unicode="ffi" horiz-adv-x="844" 
d="M162 537l17 89q13 63 54 92q36 26 97 26q34 0 66 -7l-14 -72q-31 2 -51.5 1t-33 -6.5t-19 -16t-9.5 -27.5l-16 -79h198l19 95q13 68 62 97q17 11 40 16t49 5q34 0 66 -7l-14 -72q-31 2 -51.5 1t-33.5 -6.5t-19.5 -16t-9.5 -27.5l-17 -85h105l-15 -71h-104l-90 -466h-91
l90 466h-197l-91 -466h-91l90 466h-78l15 71h77zM741 537h91l-104 -537h-92zM758 636l21 108h95l-21 -108h-95z" />
    <glyph glyph-name="uniFB04" unicode="ffl" horiz-adv-x="847" 
d="M162 537l17 89q13 63 54 92q36 26 97 26q34 0 66 -7l-14 -72q-31 2 -51.5 1t-33 -6.5t-19 -16t-9.5 -27.5l-16 -79h198l19 95q13 68 62 97q17 11 40 16t49 5q34 0 66 -7l-14 -72q-31 2 -51.5 1t-33.5 -6.5t-19.5 -16t-9.5 -27.5l-17 -85h105l-15 -71h-104l-90 -466h-91
l90 466h-197l-91 -466h-91l90 466h-78l15 71h77zM781 744h92l-145 -744h-92z" />
    <glyph glyph-name=".notdef" horiz-adv-x="500" 
 />
    <glyph glyph-name="glyph1" horiz-adv-x="0" 
 />
    <glyph glyph-name="glyph1" horiz-adv-x="0" 
 />
    <glyph glyph-name="uni000D" unicode="&#xd;" horiz-adv-x="0" 
 />
    <glyph glyph-name="space" unicode=" " horiz-adv-x="261" 
 />
    <glyph glyph-name="exclam" unicode="!" horiz-adv-x="261" 
d="M131 514l45 230h99l-46 -236l-84 -292h-49zM48 110h108l-22 -110h-107z" />
    <glyph glyph-name="quotedbl" unicode="&#x22;" horiz-adv-x="350" 
d="M309 744h84l-49 -248h-84zM147 744h84l-49 -248h-84z" />
    <glyph glyph-name="numbersign" unicode="#" horiz-adv-x="568" 
d="M340 204h-137l-43 -204h-73l43 204h-105l19 78h102l34 159h-105l19 78h102l41 194h73l-41 -194h137l41 194h73l-41 -194h104l-19 -78h-101l-34 -159h104l-19 -78h-101l-43 -204h-73zM219 282h137l34 159h-137z" />
    <glyph glyph-name="dollar" unicode="$" horiz-adv-x="632" 
d="M232 0q-51 10 -89.5 31t-64 50.5t-38.5 66t-13 77.5h97q6 -124 123 -149l51 261q-40 13 -73.5 30t-58 40t-38 54t-13.5 72q0 42 16.5 77.5t47 61t74.5 40t98 14.5h11.5t11.5 -1l14 72h59l-16 -79q81 -18 124.5 -67.5t46.5 -113.5h-91q-2 39 -27 66t-67 40l-46 -235
q44 -14 81.5 -31t65 -41.5t43 -58t15.5 -79.5q0 -45 -19 -82.5t-53.5 -64.5t-82.5 -42.5t-106 -15.5h-13t-12 1l-20 -104h-59zM477 196q0 23 -6.5 40.5t-20.5 31.5t-38 26.5t-58 24.5l-49 -250h11q72 0 116.5 33.5t44.5 93.5zM209 539q0 -39 24 -64.5t82 -47.5l44 225h-11
q-66 0 -102 -31t-37 -82z" />
    <glyph glyph-name="percent" unicode="%" horiz-adv-x="878" 
d="M673 712h71l-500 -712h-72zM235 316q-37 0 -65.5 12.5t-48 35t-30 53t-10.5 66.5q0 50 14 95t39 78.5t60.5 53.5t78.5 20q37 0 65 -12.5t47 -35t29 -53t10 -66.5q0 -53 -14 -98t-39.5 -78t-60 -52t-75.5 -19zM236 379q26 0 46.5 16t34.5 42.5t21.5 61t7.5 72.5
q0 45 -19 70.5t-56 25.5q-26 0 -46.5 -15t-34.5 -40.5t-21.5 -59.5t-7.5 -71q0 -45 17.5 -73.5t57.5 -28.5zM647 -16q-74 0 -114 47t-40 120q0 50 14 95t39 78.5t60.5 53t78.5 19.5q37 0 65 -12.5t47 -35t29 -52.5t10 -66q0 -53 -14.5 -98t-39.5 -78t-60 -52t-75 -19z
M648 47q26 0 46.5 16t34.5 42t21.5 60.5t7.5 72.5q0 46 -19.5 71.5t-55.5 25.5q-26 0 -46.5 -15t-34.5 -41t-21.5 -60t-7.5 -71q0 -45 17.5 -73t57.5 -28z" />
    <glyph glyph-name="ampersand" unicode="&#x26;" horiz-adv-x="652" 
d="M262 -15q-47 0 -89 12t-74 36.5t-51 61.5t-19 86t15.5 86.5t43 67t65.5 52t83 42.5l-9 15q-23 38 -34.5 70t-11.5 66q0 36 12.5 68.5t36 56.5t57 38.5t76.5 14.5q30 0 58.5 -9t51 -27t36.5 -45t14 -62q0 -40 -13.5 -71.5t-36.5 -57t-54 -46t-66 -36.5l3 -5q1 -2 14.5 -25
t32.5 -55t39.5 -66t34.5 -56q21 35 36.5 77.5t23.5 90.5h81q-11 -69 -35 -130t-60 -110l76 -125h-104l-35 57q-40 -33 -89.5 -52.5t-108.5 -19.5zM265 63q44 0 82.5 16.5t71.5 46.5l-146 242q-32 -15 -59.5 -33t-47 -39.5t-30.5 -48.5t-11 -61q0 -58 38.5 -90.5t101.5 -32.5
zM269 587q0 -27 10 -52.5t27 -51.5l12 -20q61 29 88.5 64t27.5 81q0 34 -21.5 55.5t-53.5 21.5q-45 0 -67.5 -29.5t-22.5 -68.5z" />
    <glyph glyph-name="quotesingle" unicode="'" horiz-adv-x="187" 
d="M147 744h84l-49 -248h-84z" />
    <glyph glyph-name="parenleft" unicode="(" horiz-adv-x="334" 
d="M175 -125q-41 78 -65 166t-24 188q0 93 19 173t52.5 148.5t79.5 126.5t100 107h80q-55 -59 -98 -122t-72.5 -133.5t-45 -151t-15.5 -173.5q0 -183 62 -329h-73v0z" />
    <glyph glyph-name="parenright" unicode=")" horiz-adv-x="334" 
d="M-55 -125q55 59 98 122t72.5 133.5t45 151t15.5 173.5q0 183 -62 329h73q41 -78 65 -166t24 -188q0 -93 -19 -173t-52.5 -148.5t-79.5 -126.5t-100 -107h-80v0z" />
    <glyph glyph-name="asterisk" unicode="*" horiz-adv-x="402" 
d="M123 464l88 103l-99 37l27 51l101 -34l24 123h64l-24 -123l113 34l11 -53l-115 -37l52 -106l-55 -30l-51 110l-92 -110z" />
    <glyph glyph-name="plus" unicode="+" horiz-adv-x="595" 
d="M85 375h197l41 207h76l-41 -207h197l-13 -71h-198l-40 -208h-76l40 208h-196z" />
    <glyph glyph-name="comma" unicode="," horiz-adv-x="215" 
d="M-16 -105q11 2 21 6t18 13t14.5 24t11.5 39l4 23h-49l21 110h108l-26 -133q-14 -71 -45.5 -99.5t-86.5 -32.5z" />
    <glyph glyph-name="hyphen" unicode="-" horiz-adv-x="371" 
d="M61 326h275l-15 -82h-275z" />
    <glyph glyph-name="period" unicode="." horiz-adv-x="215" 
d="M25 110h108l-22 -110h-107z" />
    <glyph glyph-name="slash" unicode="/" horiz-adv-x="433" 
d="M435 783h94l-533 -908h-94z" />
    <glyph glyph-name="zero" unicode="0" horiz-adv-x="657" 
d="M310 -16q-62 0 -108 21.5t-77.5 60.5t-47 93t-15.5 118q0 87 23.5 168.5t66.5 144.5t104 101.5t136 38.5q58 0 103.5 -21t76.5 -59t47 -92.5t16 -120.5q0 -87 -21.5 -168.5t-62.5 -144.5t-101.5 -101.5t-139.5 -38.5zM310 64q57 0 100 33t71.5 86.5t43 121.5t14.5 138
q0 46 -9 84.5t-27.5 66t-46.5 43t-67 15.5q-54 0 -97 -34t-72.5 -88t-45 -121.5t-15.5 -134.5q0 -47 9 -86t27.5 -66.5t47 -42.5t67.5 -15z" />
    <glyph glyph-name="one" unicode="1" horiz-adv-x="389" 
d="M239 514h-165l13 63q73 2 129 33t85 107h72l-140 -717h-94z" />
    <glyph glyph-name="two" unicode="2" horiz-adv-x="591" 
d="M-13 0q15 72 45 121t70 85q48 43 104.5 72.5t112.5 56.5q42 20 75 39.5t56 42.5t35 51.5t12 66.5q0 51 -33 85t-90 34q-36 0 -60.5 -9t-45.5 -27q-25 -20 -42.5 -55t-26.5 -86h-97q11 70 38.5 118t65.5 78q71 57 174 57q51 0 91 -14.5t67.5 -40t42.5 -60.5t15 -75
q0 -59 -19 -99.5t-51.5 -70.5t-76.5 -54t-93 -49q-31 -17 -65 -34t-66 -37.5t-58.5 -46t-41.5 -58.5q0 -1 -0.5 -1.5t-0.5 -2.5h374l-16 -87h-495v0z" />
    <glyph glyph-name="three" unicode="3" horiz-adv-x="608" 
d="M286 -16q-63 0 -112.5 19t-84.5 53t-51.5 80t-11.5 100h91q-2 -39 8 -71t31.5 -55.5t55.5 -36.5t80 -13q36 0 66.5 9t53 27.5t35.5 46.5t13 65q0 27 -10 52t-28.5 43.5t-45.5 29.5t-61 11h-51l14 70h41q177 0 177 126q0 51 -33 84.5t-90 33.5q-72 0 -120 -43t-56 -121
h-92q7 54 29 98t57 74.5t81.5 47t101.5 16.5q48 0 87.5 -13.5t68 -37.5t44.5 -58t16 -75q0 -33 -11.5 -61t-31.5 -50t-47 -37.5t-57 -23.5v-3q27 -9 48 -25t36 -38t23 -47.5t8 -53.5q0 -54 -21.5 -95.5t-58.5 -70t-86.5 -43t-105.5 -14.5z" />
    <glyph glyph-name="four" unicode="4" horiz-adv-x="606" 
d="M355 173h-338l16 85l443 462h79l-93 -472h113l-15 -75h-113l-34 -173h-92zM112 243l36 2q15 1 33 2t33 1h156l49 249q2 14 6.5 31t8.5 32q4 17 10 34h-2l-24 -30q-11 -13 -23 -27t-23 -25l-169 -177q-13 -14 -28.5 -28.5t-29.5 -28.5q-17 -16 -33 -31v-4z" />
    <glyph glyph-name="five" unicode="5" horiz-adv-x="591" 
d="M270 -16q-59 0 -104.5 18.5t-76.5 47.5t-47.5 66t-17.5 74h93q1 -23 11 -45.5t29 -40t47.5 -28.5t66.5 -11t70.5 13.5t56 38.5t36.5 61t13 81q0 31 -8.5 57.5t-26 45.5t-42.5 30t-58 11q-53 0 -92.5 -21.5t-64.5 -53.5h-89l128 385h390l-15 -82h-321l-69 -209h2
q29 28 68.5 43t84.5 15q44 0 82.5 -15t67.5 -43.5t45.5 -69.5t16.5 -92q0 -62 -21 -113t-58 -87t-87.5 -56t-109.5 -20z" />
    <glyph glyph-name="six" unicode="6" horiz-adv-x="610" 
d="M297 59q41 0 73.5 16t55.5 43t35 62t12 74q0 31 -10.5 57t-29 44.5t-44.5 28.5t-57 10q-42 0 -76 -14.5t-58.5 -39.5t-37.5 -59t-13 -73q0 -69 40.5 -109t109.5 -40zM294 -16q-63 0 -107 21.5t-74 56.5q-29 32 -41.5 79.5t-12.5 104.5q0 59 9.5 118.5t27.5 113t44.5 99.5
t60.5 78q77 75 186 75q53 0 91 -16t63 -41.5t37.5 -58t14.5 -66.5h-91q-1 21 -8.5 40t-22 33.5t-37 23.5t-52.5 9q-84 0 -139 -73.5t-83 -202.5h2q40 47 87 68.5t103 21.5q46 0 84.5 -16.5t66.5 -45t44 -67.5t16 -84q0 -54 -20 -103t-55.5 -86.5t-85 -59.5t-108.5 -22z" />
    <glyph glyph-name="seven" unicode="7" horiz-adv-x="544" 
d="M90 0q18 94 58.5 186.5t95.5 175.5t121 152.5t135 117.5v3q-16 -2 -34 -3q-16 -1 -38 -1.5t-49 -0.5h-272l16 83h486l-15 -75q-62 -48 -125.5 -114.5t-118.5 -148t-96.5 -176.5t-59.5 -199h-104v0z" />
    <glyph glyph-name="eight" unicode="8" horiz-adv-x="620" 
d="M299 59q46 0 79 12.5t55 34t32.5 49.5t10.5 59q0 29 -11 55t-32.5 45t-53.5 30t-73 11q-45 0 -78.5 -12.5t-56 -34t-33.5 -50.5t-11 -63q0 -60 45 -98t127 -38zM362 423q66 0 107 33.5t41 90.5q0 50 -37.5 79t-100.5 29q-68 0 -109 -31.5t-41 -87.5q0 -52 38.5 -82.5
t101.5 -30.5zM300 -16q-52 0 -101 13t-86.5 39.5t-60 65.5t-22.5 91q0 44 15 78.5t40.5 60t58.5 42.5t70 26v3q-36 19 -60 53.5t-24 82.5q0 39 17.5 74t49.5 61t77.5 41t102.5 15q49 0 90.5 -13t71.5 -36.5t46.5 -56.5t16.5 -73q0 -66 -37 -109.5t-103 -60.5v-3
q48 -19 79 -63.5t31 -101.5q0 -54 -20.5 -97t-57 -72t-86.5 -44.5t-108 -15.5z" />
    <glyph glyph-name="nine" unicode="9" horiz-adv-x="616" 
d="M320 316q42 0 77 14.5t60 39.5t38.5 59.5t13.5 73.5q0 33 -11 61t-31 48.5t-48 31.5t-62 11q-40 0 -73 -14.5t-56.5 -40t-36.5 -59.5t-13 -73q0 -69 39 -110.5t103 -41.5zM261 -16q-54 0 -94.5 16t-67.5 42.5t-41.5 61t-16.5 72.5h91q3 -22 10.5 -43t23 -37t39.5 -26
t59 -10t62 11.5t51 31.5q74 62 113 225l-2 1q-37 -42 -82.5 -63.5t-99.5 -21.5q-49 0 -89 17.5t-68.5 48t-44 70.5t-15.5 85q0 52 19.5 99.5t55 84.5t85.5 59t112 22q58 0 102.5 -20.5t71.5 -49.5q33 -34 48.5 -77.5t15.5 -103.5q0 -63 -11.5 -129.5t-34 -127t-56 -110.5
t-76.5 -80q-68 -48 -160 -48z" />
    <glyph glyph-name="colon" unicode=":" horiz-adv-x="221" 
d="M89 426h108l-22 -110h-107zM28 110h108l-22 -110h-107z" />
    <glyph glyph-name="semicolon" unicode=";" horiz-adv-x="221" 
d="M89 426h108l-22 -110h-107zM-13 -105q11 2 21 6t18 13t14.5 24t11.5 39l4 23h-49l21 110h108l-26 -133q-14 -71 -45.5 -99.5t-86.5 -32.5z" />
    <glyph glyph-name="less" unicode="&#x3c;" horiz-adv-x="543" 
d="M64 278l17 93l454 179l-16 -86l-244 -92q-21 -8 -46 -16.5t-46 -15.5q-26 -8 -50 -16v-2q21 -8 43 -17q19 -8 40 -16t39 -16l209 -93l-17 -83z" />
    <glyph glyph-name="equal" unicode="=" horiz-adv-x="594" 
d="M101 455h469l-14 -73h-469zM65 269h469l-14 -72h-469z" />
    <glyph glyph-name="greater" unicode="&#x3e;" horiz-adv-x="543" 
d="M48 184l246 92q20 8 45 16t47 16q26 9 50 17v2q-22 8 -44 17q-19 8 -40.5 16t-38.5 16l-209 93l16 81l384 -180l-17 -93l-454 -180z" />
    <glyph glyph-name="question" unicode="?" horiz-adv-x="538" 
d="M166 110h107l-22 -110h-106zM198 217q8 43 18.5 72.5t26 52t38.5 41t56 40.5l44 28t39.5 31t28.5 39t11 54q0 21 -7.5 39.5t-22.5 33t-38 23t-55 8.5q-69 0 -114.5 -41t-56.5 -121h-93q7 55 28.5 99.5t55.5 76t80 48.5t104 17q51 0 91.5 -14t68.5 -38.5t42.5 -57.5
t14.5 -70q0 -38 -12.5 -67.5t-32 -53t-44 -42t-49.5 -33.5q-40 -24 -64 -41t-39 -35q-14 -17 -21.5 -38t-13.5 -51h-84z" />
    <glyph glyph-name="at" unicode="@" horiz-adv-x="925" 
d="M413 95q-35 0 -63.5 12.5t-49 35t-32 53.5t-11.5 69q0 58 16 106t44.5 82.5t67.5 53.5t85 19q45 0 74 -19.5t43 -48.5h2l11 59h86l-51 -271q-7 -38 4 -59.5t46 -21.5q22 0 44.5 12t41.5 39t31 69t12 102q0 73 -23.5 127t-65 90t-98 53.5t-122.5 17.5q-76 0 -145.5 -28.5
t-123 -82t-85.5 -130t-32 -172.5q0 -66 20.5 -122.5t60 -98t98 -64.5t134.5 -23q102 0 198 37l22 -57q-55 -24 -107.5 -34t-109.5 -10q-88 0 -160.5 26.5t-124 76t-79.5 119.5t-28 156q0 111 40 198.5t106 148.5t150 93.5t171 32.5q73 0 141.5 -22.5t121 -66.5t84.5 -109.5
t32 -151.5q0 -69 -16 -123.5t-44 -92t-66.5 -57t-83.5 -19.5q-50 0 -80.5 21.5t-40.5 57.5h-3q-25 -39 -61 -61t-81 -22zM430 162q32 0 57.5 16t43 43t26.5 62t9 74v2q0 47 -23 73.5t-67 26.5q-30 0 -54 -15.5t-40 -41.5t-24.5 -60.5t-8.5 -73.5q0 -46 18.5 -76t62.5 -30z
" />
    <glyph glyph-name="A" unicode="A" horiz-adv-x="690" 
d="M382 744h111l126 -744h-107l-31 218h-288l-117 -218h-105zM235 296h235l-29 203q-4 26 -7.5 55t-5.5 54q-3 29 -5 57h-2q-11 -26 -22 -53q-11 -23 -24 -51.5t-27 -54.5z" />
    <glyph glyph-name="B" unicode="B" horiz-adv-x="681" 
d="M172 744h273q99 0 155 -47q27 -23 42 -55t15 -74q0 -73 -38 -116t-105 -61v-4q56 -15 92.5 -56t36.5 -105q0 -103 -69 -164q-33 -29 -81.5 -45.5t-113.5 -16.5h-352zM386 88q44 0 74 10.5t48 29.5t25.5 44t7.5 55q0 58 -37.5 88.5t-97.5 30.5h-210l-50 -258h240zM403 426
q69 0 110.5 34.5t41.5 98.5q0 44 -29 72.5t-87 28.5h-182l-45 -234h191z" />
    <glyph glyph-name="C" unicode="C" horiz-adv-x="745" 
d="M373 -16q-71 0 -128.5 23t-98 65t-62 101.5t-21.5 132.5q0 94 30 177t83 144.5t125.5 97t158.5 35.5q68 0 119 -19t86 -51q35 -33 54 -77t21 -95h-98q-5 70 -52 114t-135 44q-64 0 -117 -29.5t-91 -79.5t-59 -117.5t-21 -142.5q0 -112 53 -175t157 -63q46 0 84 16t67 43
t49 63t30 77h100q-15 -66 -43 -118t-79 -95q-41 -34 -95.5 -52.5t-116.5 -18.5z" />
    <glyph glyph-name="D" unicode="D" horiz-adv-x="722" 
d="M172 744h247q71 0 124.5 -22.5t89.5 -62.5t54.5 -94t18.5 -118q0 -103 -27 -185.5t-78.5 -140.5t-127.5 -89.5t-175 -31.5h-271zM306 87q79 0 135.5 27.5t93 76t53.5 114t17 141.5q0 47 -11.5 86t-36 67.5t-62.5 44t-90 15.5h-147l-113 -572h161z" />
    <glyph glyph-name="E" unicode="E" horiz-adv-x="657" 
d="M175 744h519l-17 -86h-418l-45 -230h380l-17 -82h-379l-49 -255h429l-17 -91h-531z" />
    <glyph glyph-name="F" unicode="F" horiz-adv-x="614" 
d="M172 744h501l-18 -86h-399l-44 -229h334l-17 -83h-333l-67 -346h-102z" />
    <glyph glyph-name="G" unicode="G" horiz-adv-x="771" 
d="M361 -16q-75 0 -132.5 25.5t-96.5 72.5q-33 42 -50.5 97t-17.5 121q0 103 36 195t104 157q51 51 118.5 79.5t149.5 28.5q65 0 116 -17t87 -47.5t56 -72.5t23 -93h-105q-5 65 -50 104.5t-136 39.5q-76 0 -131.5 -34t-92 -88t-54 -119.5t-17.5 -128.5q0 -115 55.5 -175
t152.5 -60q50 0 92 16t73 44.5t51 68t27 86.5l4 24h-213l16 85h311l-76 -393h-65l-5 100h-2q-84 -116 -228 -116z" />
    <glyph glyph-name="H" unicode="H" horiz-adv-x="733" 
d="M172 744h101l-61 -314h377l61 314h101l-145 -744h-101l68 349h-377l-68 -349h-101z" />
    <glyph glyph-name="I" unicode="I" horiz-adv-x="259" 
d="M174 744h102l-145 -744h-102z" />
    <glyph glyph-name="J" unicode="J" horiz-adv-x="535" 
d="M227 -15q-51 0 -92.5 14t-69 43t-37.5 75t2 111l4 19h99l-4 -20q-9 -48 -5 -79t18 -48.5t36 -24.5t50 -7q55 0 85 32t43 97l106 547h102l-111 -567q-8 -43 -25.5 -78t-45.5 -60q-57 -54 -155 -54z" />
    <glyph glyph-name="K" unicode="K" horiz-adv-x="675" 
d="M315 379l-135 -112l-51 -267h-102l145 744h102l-45 -230q-8 -36 -16 -71t-15 -62l422 364h128l-359 -306l236 -439h-109z" />
    <glyph glyph-name="L" unicode="L" horiz-adv-x="589" 
d="M172 744h102l-128 -653h378l-18 -91h-479z" />
    <glyph glyph-name="M" unicode="M" horiz-adv-x="869" 
d="M172 744h126l80 -441q5 -28 9.5 -62t7.5 -64l7 -70h2q14 33 30 66q13 28 29 60t30 58l256 453h138l-145 -744h-96l87 449q5 25 12.5 58t14.5 62q8 34 17 70h-2l-30 -62q-13 -26 -28 -55t-27 -51l-269 -471h-79l-85 471q-4 22 -7.5 51t-6.5 55q-4 31 -6 62h-2
q-5 -36 -10 -70q-5 -29 -9.5 -62t-9.5 -58l-88 -449h-91z" />
    <glyph glyph-name="N" unicode="N" horiz-adv-x="730" 
d="M172 744h107l204 -477q10 -23 19.5 -49t17.5 -49q9 -26 18 -53h2q3 29 7 57q3 24 7.5 52t9.5 53l90 466h94l-145 -744h-102l-207 478q-10 21 -19.5 46.5t-17.5 48.5q-10 26 -19 53h-2q-3 -29 -7 -57q-3 -24 -7 -52t-9 -52l-91 -465h-95z" />
    <glyph glyph-name="O" unicode="O" horiz-adv-x="813" 
d="M395 -16q-77 0 -138.5 24t-104.5 68t-65.5 105.5t-22.5 136.5q0 87 28.5 166.5t81.5 141t127.5 98t166.5 36.5q78 0 138.5 -25t102.5 -69.5t64 -105t22 -130.5q0 -89 -27.5 -169.5t-79 -142t-126 -98t-167.5 -36.5zM401 70q69 0 123 30t91 79.5t56.5 114t19.5 134.5
q0 58 -16.5 103.5t-46.5 77t-72.5 48t-94.5 16.5q-69 0 -123.5 -30.5t-92 -80t-57 -114t-19.5 -131.5q0 -56 15.5 -101.5t45 -77.5t72.5 -50t99 -18z" />
    <glyph glyph-name="P" unicode="P" horiz-adv-x="640" 
d="M172 744h281q52 0 90.5 -14t65.5 -40q26 -25 40 -59.5t14 -76.5q0 -56 -17.5 -102t-51.5 -78t-84.5 -49.5t-116.5 -17.5h-205l-60 -307h-101zM203 387h191q86 0 128 44.5t42 120.5q0 51 -32.5 79t-92.5 28h-182z" />
    <glyph glyph-name="Q" unicode="Q" horiz-adv-x="813" 
d="M565 22q-38 -18 -80 -28t-90 -10q-77 0 -138.5 24.5t-104.5 68.5t-65.5 105.5t-22.5 135.5q0 87 28.5 166.5t81.5 141t127.5 98t166.5 36.5q78 0 138.5 -25t102.5 -69.5t64 -105t22 -130.5q0 -109 -40 -203t-115 -157l75 -84l-67 -57zM401 70q56 0 104 20l-84 96l65 57
l93 -105q55 51 83.5 127.5t28.5 162.5q0 58 -16.5 103.5t-46.5 77t-72.5 48t-94.5 16.5q-69 0 -123.5 -30.5t-92 -80t-57 -114t-19.5 -131.5q0 -56 15.5 -101.5t45 -77.5t72.5 -50t99 -18z" />
    <glyph glyph-name="R" unicode="R" horiz-adv-x="685" 
d="M172 744h288q48 0 87.5 -13t67.5 -37.5t43.5 -59.5t14.5 -78q-1 -77 -41.5 -131.5t-130.5 -76.5v-3q51 -16 76.5 -49.5t25.5 -92.5q0 -35 -3.5 -72.5t-3.5 -63.5q0 -29 4 -41.5t9 -17.5l-1 -8h-102q-12 12 -12 47q0 31 4.5 70t4.5 79q0 62 -32 89t-101 27h-181l-60 -312
h-102zM205 391h187q91 0 135 42.5t44 112.5q1 54 -29.5 84t-98.5 30h-186z" />
    <glyph glyph-name="S" unicode="S" horiz-adv-x="662" 
d="M339 -16q-79 0 -137 20.5t-96.5 56t-58 82t-20.5 98.5h101q5 -84 57 -131t155 -47q78 0 122.5 37t44.5 101q0 28 -10.5 49t-33 37.5t-57.5 32t-84 33.5q-42 16 -78.5 33.5t-63 41t-41.5 55.5t-15 76q0 45 17 81.5t48.5 63t77.5 41t103 14.5q68 0 117.5 -18t82.5 -48
t50 -70t20 -85h-96q-5 62 -49.5 103t-126.5 41q-69 0 -107 -31.5t-38 -86.5q0 -24 9 -42t28 -33t49.5 -28.5t72.5 -29.5q49 -18 91 -37t72.5 -44.5t48 -60.5t17.5 -86q0 -47 -19.5 -87.5t-55 -69.5t-85.5 -45.5t-112 -16.5z" />
    <glyph glyph-name="T" unicode="T" horiz-adv-x="647" 
d="M128 744h580l-16 -86h-241l-128 -658h-100l128 658h-240z" />
    <glyph glyph-name="U" unicode="U" horiz-adv-x="696" 
d="M329 -12q-62 0 -115.5 16.5t-90 50.5t-52 84.5t-2.5 118.5l96 486h99l-94 -486q-18 -92 24.5 -138.5t135.5 -46.5q86 0 135 40t66 131l98 500h100l-101 -516q-25 -128 -102 -184t-197 -56z" />
    <glyph glyph-name="V" unicode="V" horiz-adv-x="657" 
d="M116 744h102l62 -493q2 -21 4.5 -48.5t4.5 -52.5q2 -29 4 -59h2q14 31 27 60q11 25 23.5 52t22.5 47l255 494h110l-401 -744h-109z" />
    <glyph glyph-name="W" unicode="W" horiz-adv-x="951" 
d="M116 744h99l20 -436q1 -28 1.5 -62t-0.5 -65q-1 -36 -2 -73h2q12 36 25 72q11 31 24.5 65t26.5 62l202 437h106l27 -437q2 -28 3 -62t1 -65v-72h2q12 37 24 73q11 31 24 65t25 62l195 436h103l-347 -744h-97l-27 482q-2 24 -2.5 55t0.5 59q0 33 2 66h-2q-12 -32 -24 -65
q-11 -28 -23 -59t-23 -56l-223 -482h-97z" />
    <glyph glyph-name="X" unicode="X" horiz-adv-x="659" 
d="M298 389l-159 355h108l74 -178q8 -17 15.5 -38.5t14.5 -41.5l16 -46h2q14 22 30 44q13 19 29 40.5t30 39.5l147 180h116l-305 -370l169 -374h-113l-79 194q-8 17 -15 39.5t-14 42.5q-8 23 -15 46h-2l-32 -44q-14 -19 -30.5 -41t-30.5 -41l-157 -196h-121z" />
    <glyph glyph-name="Y" unicode="Y" horiz-adv-x="669" 
d="M293 312l-177 432h105l88 -224q8 -20 15.5 -44.5t14.5 -45.5q8 -25 15 -50h2q16 25 33 50q14 21 31 45.5t33 44.5l177 224h115l-351 -433l-61 -311h-101z" />
    <glyph glyph-name="Z" unicode="Z" horiz-adv-x="659" 
d="M10 93l443 467q15 17 33.5 34.5t35.5 32.5q19 18 38 35v3q-24 -2 -47 -3q-20 -1 -42.5 -1.5t-41.5 -0.5h-283l16 84h529l-15 -77l-440 -467q-17 -18 -37.5 -37.5t-38.5 -36.5q-21 -19 -43 -38v-3q24 1 49 2q21 1 45 1.5t44 0.5h325l-18 -89h-571z" />
    <glyph glyph-name="bracketleft" unicode="[" horiz-adv-x="353" 
d="M188 784h227l-14 -72h-133l-148 -761h133l-15 -76h-226z" />
    <glyph glyph-name="backslash" unicode="\" horiz-adv-x="541" 
d="M107 783h91l294 -908h-91z" />
    <glyph glyph-name="bracketright" unicode="]" horiz-adv-x="353" 
d="M-19 -49h132l148 761h-132l13 72h226l-176 -909h-226z" />
    <glyph glyph-name="asciicircum" unicode="^" horiz-adv-x="483" 
d="M282 744h97l120 -299h-93l-85 218h-2l-160 -218h-101z" />
    <glyph glyph-name="underscore" unicode="_" horiz-adv-x="422" 
d="M-73 -107h426l-13 -66h-426z" />
    <glyph glyph-name="grave" unicode="`" horiz-adv-x="532" 
d="M228 770h107l47 -145h-73z" />
    <glyph glyph-name="a" unicode="a" horiz-adv-x="542" 
d="M185 -11q-80 0 -126 37.5t-46 101.5q0 46 15.5 76.5t44.5 50.5t69.5 31t91.5 17q44 5 77 10t55 15t33 27.5t10 46.5q-1 37 -28 58.5t-81 21.5q-60 0 -95.5 -27.5t-46.5 -78.5h-87q6 37 23.5 68.5t47 55t69.5 37t91 13.5q48 0 86 -12.5t62.5 -37t34 -62t-0.5 -87.5
l-45 -235q-6 -30 3.5 -43t43.5 -7h3l-12 -63q-9 -3 -19.5 -5.5t-27.5 -2.5q-35 0 -56.5 18t-23.5 55h-2q-26 -37 -68.5 -58t-94.5 -21zM201 52q37 0 66 11t50 29.5t33.5 41.5t17.5 47l20 102q-23 -14 -57 -23t-86 -17q-31 -5 -56.5 -12.5t-44 -20t-28.5 -30.5t-10 -45
q0 -23 8 -38.5t21 -25.5t30.5 -14.5t35.5 -4.5z" />
    <glyph glyph-name="b" unicode="b" horiz-adv-x="587" 
d="M161 744h91l-38 -196q-4 -20 -8.5 -42t-9.5 -40h2q34 41 76 62.5t93 21.5q46 0 81.5 -16t60 -45t37.5 -70t13 -91q0 -68 -18 -130t-52 -109.5t-83 -75.5t-111 -28q-66 0 -108 27.5t-62 75.5h-4l-16 -88h-89zM283 58q44 0 78 24.5t57 63.5t35 86.5t12 94.5
q0 68 -31.5 107.5t-91.5 39.5q-47 0 -83.5 -21.5t-61 -57t-37 -80t-12.5 -90.5q0 -35 8.5 -65.5t25 -53t42 -35.5t59.5 -13z" />
    <glyph glyph-name="c" unicode="c" horiz-adv-x="552" 
d="M253 -15q-53 0 -94.5 16.5t-70 46t-43.5 70.5t-15 91q0 70 21 132t59.5 108.5t93 73.5t121.5 27q52 0 90 -15t63 -40.5t37.5 -60t13.5 -72.5h-89q-1 51 -30.5 82.5t-92.5 31.5q-48 0 -84 -23.5t-61 -62t-37.5 -87t-12.5 -97.5q0 -69 32.5 -108t99.5 -39q59 0 101 33.5
t61 97.5h90q-26 -100 -93 -152.5t-160 -52.5z" />
    <glyph glyph-name="d" unicode="d" horiz-adv-x="587" 
d="M225 -15q-43 0 -79 15.5t-62 44t-40.5 70t-14.5 93.5q0 72 20.5 134.5t56.5 108.5t85.5 72.5t108.5 26.5q63 0 102.5 -28.5t61.5 -78.5h2q2 15 6.5 42t9.5 53l41 206h91l-146 -744h-88l12 67q-34 -38 -75 -60t-92 -22zM248 58q46 0 81.5 23.5t60.5 60.5t38 83t13 92
q0 33 -8 61.5t-25 49.5t-43 33t-61 12q-45 0 -79 -23.5t-56.5 -61t-33.5 -84.5t-11 -93q0 -68 29.5 -110.5t94.5 -42.5z" />
    <glyph glyph-name="e" unicode="e" horiz-adv-x="568" 
d="M263 -15q-58 0 -101 18t-72 49.5t-43.5 74t-14.5 91.5q0 66 21 126.5t59.5 106t92.5 72.5t121 27q53 0 92.5 -16.5t65.5 -46t38.5 -70t12.5 -88.5q0 -20 -2 -40.5t-5 -41.5h-404q-1 -8 -1 -15v-15q0 -76 36.5 -117t108.5 -41q50 0 89.5 23.5t58.5 71.5h91
q-29 -84 -95 -126.5t-149 -42.5zM319 480q-37 0 -67 -13.5t-53 -36.5t-39 -53.5t-25 -64.5h306q6 36 1.5 67t-19.5 53.5t-41 35t-63 12.5z" />
    <glyph glyph-name="f" unicode="f" horiz-adv-x="341" 
d="M85 537h77l19 95q12 61 51 90q37 28 101 28q34 0 65 -7l-13 -72q-32 2 -52.5 1t-33 -6.5t-19.5 -16t-10 -27.5l-17 -85h105l-14 -71h-105l-90 -466h-91l90 466h-78z" />
    <glyph glyph-name="g" unicode="g" horiz-adv-x="579" 
d="M218 -189q-50 0 -89 11.5t-66 31.5t-42 47.5t-17 60.5h87q5 -36 36 -59t93 -23q64 0 103.5 33t50.5 93l6 37q0 1 1.5 7.5t3.5 16t5 20t5 19.5h-1q-31 -36 -69.5 -59t-91.5 -23q-46 0 -82 17t-61 46t-38 69t-13 85q0 67 20.5 124t56 98t83 64t100.5 23q61 0 101.5 -26.5
t61.5 -73.5l17 88h89l-105 -535q-11 -53 -32.5 -89.5t-53 -59t-72 -33t-87.5 -10.5zM256 96q48 0 82.5 23t57 58t33.5 78t11 82q0 63 -34.5 100.5t-103.5 37.5q-42 0 -74 -20.5t-53.5 -54t-33 -76.5t-11.5 -88q0 -63 30.5 -101.5t95.5 -38.5z" />
    <glyph glyph-name="h" unicode="h" horiz-adv-x="566" 
d="M161 744h91l-39 -204l-19 -81h3q30 44 75 67.5t99 23.5q39 0 71.5 -13t53.5 -37t29 -59t-1 -80l-72 -361h-91l71 359q11 55 -12 85t-82 30q-60 0 -106 -35.5t-59 -99.5l-66 -339h-91z" />
    <glyph glyph-name="i" unicode="i" horiz-adv-x="224" 
d="M121 537h91l-105 -537h-91zM159 744h95l-21 -108h-95z" />
    <glyph glyph-name="j" unicode="j" horiz-adv-x="224" 
d="M-48 -170q-14 0 -26.5 1.5t-23.5 3.5l15 74h2q8 -2 13 -2.5t12 -0.5q29 0 44 12t20 40l113 579h91l-114 -584q-8 -39 -21.5 -63t-32.5 -37.5t-42 -18t-50 -4.5zM159 744h95l-21 -108h-95z" />
    <glyph glyph-name="k" unicode="k" horiz-adv-x="536" 
d="M161 744h90l-64 -328l-25 -109l272 230h116l-246 -203l164 -334h-98l-134 280l-89 -70l-41 -210h-90z" />
    <glyph glyph-name="l" unicode="l" horiz-adv-x="229" 
d="M164 744h91l-145 -744h-91z" />
    <glyph glyph-name="m" unicode="m" horiz-adv-x="839" 
d="M121 537h89l-16 -81h2q32 43 73 68.5t92 25.5q48 0 81 -26.5t44 -74.5h2q35 49 81 75t94 26q35 0 63.5 -13t47 -36.5t25.5 -57.5t-1 -76l-71 -367h-90l72 366q9 51 -10.5 79t-69.5 28q-23 0 -46 -9.5t-43 -26.5t-35 -42t-21 -56l-67 -339h-92l72 365q10 51 -9.5 79.5
t-66.5 28.5q-22 0 -45.5 -9.5t-44.5 -27.5t-36.5 -43t-21.5 -56l-66 -337h-91z" />
    <glyph glyph-name="n" unicode="n" horiz-adv-x="566" 
d="M121 537h90l-17 -80h2q30 43 75.5 68t99.5 25q39 0 71.5 -13t53.5 -37.5t29 -59.5t-1 -80l-72 -360h-91l71 358q11 55 -12 85.5t-82 30.5q-60 0 -106 -36t-59 -100l-66 -338h-91z" />
    <glyph glyph-name="o" unicode="o" horiz-adv-x="586" 
d="M260 -15q-56 0 -98 18.5t-71 50.5t-43.5 75t-14.5 93q0 65 22 124.5t61.5 104.5t93.5 72t119 27q56 0 99 -18.5t71.5 -50.5t43 -75t14.5 -93q0 -66 -22 -125.5t-61.5 -104.5t-94 -71.5t-119.5 -26.5zM265 59q47 0 84 22t62.5 58.5t39 82.5t13.5 94q0 34 -8.5 63.5
t-25.5 51.5t-44 34t-63 12q-46 0 -83 -22.5t-62.5 -59t-39 -83t-13.5 -94.5q0 -69 34 -114t106 -45z" />
    <glyph glyph-name="p" unicode="p" horiz-adv-x="587" 
d="M295 -15q-70 0 -110.5 28.5t-62.5 76.5h-2q-1 -7 -4.5 -35t-9.5 -60l-34 -177h-92l141 719h89l-15 -72h3q33 42 75.5 63.5t93.5 21.5q46 0 81.5 -16t60 -45t37.5 -70t13 -91q0 -68 -18 -130t-52 -109.5t-83 -75.5t-111 -28zM283 58q44 0 78 24.5t57 63.5t35 86.5t12 94.5
q0 68 -31.5 107.5t-91.5 39.5q-47 0 -83.5 -21.5t-61 -57t-37 -80t-12.5 -90.5q0 -35 8.5 -65.5t25 -53t42 -35.5t59.5 -13z" />
    <glyph glyph-name="q" unicode="q" horiz-adv-x="588" 
d="M227 -15q-43 0 -79 15.5t-62 44t-40.5 70t-14.5 93.5q0 72 20.5 134.5t56.5 108.5t85.5 72.5t108.5 26.5q62 0 102 -28.5t62 -78.5h2l19 94h90l-142 -719h-91l35 177q4 20 8.5 39t7.5 33h-1q-34 -38 -75 -60t-92 -22zM250 58q46 0 81.5 23.5t60.5 60.5t38 83t13 92
q0 33 -8 61.5t-25 49.5t-43 33t-61 12q-45 0 -79 -23.5t-56.5 -61t-33.5 -84.5t-11 -93q0 -68 29.5 -110.5t94.5 -42.5z" />
    <glyph glyph-name="r" unicode="r" horiz-adv-x="365" 
d="M121 537h89l-19 -95h3q28 47 68 74t92 27q24 0 34 -4l-11 -89h-4q-7 2 -15 4t-22 2q-60 0 -107 -39t-63 -119l-59 -298h-91z" />
    <glyph glyph-name="s" unicode="s" horiz-adv-x="523" 
d="M245 -14q-59 0 -102 13t-71.5 36.5t-43 56t-17.5 72.5h93q5 -59 43.5 -82.5t99.5 -23.5q64 0 91.5 27t27.5 64q0 32 -28.5 52.5t-92.5 40.5q-38 12 -68.5 24t-53 29.5t-35 41t-13.5 58.5q-1 33 12.5 61.5t39 49t62.5 32.5t84 12q104 0 155.5 -44t53.5 -113h-92
q-2 87 -117 87q-56 0 -80.5 -20.5t-24.5 -54.5t31.5 -51.5t94.5 -37.5q33 -11 63 -23.5t52.5 -31.5t36 -45t14.5 -62q0 -38 -15 -69t-43.5 -53t-68 -34t-88.5 -12z" />
    <glyph glyph-name="t" unicode="t" horiz-adv-x="352" 
d="M87 537h83l33 170h90l-33 -170h100l-15 -71h-99l-66 -336q-6 -32 6.5 -45t38.5 -13q12 0 24 1.5t19 3.5h3l-14 -75q-14 -2 -29 -3.5t-35 -1.5q-55 0 -86 31t-19 91l68 347h-83z" />
    <glyph glyph-name="u" unicode="u" horiz-adv-x="556" 
d="M196 -13q-42 0 -73.5 13.5t-51 38t-26 59.5t1.5 78l71 362h90l-71 -361q-4 -23 -3 -43.5t11 -36t29.5 -25t51.5 -9.5t59 10.5t48 29t35 44t20 54.5l66 337h92l-106 -538h-88l14 77h-2q-30 -42 -72 -66t-96 -24z" />
    <glyph glyph-name="v" unicode="v" horiz-adv-x="489" 
d="M63 537h92l35 -289q3 -29 6 -58.5t5 -55.5q3 -30 5 -58h3q11 28 24 58q11 26 25 56t28 57l152 290h98l-294 -537h-101z" />
    <glyph glyph-name="w" unicode="w" horiz-adv-x="771" 
d="M67 537h93l24 -298q2 -23 3 -50t2 -51l2 -56h2q9 26 20 53q9 23 20 50t22 52l139 300h88l17 -299q2 -22 2.5 -49t2.5 -51q1 -28 3 -57h2q9 26 19 53q8 23 19 50.5t24 53.5l145 299h97l-275 -537h-93l-20 296q-2 20 -2.5 45.5t-0.5 48.5v55h-2q-12 -28 -23 -55
q-10 -23 -21 -48.5t-19 -44.5l-137 -297h-91z" />
    <glyph glyph-name="x" unicode="x" horiz-adv-x="551" 
d="M224 286l-124 251h100l55 -126q5 -11 9.5 -23.5t9.5 -23.5q5 -13 10 -27h2q10 14 21 27q9 11 18.5 24t17.5 23l104 126h106l-222 -252l147 -285h-100l-73 153q-5 11 -11 25t-11 27q-6 14 -12 29h-2l-22 -30q-10 -13 -20.5 -26.5t-19.5 -24.5l-128 -153h-106z" />
    <glyph glyph-name="y" unicode="y" horiz-adv-x="514" 
d="M44 -187q-23 0 -43 3.5t-34 10.5l16 75h4q8 -5 21.5 -8t32.5 -3q26 0 47 14.5t42 52.5q0 1 5.5 11t11.5 22t11 23t5 13l-100 510h94l52 -293q4 -23 7.5 -49t5.5 -49q3 -26 5 -52h3q10 23 21 48q9 21 21 46t25 48l165 301h100l-339 -587q-24 -42 -46 -69t-43 -42
t-43 -20.5t-47 -5.5z" />
    <glyph glyph-name="z" unicode="z" horiz-adv-x="506" 
d="M7 68l297 318q11 11 24 24.5t25 24.5l28 26v3q-19 -1 -37 -2q-16 -1 -33 -1h-30h-179l15 76h395l-9 -55l-305 -324l-25 -25t-27 -26q-15 -14 -30 -29l-1 -4q21 1 40 2q17 1 35.5 2t32.5 1h210l-15 -79h-424z" />
    <glyph glyph-name="braceleft" unicode="{" horiz-adv-x="353" 
d="M220 -125q-93 0 -128 41.5t-17 132.5l34 177q8 37 -7 56t-59 21l15 75q44 2 64.5 14t28.5 50l39 201q15 77 53.5 109t114.5 32h57l-13 -72h-40q-36 0 -54.5 -18t-27.5 -65l-39 -204q-9 -42 -28 -62.5t-53 -30.5v-3q29 -11 40 -35.5t2 -69.5l-37 -189q-10 -50 6 -67
t57 -17h26l-15 -76h-19v0z" />
    <glyph glyph-name="bar" unicode="|" horiz-adv-x="247" 
d="M100 784h75v-909h-75v909z" />
    <glyph glyph-name="braceright" unicode="}" horiz-adv-x="353" 
d="M-20 -53h40q36 0 54.5 18t27.5 65l41 211q8 43 27 63.5t53 29.5v3q-29 12 -39 36t-2 69l35 182q10 50 -6 67t-57 17h-26l15 76h19q93 0 128 -41.5t17 -132.5l-33 -169q-8 -38 7 -57t59 -21l-15 -74q-44 -2 -64.5 -14t-28.5 -50l-40 -209q-15 -77 -53.5 -109t-114.5 -32
h-57z" />
    <glyph glyph-name="asciitilde" unicode="~" horiz-adv-x="407" 
d="M290 280q-19 0 -37 7.5t-35 14.5q-26 11 -39 18t-26 7q-17 0 -25 -12.5t-10 -33.5h-71q6 60 34 94t71 34q23 0 41 -8t35 -17q20 -11 32 -16.5t25 -5.5q17 0 27 12t12 33h70q-5 -55 -30 -91t-74 -36z" />
    <glyph glyph-name="uni00A0" unicode="&#xa0;" horiz-adv-x="243" 
 />
    <glyph glyph-name="exclamdown" unicode="&#xa1;" horiz-adv-x="261" 
d="M51 104l84 292h49l-35 -298l-44 -230h-100zM146 612h107l-21 -110h-108z" />
    <glyph glyph-name="cent" unicode="&#xa2;" horiz-adv-x="552" 
d="M203 -12q-42 7 -74 26t-54 48t-33.5 66t-11.5 81q0 68 20 128.5t57 107t89 74.5t116 31l17 85h58l-17 -88q40 -6 69.5 -23.5t49.5 -42t30 -55.5t11 -64h-89q-1 42 -21.5 71.5t-64.5 39.5l-80 -414q51 6 87.5 39.5t53.5 91.5h90q-25 -98 -90 -151t-155 -55l-20 -103h-58z
M122 206q0 -59 23.5 -96.5t72.5 -48.5l80 415q-43 -5 -75.5 -30.5t-55 -63t-34 -83.5t-11.5 -93z" />
    <glyph glyph-name="sterling" unicode="&#xa3;" horiz-adv-x="588" 
d="M73 381h66q-7 31 -13 62.5t-6 64.5q0 51 16.5 91.5t47.5 69.5t75 44.5t100 15.5q50 0 93.5 -14.5t74.5 -43.5t47 -73.5t13 -104.5h-95q4 84 -32.5 121.5t-100.5 37.5q-69 0 -105 -38t-36 -107q0 -29 5 -61t10 -65h146l-13 -68h-126q0 -5 0.5 -8.5t0.5 -7.5
q0 -69 -34 -116.5t-98 -90.5l2 -3q15 7 27 12t22.5 7.5t21 3.5t24.5 1q27 0 48 -6.5t39.5 -14t37 -14t40.5 -6.5q32 0 60.5 14t54.5 34l44 -66q-38 -28 -77.5 -46t-87.5 -18q-35 0 -60 8.5t-47 18.5t-44 18.5t-52 8.5q-32 0 -59.5 -14.5t-51.5 -29.5l-43 77q27 17 52.5 39
t46 49t33 58.5t12.5 67.5q0 6 -0.5 12t-1.5 12h-91z" />
    <glyph glyph-name="currency" unicode="&#xa4;" horiz-adv-x="506" 
d="M270 222q57 0 88 40.5t31 102.5q0 30 -8 56.5t-23 46t-37.5 30.5t-50.5 11q-29 0 -51 -11t-37.5 -30.5t-23.5 -46t-8 -56.5q0 -31 8 -57t23.5 -45t37.5 -30t51 -11zM36 168l69 71q-38 55 -38 126t38 124l-69 71l45 43l67 -69q24 18 54.5 29t67.5 11q36 0 67 -11t55 -29
l67 69l45 -43l-69 -71q37 -54 37 -124q0 -35 -10 -67t-28 -58l70 -72l-45 -43l-68 69q-49 -37 -121 -37t-121 37l-68 -69z" />
    <glyph glyph-name="yen" unicode="&#xa5;" horiz-adv-x="604" 
d="M91 338h167l-149 374h102l57 -159q9 -25 19 -56.5t19 -59.5l20 -66h2l44 66q19 28 40 59.5t40 56.5l118 159h106l-293 -374h171l-11 -55h-184l-16 -83h184l-11 -55h-184l-28 -145h-95l28 145h-185l12 55h184l16 83h-185z" />
    <glyph glyph-name="brokenbar" unicode="&#xa6;" horiz-adv-x="250" 
d="M87 784h76v-409h-76v409zM87 301h76v-426h-76v426z" />
    <glyph glyph-name="section" unicode="&#xa7;" horiz-adv-x="621" 
d="M135 2q1 -25 9.5 -47t24.5 -38t39.5 -25t56.5 -9q53 0 78.5 22t25.5 56q0 18 -10.5 35.5t-30.5 36.5t-49.5 41t-67.5 49q-75 53 -118.5 101t-43.5 108q0 65 41 100t110 47q-14 20 -21 42t-7 49q0 36 14 65.5t39 51t60.5 33t78.5 11.5q47 0 85.5 -14t65.5 -38t42 -57
t17 -72h-92q-4 45 -30.5 74.5t-88.5 29.5q-49 0 -73 -23.5t-24 -56.5q0 -20 8 -35.5t24 -31t41 -33t59 -40.5q36 -24 68.5 -48t57.5 -51t39.5 -58t14.5 -68q0 -35 -11.5 -60.5t-31.5 -43.5t-47.5 -29.5t-59.5 -17.5q17 -21 26 -43t9 -48q0 -74 -53 -117t-144 -43
q-53 0 -94 14.5t-69.5 40.5t-43.5 62t-16 78h92zM341 360q-31 21 -55.5 38.5t-44.5 34.5q-51 -8 -75.5 -32t-24.5 -58q0 -17 6.5 -33t21.5 -33t38.5 -36.5t57.5 -43.5q29 -22 60.5 -44.5t57.5 -45.5q45 9 74.5 32t29.5 62t-36 73.5t-110 85.5z" />
    <glyph glyph-name="dieresis" unicode="&#xa8;" horiz-adv-x="532" 
d="M412 739h91l-21 -107h-91zM217 739h90l-21 -107h-90z" />
    <glyph glyph-name="copyright" unicode="&#xa9;" horiz-adv-x="863" 
d="M452 -18q-80 0 -149.5 29t-120.5 81t-80.5 123t-29.5 154q0 84 29.5 155t80.5 122.5t120.5 81t149.5 29.5q81 0 150.5 -29.5t121 -81t81 -122.5t29.5 -155q0 -83 -29.5 -154t-81 -123t-121 -81t-150.5 -29zM452 24q72 0 132.5 26t105 72t69.5 109.5t25 137.5
q0 75 -25 138.5t-69.5 110t-105 72.5t-132.5 26q-71 0 -131.5 -26t-105 -72.5t-69.5 -110t-25 -138.5q0 -74 25 -137.5t69.5 -109.5t105 -72t131.5 -26zM457 143q-46 0 -84.5 17t-66 47t-43 71.5t-15.5 90.5t15 91t42 73t66 48.5t87 17.5q38 0 69.5 -10.5t54.5 -30.5
q24 -20 38 -46.5t19 -58.5h-86q-5 31 -29 52.5t-67 21.5q-30 0 -52.5 -12t-38 -33.5t-23 -50.5t-7.5 -62q0 -68 32.5 -110.5t89.5 -42.5q46 0 71 26t29 61h83q-1 -31 -13.5 -61.5t-35.5 -50.5q-25 -23 -57 -35.5t-78 -12.5z" />
    <glyph glyph-name="ordfeminine" unicode="&#xaa;" horiz-adv-x="480" 
d="M352 300q-24 -28 -59.5 -46.5t-79.5 -18.5q-34 0 -62 10t-48.5 27t-31.5 40.5t-11 50.5q0 37 14 63.5t39.5 44.5t62 28.5t80.5 16.5q77 10 114.5 25.5t37.5 53.5q0 32 -20 51.5t-66 19.5q-51 0 -82 -23t-39 -66h-85q5 32 22.5 60t44.5 48.5t63 32t78 11.5q40 0 73.5 -11
t55.5 -32.5t31 -54.5t0 -77l-46 -237q-5 -27 -3 -44t7 -22l-1 -5h-84q-5 7 -6.5 19t2.5 35h-1zM392 491q-20 -12 -50 -19t-76 -14q-55 -8 -85 -28t-30 -61q0 -36 20.5 -53t52.5 -17q67 0 104.5 31.5t45.5 73.5z" />
    <glyph glyph-name="guillemotleft" unicode="&#xab;" horiz-adv-x="510" 
d="M280 236l19 97l176 146l-21 -106l-117 -96v-2l78 -99l-17 -94zM74 236l20 97l176 146l-21 -106l-117 -96v-2l78 -99l-18 -94z" />
    <glyph glyph-name="logicalnot" unicode="&#xac;" horiz-adv-x="559" 
d="M97 435h418l-50 -260h-76l36 187h-342z" />
    <glyph glyph-name="uni00AD" unicode="&#xad;" horiz-adv-x="371" 
d="M61 326h275l-15 -82h-275z" />
    <glyph glyph-name="registered" unicode="&#xae;" horiz-adv-x="655" 
d="M368 172q-60 0 -112.5 22t-91.5 61t-61.5 92.5t-22.5 116.5t22.5 117t61.5 93t91.5 61t112.5 22t112.5 -22t91 -61t61 -93t22.5 -117t-22.5 -116.5t-61 -92.5t-91 -61t-112.5 -22zM368 211q52 0 97 19t77 52.5t50.5 80t18.5 101.5t-18.5 102t-50.5 81t-77 53t-97 19
t-96.5 -19t-76.5 -53t-50.5 -81t-18.5 -102t18.5 -101.5t50.5 -80t76.5 -52.5t96.5 -19zM254 623h145q43 0 71.5 -24t28.5 -64q0 -27 -15 -47t-48 -28v-1q27 -7 38 -21.5t14 -43.5q4 -32 5.5 -54t9.5 -25v-5h-60q-6 3 -8 24.5t-4 48.5q-5 53 -60 53h-56v-126h-61v313z
M315 483h70q26 0 39.5 12.5t13.5 32.5t-13 32.5t-39 12.5h-71v-90z" />
    <glyph glyph-name="macron" unicode="&#xaf;" horiz-adv-x="532" 
d="M223 733h270l-14 -73h-270z" />
    <glyph glyph-name="degree" unicode="&#xb0;" horiz-adv-x="382" 
d="M253 430q-31 0 -58.5 11.5t-48.5 32t-33 47.5t-12 58t12 58.5t33 47.5t48.5 32t58.5 12q32 0 59.5 -12t48 -32t32.5 -47.5t12 -58.5t-12 -58t-32.5 -47.5t-48 -32t-59.5 -11.5zM253 485q40 0 63 26.5t23 67.5q0 40 -23 67t-63 27q-38 0 -61.5 -27t-23.5 -67
q0 -41 23.5 -67.5t61.5 -26.5z" />
    <glyph glyph-name="plusminus" unicode="&#xb1;" horiz-adv-x="591" 
d="M91 406h196l35 176h76l-35 -176h195l-14 -73h-195l-34 -177h-76l34 177h-196zM27 73h467l-14 -73h-467z" />
    <glyph glyph-name="uni00B2" unicode="&#xb2;" horiz-adv-x="399" 
d="M32 285q8 48 27.5 80t45.5 55q34 29 74 50.5t77 41.5q43 22 68.5 46t25.5 65q0 29 -18.5 47.5t-51.5 18.5q-39 0 -63 -20q-14 -13 -24 -31.5t-15 -47.5h-78q7 44 21.5 72t38.5 48q22 19 53 31t71 12q71 0 109 -36t38 -90q0 -32 -9.5 -55.5t-26 -42t-39 -33.5t-49.5 -30
q-19 -11 -40.5 -22t-42.5 -23t-40 -25t-32 -29q-7 -8 -8 -14h229l-13 -68h-328v0z" />
    <glyph glyph-name="uni00B3" unicode="&#xb3;" horiz-adv-x="417" 
d="M237 275q-44 0 -78 12t-57 35t-32.5 54t-7.5 63h75q-2 -43 22.5 -73t79.5 -30q42 0 68 22.5t26 64.5q0 32 -21.5 54.5t-61.5 22.5h-31l11 56h25q101 0 101 73q0 29 -18.5 48t-53.5 19q-42 0 -68.5 -25.5t-31.5 -68.5h-76q9 72 56.5 112t122.5 40q31 0 58.5 -8t47 -23.5
t31 -37.5t11.5 -50q0 -43 -26.5 -70.5t-68.5 -38.5v-2q35 -11 54.5 -39.5t19.5 -63.5q0 -36 -14 -63.5t-38 -45.5t-56 -27.5t-69 -9.5z" />
    <glyph glyph-name="acute" unicode="&#xb4;" horiz-adv-x="532" 
d="M367 770h114l-111 -145h-79z" />
    <glyph glyph-name="mu" unicode="&#xb5;" horiz-adv-x="556" 
d="M200 -12q-59 0 -89 30h-3q-1 -10 -3 -23q-2 -11 -4.5 -26.5t-6.5 -35.5l-22 -115h-92l141 720h90l-71 -361q-10 -51 9 -81t72 -33q31 -2 59.5 7.5t51 28.5t38 45t21.5 57l66 337h92l-106 -538h-88l14 77h-2q-29 -41 -72 -65t-95 -24z" />
    <glyph glyph-name="paragraph" unicode="&#xb6;" horiz-adv-x="565" 
d="M292 365h-18q-47 0 -83.5 15.5t-60 43.5t-32.5 65t-2 81q13 84 75 133q30 23 69.5 32t90.5 9h252l-172 -884h-67l157 812h-82l-158 -812h-67z" />
    <glyph glyph-name="periodcentered" unicode="&#xb7;" horiz-adv-x="232" 
d="M86 381h107l-21 -110h-108z" />
    <glyph glyph-name="cedilla" unicode="&#xb8;" horiz-adv-x="532" 
d="M169 -208q-38 0 -63 9.5t-41 22.5l20 28q15 -8 31.5 -12t41.5 -4q29 0 47.5 9.5t18.5 30.5q0 15 -11.5 22.5t-27.5 7.5q-14 0 -24.5 -2t-20.5 -5l-11 25l79 76h59l-72 -58l1 -2q15 2 32.5 0.5t31.5 -8.5t23.5 -20t9.5 -34q0 -24 -10 -40t-27 -26.5t-39.5 -15t-47.5 -4.5z
" />
    <glyph glyph-name="uni00B9" unicode="&#xb9;" horiz-adv-x="278" 
d="M187 611h-106l11 52q49 2 84.5 20t53.5 64h61l-90 -462h-78z" />
    <glyph glyph-name="ordmasculine" unicode="&#xba;" horiz-adv-x="543" 
d="M287 232q-48 0 -86 16.5t-64 45t-39.5 68t-13.5 84.5q0 55 18.5 106t52.5 90.5t82 63t106 23.5q49 0 87 -16.5t63.5 -45t39 -66.5t13.5 -81q0 -60 -19 -112.5t-53 -91.5t-82 -61.5t-105 -22.5zM292 299q39 0 70 18t52 49t32.5 71.5t11.5 84.5q0 60 -28.5 99.5t-88.5 39.5
q-40 0 -71.5 -19t-53 -50t-32.5 -71t-11 -82q0 -63 29.5 -101.5t89.5 -38.5z" />
    <glyph glyph-name="guillemotright" unicode="&#xbb;" horiz-adv-x="510" 
d="M65 188l117 96v2l-78 99l18 94l118 -154l-19 -97l-177 -146zM270 188l117 96v2l-78 99l18 94l118 -154l-19 -97l-177 -146z" />
    <glyph glyph-name="onequarter" unicode="&#xbc;" horiz-adv-x="822" 
d="M583 -2h-216l14 70l276 286h72l-58 -296h70l-11 -60h-71l-21 -108h-76zM734 744h88l-766 -874h-87zM187 611h-106l11 52q49 2 84.5 20t53.5 64h61l-90 -462h-78zM439 55q12 0 24 1q11 1 24 1.5t27 0.5h81l24 121q3 16 6.5 31t6.5 27q4 14 8 27h-2q-8 -11 -18 -22
q-8 -10 -18.5 -22t-21.5 -24l-71 -74q-11 -11 -23 -22.5t-23 -20.5q-12 -11 -24 -21v-3z" />
    <glyph glyph-name="onehalf" unicode="&#xbd;" horiz-adv-x="878" 
d="M187 611h-106l11 52q49 2 84.5 20t53.5 64h61l-90 -462h-78zM735 744h88l-766 -874h-87zM433 -110q8 48 27.5 80t45.5 55q34 29 74 50.5t77 41.5q43 22 68.5 46t25.5 65q0 29 -18.5 47.5t-51.5 18.5q-39 0 -63 -20q-14 -13 -24 -31.5t-15 -47.5h-78q7 44 21.5 72t38.5 48
q22 19 53 31t71 12q71 0 109 -36t38 -90q0 -32 -9.5 -55.5t-26 -42t-39 -33.5t-49.5 -30q-19 -11 -40.5 -22t-42.5 -23t-40 -25t-32 -29q-7 -8 -8 -14h229l-13 -68h-328z" />
    <glyph glyph-name="threequarters" unicode="&#xbe;" horiz-adv-x="908" 
d="M670 -2h-216l14 70l276 286h72l-58 -296h70l-11 -60h-71l-21 -108h-76zM822 744h88l-766 -874h-87zM231 275q-44 0 -78 12t-57 35t-32.5 54t-7.5 63h75q-2 -43 22.5 -73t79.5 -30q42 0 68 22.5t26 64.5q0 32 -21.5 54.5t-61.5 22.5h-31l11 56h25q101 0 101 73
q0 29 -18.5 48t-53.5 19q-42 0 -68.5 -25.5t-31.5 -68.5h-76q9 72 56.5 112t122.5 40q31 0 58.5 -8t47 -23.5t31 -37.5t11.5 -50q0 -43 -26.5 -70.5t-68.5 -38.5v-2q35 -11 54.5 -39.5t19.5 -63.5q0 -36 -14 -63.5t-38 -45.5t-56 -27.5t-69 -9.5zM526 55q12 0 24 1
q11 1 24 1.5t27 0.5h81l24 121q3 16 6.5 31t6.5 27q4 14 8 27h-2q-8 -11 -18 -22q-8 -10 -18.5 -22t-21.5 -24l-71 -74q-11 -11 -23 -22.5t-23 -20.5q-12 -11 -24 -21v-3z" />
    <glyph glyph-name="questiondown" unicode="&#xbf;" horiz-adv-x="538" 
d="M301 612h106l-21 -110h-107zM211 -146q-52 0 -92.5 14t-68 38.5t-42 57.5t-14.5 70q0 38 12.5 67.5t32 53t44 42t49.5 33.5q48 29 73.5 49t39.5 44q9 14 14 31.5t10 40.5h85q-8 -43 -18.5 -72.5t-26 -52t-38.5 -41t-56 -40.5l-44 -28t-39.5 -31t-28.5 -39.5t-11 -53.5
q0 -21 7.5 -39.5t22.5 -33t38 -23t55 -8.5q69 0 114.5 41t56.5 121h92q-7 -55 -28 -99.5t-55 -76t-80 -48.5t-104 -17z" />
    <glyph glyph-name="Agrave" unicode="&#xc0;" horiz-adv-x="690" 
d="M382 744h111l126 -744h-107l-31 218h-288l-117 -218h-105zM235 296h235l-29 203q-4 26 -7.5 55t-5.5 54q-3 29 -5 57h-2q-11 -26 -22 -53q-11 -23 -24 -51.5t-27 -54.5zM332 910h107l39 -125h-73z" />
    <glyph glyph-name="Aacute" unicode="&#xc1;" horiz-adv-x="690" 
d="M382 744h111l126 -744h-107l-31 218h-288l-117 -218h-105zM235 296h235l-29 203q-4 26 -7.5 55t-5.5 54q-3 29 -5 57h-2q-11 -26 -22 -53q-11 -23 -24 -51.5t-27 -54.5zM470 910h114l-106 -125h-79z" />
    <glyph glyph-name="Acircumflex" unicode="&#xc2;" horiz-adv-x="690" 
d="M382 744h111l126 -744h-107l-31 218h-288l-117 -218h-105zM235 296h235l-29 203q-4 26 -7.5 55t-5.5 54q-3 29 -5 57h-2q-11 -26 -22 -53q-11 -23 -24 -51.5t-27 -54.5zM410 898h101l76 -113h-92l-41 62h-2l-67 -62h-96z" />
    <glyph glyph-name="Atilde" unicode="&#xc3;" horiz-adv-x="690" 
d="M382 744h111l126 -744h-107l-31 218h-288l-117 -218h-105zM235 296h235l-29 203q-4 26 -7.5 55t-5.5 54q-3 29 -5 57h-2q-11 -26 -22 -53q-11 -23 -24 -51.5t-27 -54.5zM510 786q-20 0 -37 6.5t-31.5 14t-27.5 14t-23 6.5q-12 0 -21 -10t-11 -30h-64q5 54 31 80.5
t63 26.5q21 0 37 -6.5t29.5 -14t26.5 -14t27 -6.5q28 0 31 39h65q-5 -52 -29.5 -79t-65.5 -27z" />
    <glyph glyph-name="Adieresis" unicode="&#xc4;" horiz-adv-x="690" 
d="M382 744h111l126 -744h-107l-31 218h-288l-117 -218h-105zM235 296h235l-29 203q-4 26 -7.5 55t-5.5 54q-3 29 -5 57h-2q-11 -26 -22 -53q-11 -23 -24 -51.5t-27 -54.5zM513 892h91l-21 -107h-91zM318 892h90l-21 -107h-90z" />
    <glyph glyph-name="Aring" unicode="&#xc5;" horiz-adv-x="690" 
d="M382 744h111l126 -744h-107l-31 218h-288l-117 -218h-105zM235 296h235l-29 203q-4 26 -7.5 55t-5.5 54q-3 29 -5 57h-2q-11 -26 -22 -53q-11 -23 -24 -51.5t-27 -54.5zM455 778q-21 0 -39.5 7.5t-32.5 21t-22 32t-8 39.5t8 39t22 31.5t32.5 21t39.5 7.5t40 -7.5t33 -21
t22 -31.5t8 -39t-8 -39.5t-22 -32t-33 -21t-40 -7.5zM455 819q25 0 40.5 16.5t15.5 42.5q0 25 -15.5 41.5t-40.5 16.5q-24 0 -39.5 -16.5t-15.5 -41.5q0 -26 15.5 -42.5t39.5 -16.5z" />
    <glyph glyph-name="AE" unicode="&#xc6;" horiz-adv-x="996" 
d="M391 744h641l-17 -86h-377l-45 -230h336l-16 -82h-336l-49 -254h388l-18 -92h-489l42 219h-253l-121 -219h-105zM241 298h225l70 360h-95z" />
    <glyph glyph-name="Ccedilla" unicode="&#xc7;" horiz-adv-x="745" 
d="M284 -208q-38 0 -63 9.5t-41 22.5l20 28q15 -8 31.5 -12t41.5 -4q29 0 47.5 9.5t18.5 30.5q0 15 -11.5 22.5t-27.5 7.5q-14 0 -24.5 -2t-20.5 -5l-11 25l67 65q-58 9 -104 35.5t-78 67.5t-49 95t-17 119q0 94 30 177t83 144.5t125.5 97t158.5 35.5q68 0 119 -19t86 -51
q35 -33 54 -77t21 -95h-98q-5 70 -52 114t-135 44q-64 0 -117 -29.5t-91 -79.5t-59 -117.5t-21 -142.5q0 -112 53 -175t157 -63q46 0 84 16t67 43t49 63t30 77h100q-15 -66 -43 -118t-79 -95q-41 -34 -95.5 -52.5t-116.5 -18.5h-11l-52 -42l1 -2q15 2 32.5 0.5t31.5 -8.5
t23.5 -20t9.5 -34q0 -24 -10 -40t-27 -26.5t-39.5 -15t-47.5 -4.5z" />
    <glyph glyph-name="Egrave" unicode="&#xc8;" horiz-adv-x="657" 
d="M175 744h519l-17 -86h-418l-45 -230h380l-17 -82h-379l-49 -255h429l-17 -91h-531zM337 910h107l39 -125h-73z" />
    <glyph glyph-name="Eacute" unicode="&#xc9;" horiz-adv-x="657" 
d="M175 744h519l-17 -86h-418l-45 -230h380l-17 -82h-379l-49 -255h429l-17 -91h-531zM473 910h114l-106 -125h-79z" />
    <glyph glyph-name="Ecircumflex" unicode="&#xca;" horiz-adv-x="657" 
d="M175 744h519l-17 -86h-418l-45 -230h380l-17 -82h-379l-49 -255h429l-17 -91h-531zM415 898h101l76 -113h-92l-41 62h-2l-67 -62h-96z" />
    <glyph glyph-name="Edieresis" unicode="&#xcb;" horiz-adv-x="657" 
d="M175 744h519l-17 -86h-418l-45 -230h380l-17 -82h-379l-49 -255h429l-17 -91h-531zM518 892h91l-21 -107h-91zM323 892h90l-21 -107h-90z" />
    <glyph glyph-name="Igrave" unicode="&#xcc;" horiz-adv-x="259" 
d="M174 744h102l-145 -744h-102zM125 910h107l39 -125h-73z" />
    <glyph glyph-name="Iacute" unicode="&#xcd;" horiz-adv-x="259" 
d="M174 744h102l-145 -744h-102zM261 910h114l-106 -125h-79z" />
    <glyph glyph-name="Icircumflex" unicode="&#xce;" horiz-adv-x="259" 
d="M174 744h102l-145 -744h-102zM203 898h101l76 -113h-92l-41 62h-2l-67 -62h-96z" />
    <glyph glyph-name="Idieresis" unicode="&#xcf;" horiz-adv-x="259" 
d="M174 744h102l-145 -744h-102zM296 892h91l-21 -107h-91zM121 892h90l-21 -107h-90z" />
    <glyph glyph-name="Eth" unicode="&#xd0;" horiz-adv-x="731" 
d="M44 416h73l64 328h247q71 0 124.5 -22.5t89.5 -62.5t54.5 -94t18.5 -118q0 -103 -27 -185.5t-78.5 -140.5t-127.5 -89.5t-175 -31.5h-271l64 332h-72zM315 87q79 0 135.5 27.5t93 76t53.5 114t17 141.5q0 47 -11.5 86t-36 67.5t-62.5 44t-90 15.5h-147l-48 -243h208
l-17 -84h-208l-48 -245h161z" />
    <glyph glyph-name="Ntilde" unicode="&#xd1;" horiz-adv-x="730" 
d="M172 744h107l204 -477q10 -23 19.5 -49t17.5 -49q9 -26 18 -53h2q3 29 7 57q3 24 7.5 52t9.5 53l90 466h94l-145 -744h-102l-207 478q-10 21 -19.5 46.5t-17.5 48.5q-10 26 -19 53h-2q-3 -29 -7 -57q-3 -24 -7 -52t-9 -52l-91 -465h-95zM544 786q-20 0 -37 6.5t-31.5 14
t-27.5 14t-23 6.5q-12 0 -21 -10t-11 -30h-64q5 54 31 80.5t63 26.5q21 0 37 -6.5t29.5 -14t26.5 -14t27 -6.5q28 0 31 39h65q-5 -52 -29.5 -79t-65.5 -27z" />
    <glyph glyph-name="Ograve" unicode="&#xd2;" horiz-adv-x="813" 
d="M395 -16q-77 0 -138.5 24t-104.5 68t-65.5 105.5t-22.5 136.5q0 87 28.5 166.5t81.5 141t127.5 98t166.5 36.5q78 0 138.5 -25t102.5 -69.5t64 -105t22 -130.5q0 -89 -27.5 -169.5t-79 -142t-126 -98t-167.5 -36.5zM401 70q69 0 123 30t91 79.5t56.5 114t19.5 134.5
q0 58 -16.5 103.5t-46.5 77t-72.5 48t-94.5 16.5q-69 0 -123.5 -30.5t-92 -80t-57 -114t-19.5 -131.5q0 -56 15.5 -101.5t45 -77.5t72.5 -50t99 -18zM375 910h107l39 -125h-73z" />
    <glyph glyph-name="Oacute" unicode="&#xd3;" horiz-adv-x="813" 
d="M395 -16q-77 0 -138.5 24t-104.5 68t-65.5 105.5t-22.5 136.5q0 87 28.5 166.5t81.5 141t127.5 98t166.5 36.5q78 0 138.5 -25t102.5 -69.5t64 -105t22 -130.5q0 -89 -27.5 -169.5t-79 -142t-126 -98t-167.5 -36.5zM401 70q69 0 123 30t91 79.5t56.5 114t19.5 134.5
q0 58 -16.5 103.5t-46.5 77t-72.5 48t-94.5 16.5q-69 0 -123.5 -30.5t-92 -80t-57 -114t-19.5 -131.5q0 -56 15.5 -101.5t45 -77.5t72.5 -50t99 -18zM511 910h114l-106 -125h-79z" />
    <glyph glyph-name="Ocircumflex" unicode="&#xd4;" horiz-adv-x="813" 
d="M395 -16q-77 0 -138.5 24t-104.5 68t-65.5 105.5t-22.5 136.5q0 87 28.5 166.5t81.5 141t127.5 98t166.5 36.5q78 0 138.5 -25t102.5 -69.5t64 -105t22 -130.5q0 -89 -27.5 -169.5t-79 -142t-126 -98t-167.5 -36.5zM401 70q69 0 123 30t91 79.5t56.5 114t19.5 134.5
q0 58 -16.5 103.5t-46.5 77t-72.5 48t-94.5 16.5q-69 0 -123.5 -30.5t-92 -80t-57 -114t-19.5 -131.5q0 -56 15.5 -101.5t45 -77.5t72.5 -50t99 -18zM453 898h101l76 -113h-92l-41 62h-2l-67 -62h-96z" />
    <glyph glyph-name="Otilde" unicode="&#xd5;" horiz-adv-x="813" 
d="M395 -16q-77 0 -138.5 24t-104.5 68t-65.5 105.5t-22.5 136.5q0 87 28.5 166.5t81.5 141t127.5 98t166.5 36.5q78 0 138.5 -25t102.5 -69.5t64 -105t22 -130.5q0 -89 -27.5 -169.5t-79 -142t-126 -98t-167.5 -36.5zM401 70q69 0 123 30t91 79.5t56.5 114t19.5 134.5
q0 58 -16.5 103.5t-46.5 77t-72.5 48t-94.5 16.5q-69 0 -123.5 -30.5t-92 -80t-57 -114t-19.5 -131.5q0 -56 15.5 -101.5t45 -77.5t72.5 -50t99 -18zM553 786q-20 0 -37 6.5t-31.5 14t-27.5 14t-23 6.5q-12 0 -21 -10t-11 -30h-64q5 54 31 80.5t63 26.5q21 0 37 -6.5
t29.5 -14t26.5 -14t27 -6.5q28 0 31 39h65q-5 -52 -29.5 -79t-65.5 -27z" />
    <glyph glyph-name="Odieresis" unicode="&#xd6;" horiz-adv-x="813" 
d="M395 -16q-77 0 -138.5 24t-104.5 68t-65.5 105.5t-22.5 136.5q0 87 28.5 166.5t81.5 141t127.5 98t166.5 36.5q78 0 138.5 -25t102.5 -69.5t64 -105t22 -130.5q0 -89 -27.5 -169.5t-79 -142t-126 -98t-167.5 -36.5zM401 70q69 0 123 30t91 79.5t56.5 114t19.5 134.5
q0 58 -16.5 103.5t-46.5 77t-72.5 48t-94.5 16.5q-69 0 -123.5 -30.5t-92 -80t-57 -114t-19.5 -131.5q0 -56 15.5 -101.5t45 -77.5t72.5 -50t99 -18zM556 892h91l-21 -107h-91zM361 892h90l-21 -107h-90z" />
    <glyph glyph-name="multiply" unicode="&#xd7;" horiz-adv-x="594" 
d="M70 169l194 171l-141 172l57 47l139 -170l193 170l45 -50l-195 -172l141 -171l-57 -47l-139 169l-192 -169z" />
    <glyph glyph-name="Oslash" unicode="&#xd8;" horiz-adv-x="813" 
d="M7 1l116 111q-29 42 -44 93.5t-15 112.5q0 87 28.5 166.5t81.5 141t127.5 98t166.5 36.5q77 0 136.5 -24.5t101.5 -67.5l107 101l37 -37l-110 -105q55 -83 55 -197q0 -89 -27.5 -169.5t-79 -142t-126 -98t-167.5 -36.5q-75 0 -135 23t-103 65l-115 -110zM169 317
q0 -78 29 -134l438 417q-30 35 -74 54t-101 19q-69 0 -123.5 -30.5t-92 -80t-57 -114t-19.5 -131.5zM401 70q69 0 123 30t91 79.5t56.5 114t19.5 134.5q0 73 -26 127l-437 -416q29 -33 72.5 -51t100.5 -18z" />
    <glyph glyph-name="Ugrave" unicode="&#xd9;" horiz-adv-x="696" 
d="M329 -12q-62 0 -115.5 16.5t-90 50.5t-52 84.5t-2.5 118.5l96 486h99l-94 -486q-18 -92 24.5 -138.5t135.5 -46.5q86 0 135 40t66 131l98 500h100l-101 -516q-25 -128 -102 -184t-197 -56zM344 910h107l39 -125h-73z" />
    <glyph glyph-name="Uacute" unicode="&#xda;" horiz-adv-x="696" 
d="M329 -12q-62 0 -115.5 16.5t-90 50.5t-52 84.5t-2.5 118.5l96 486h99l-94 -486q-18 -92 24.5 -138.5t135.5 -46.5q86 0 135 40t66 131l98 500h100l-101 -516q-25 -128 -102 -184t-197 -56zM480 910h114l-106 -125h-79z" />
    <glyph glyph-name="Ucircumflex" unicode="&#xdb;" horiz-adv-x="696" 
d="M329 -12q-62 0 -115.5 16.5t-90 50.5t-52 84.5t-2.5 118.5l96 486h99l-94 -486q-18 -92 24.5 -138.5t135.5 -46.5q86 0 135 40t66 131l98 500h100l-101 -516q-25 -128 -102 -184t-197 -56zM422 898h101l76 -113h-92l-41 62h-2l-67 -62h-96z" />
    <glyph glyph-name="Udieresis" unicode="&#xdc;" horiz-adv-x="696" 
d="M329 -12q-62 0 -115.5 16.5t-90 50.5t-52 84.5t-2.5 118.5l96 486h99l-94 -486q-18 -92 24.5 -138.5t135.5 -46.5q86 0 135 40t66 131l98 500h100l-101 -516q-25 -128 -102 -184t-197 -56zM525 892h91l-21 -107h-91zM330 892h90l-21 -107h-90z" />
    <glyph glyph-name="Yacute" unicode="&#xdd;" horiz-adv-x="669" 
d="M293 312l-177 432h105l88 -224q8 -20 15.5 -44.5t14.5 -45.5q8 -25 15 -50h2q16 25 33 50q14 21 31 45.5t33 44.5l177 224h115l-351 -433l-61 -311h-101zM460 910h114l-106 -125h-79z" />
    <glyph glyph-name="Thorn" unicode="&#xde;" horiz-adv-x="641" 
d="M171 744h101l-25 -129h179q100 0 156 -54q26 -25 40 -59.5t14 -76.5q0 -56 -17.5 -102t-52 -78t-85 -49.5t-116.5 -17.5h-204l-34 -178h-101zM230 529l-53 -271h189q86 0 128 44t42 121q0 51 -32 78.5t-93 27.5h-181z" />
    <glyph glyph-name="germandbls" unicode="&#xdf;" horiz-adv-x="543" 
d="M261 -11q-29 0 -51 4.5t-36 8.5l14 71h3q11 -4 27 -7t42 -3q70 0 113 43t43 128q0 71 -34.5 109t-103.5 38h-23l13 66h22q73 0 108.5 36t35.5 97q0 45 -25.5 73.5t-73.5 28.5q-55 0 -84 -32.5t-40 -92.5l-105 -557h-92l107 568q17 89 70.5 137t144.5 48q43 0 77.5 -13
t59 -35.5t37.5 -53.5t13 -67q0 -69 -36 -112t-102 -59v-3q57 -18 89.5 -64.5t32.5 -111.5q0 -59 -19 -105t-52 -77t-78 -47t-97 -16z" />
    <glyph glyph-name="agrave" unicode="&#xe0;" horiz-adv-x="542" 
d="M185 -11q-80 0 -126 37.5t-46 101.5q0 46 15.5 76.5t44.5 50.5t69.5 31t91.5 17q44 5 77 10t55 15t33 27.5t10 46.5q-1 37 -28 58.5t-81 21.5q-60 0 -95.5 -27.5t-46.5 -78.5h-87q6 37 23.5 68.5t47 55t69.5 37t91 13.5q48 0 86 -12.5t62.5 -37t34 -62t-0.5 -87.5
l-45 -235q-6 -30 3.5 -43t43.5 -7h3l-12 -63q-9 -3 -19.5 -5.5t-27.5 -2.5q-35 0 -56.5 18t-23.5 55h-2q-26 -37 -68.5 -58t-94.5 -21zM201 52q37 0 66 11t50 29.5t33.5 41.5t17.5 47l20 102q-23 -14 -57 -23t-86 -17q-31 -5 -56.5 -12.5t-44 -20t-28.5 -30.5t-10 -45
q0 -23 8 -38.5t21 -25.5t30.5 -14.5t35.5 -4.5zM198 770h107l47 -145h-73z" />
    <glyph glyph-name="aacute" unicode="&#xe1;" horiz-adv-x="542" 
d="M185 -11q-80 0 -126 37.5t-46 101.5q0 46 15.5 76.5t44.5 50.5t69.5 31t91.5 17q44 5 77 10t55 15t33 27.5t10 46.5q-1 37 -28 58.5t-81 21.5q-60 0 -95.5 -27.5t-46.5 -78.5h-87q6 37 23.5 68.5t47 55t69.5 37t91 13.5q48 0 86 -12.5t62.5 -37t34 -62t-0.5 -87.5
l-45 -235q-6 -30 3.5 -43t43.5 -7h3l-12 -63q-9 -3 -19.5 -5.5t-27.5 -2.5q-35 0 -56.5 18t-23.5 55h-2q-26 -37 -68.5 -58t-94.5 -21zM201 52q37 0 66 11t50 29.5t33.5 41.5t17.5 47l20 102q-23 -14 -57 -23t-86 -17q-31 -5 -56.5 -12.5t-44 -20t-28.5 -30.5t-10 -45
q0 -23 8 -38.5t21 -25.5t30.5 -14.5t35.5 -4.5zM344 770h114l-111 -145h-79z" />
    <glyph glyph-name="acircumflex" unicode="&#xe2;" horiz-adv-x="542" 
d="M185 -11q-80 0 -126 37.5t-46 101.5q0 46 15.5 76.5t44.5 50.5t69.5 31t91.5 17q44 5 77 10t55 15t33 27.5t10 46.5q-1 37 -28 58.5t-81 21.5q-60 0 -95.5 -27.5t-46.5 -78.5h-87q6 37 23.5 68.5t47 55t69.5 37t91 13.5q48 0 86 -12.5t62.5 -37t34 -62t-0.5 -87.5
l-45 -235q-6 -30 3.5 -43t43.5 -7h3l-12 -63q-9 -3 -19.5 -5.5t-27.5 -2.5q-35 0 -56.5 18t-23.5 55h-2q-26 -37 -68.5 -58t-94.5 -21zM201 52q37 0 66 11t50 29.5t33.5 41.5t17.5 47l20 102q-23 -14 -57 -23t-86 -17q-31 -5 -56.5 -12.5t-44 -20t-28.5 -30.5t-10 -45
q0 -23 8 -38.5t21 -25.5t30.5 -14.5t35.5 -4.5zM282 752h102l71 -123h-87l-40 76h-2l-66 -76h-95z" />
    <glyph glyph-name="atilde" unicode="&#xe3;" horiz-adv-x="542" 
d="M185 -11q-80 0 -126 37.5t-46 101.5q0 46 15.5 76.5t44.5 50.5t69.5 31t91.5 17q44 5 77 10t55 15t33 27.5t10 46.5q-1 37 -28 58.5t-81 21.5q-60 0 -95.5 -27.5t-46.5 -78.5h-87q6 37 23.5 68.5t47 55t69.5 37t91 13.5q48 0 86 -12.5t62.5 -37t34 -62t-0.5 -87.5
l-45 -235q-6 -30 3.5 -43t43.5 -7h3l-12 -63q-9 -3 -19.5 -5.5t-27.5 -2.5q-35 0 -56.5 18t-23.5 55h-2q-26 -37 -68.5 -58t-94.5 -21zM201 52q37 0 66 11t50 29.5t33.5 41.5t17.5 47l20 102q-23 -14 -57 -23t-86 -17q-31 -5 -56.5 -12.5t-44 -20t-28.5 -30.5t-10 -45
q0 -23 8 -38.5t21 -25.5t30.5 -14.5t35.5 -4.5zM385 631q-20 0 -37 6.5t-31.5 14t-27.5 14t-23 6.5q-12 0 -21 -10t-11 -30h-64q5 54 31 80.5t63 26.5q21 0 37 -6.5t29.5 -14t26.5 -14t27 -6.5q28 0 31 39h65q-5 -52 -29.5 -79t-65.5 -27z" />
    <glyph glyph-name="adieresis" unicode="&#xe4;" horiz-adv-x="542" 
d="M185 -11q-80 0 -126 37.5t-46 101.5q0 46 15.5 76.5t44.5 50.5t69.5 31t91.5 17q44 5 77 10t55 15t33 27.5t10 46.5q-1 37 -28 58.5t-81 21.5q-60 0 -95.5 -27.5t-46.5 -78.5h-87q6 37 23.5 68.5t47 55t69.5 37t91 13.5q48 0 86 -12.5t62.5 -37t34 -62t-0.5 -87.5
l-45 -235q-6 -30 3.5 -43t43.5 -7h3l-12 -63q-9 -3 -19.5 -5.5t-27.5 -2.5q-35 0 -56.5 18t-23.5 55h-2q-26 -37 -68.5 -58t-94.5 -21zM201 52q37 0 66 11t50 29.5t33.5 41.5t17.5 47l20 102q-23 -14 -57 -23t-86 -17q-31 -5 -56.5 -12.5t-44 -20t-28.5 -30.5t-10 -45
q0 -23 8 -38.5t21 -25.5t30.5 -14.5t35.5 -4.5zM388 739h91l-21 -107h-91zM193 739h90l-21 -107h-90z" />
    <glyph glyph-name="aring" unicode="&#xe5;" horiz-adv-x="542" 
d="M185 -11q-80 0 -126 37.5t-46 101.5q0 46 15.5 76.5t44.5 50.5t69.5 31t91.5 17q44 5 77 10t55 15t33 27.5t10 46.5q-1 37 -28 58.5t-81 21.5q-60 0 -95.5 -27.5t-46.5 -78.5h-87q6 37 23.5 68.5t47 55t69.5 37t91 13.5q48 0 86 -12.5t62.5 -37t34 -62t-0.5 -87.5
l-45 -235q-6 -30 3.5 -43t43.5 -7h3l-12 -63q-9 -3 -19.5 -5.5t-27.5 -2.5q-35 0 -56.5 18t-23.5 55h-2q-26 -37 -68.5 -58t-94.5 -21zM201 52q37 0 66 11t50 29.5t33.5 41.5t17.5 47l20 102q-23 -14 -57 -23t-86 -17q-31 -5 -56.5 -12.5t-44 -20t-28.5 -30.5t-10 -45
q0 -23 8 -38.5t21 -25.5t30.5 -14.5t35.5 -4.5zM317 600q-21 0 -39.5 7.5t-32.5 21t-22 32t-8 39.5t8 39t22 31.5t32.5 21t39.5 7.5t40 -7.5t33 -21t22 -31.5t8 -39t-8 -39.5t-22 -32t-33 -21t-40 -7.5zM317 641q25 0 40.5 16.5t15.5 42.5q0 25 -15.5 41.5t-40.5 16.5
q-24 0 -39.5 -16.5t-15.5 -41.5q0 -26 15.5 -42.5t39.5 -16.5z" />
    <glyph glyph-name="ae" unicode="&#xe6;" horiz-adv-x="901" 
d="M186 -11q-81 0 -127 37.5t-46 101.5q0 46 15.5 76.5t44.5 50.5t69.5 31t91.5 17q44 5 77 10t55 15t33 27.5t10 46.5q-1 37 -28 58.5t-81 21.5q-60 0 -95.5 -27.5t-46.5 -78.5h-87q6 37 23.5 68.5t47 55t69.5 37t91 13.5q63 0 107 -22t62 -67q35 42 82.5 66t109.5 24
q52 0 90.5 -16.5t64 -46t38.5 -70t13 -88.5q0 -20 -2 -41t-6 -42h-395q-1 -8 -1 -15v-15q0 -76 35 -117.5t105 -41.5q49 0 87.5 24t57.5 72h90q-29 -85 -93.5 -127.5t-146.5 -42.5q-76 0 -127 32t-74 86q-43 -64 -97.5 -88.5t-115.5 -24.5zM201 52q37 0 66 11t50 29.5
t33.5 41.5t17.5 47l20 102q-23 -14 -57 -23t-86 -17q-31 -5 -56.5 -12.5t-44 -20t-28.5 -30.5t-10 -45q0 -23 8 -38.5t21 -25.5t30.5 -14.5t35.5 -4.5zM656 481q-36 0 -65 -13.5t-51.5 -37t-38 -54t-24.5 -64.5h297q6 36 2 67t-18.5 53.5t-39.5 35.5t-62 13z" />
    <glyph glyph-name="ccedilla" unicode="&#xe7;" horiz-adv-x="552" 
d="M164 -208q-38 0 -63 9.5t-41 22.5l20 28q15 -8 31.5 -12t41.5 -4q29 0 47.5 9.5t18.5 30.5q0 15 -11.5 22.5t-27.5 7.5q-14 0 -24.5 -2t-20.5 -5l-11 25l69 67q-79 17 -121 75t-42 143q0 70 21 132t59.5 108.5t93 73.5t121.5 27q52 0 90 -15t63 -40.5t37.5 -60
t13.5 -72.5h-89q-1 51 -30.5 82.5t-92.5 31.5q-48 0 -84 -23.5t-61 -62t-37.5 -87t-12.5 -97.5q0 -69 32.5 -108t99.5 -39q59 0 101 33.5t61 97.5h90q-26 -100 -93 -152.5t-160 -52.5h-10l-53 -43l1 -2q15 2 32.5 0.5t31.5 -8.5t23.5 -20t9.5 -34q0 -24 -10 -40t-27 -26.5
t-39.5 -15t-47.5 -4.5z" />
    <glyph glyph-name="egrave" unicode="&#xe8;" horiz-adv-x="568" 
d="M263 -15q-58 0 -101 18t-72 49.5t-43.5 74t-14.5 91.5q0 66 21 126.5t59.5 106t92.5 72.5t121 27q53 0 92.5 -16.5t65.5 -46t38.5 -70t12.5 -88.5q0 -20 -2 -40.5t-5 -41.5h-404q-1 -8 -1 -15v-15q0 -76 36.5 -117t108.5 -41q50 0 89.5 23.5t58.5 71.5h91
q-29 -84 -95 -126.5t-149 -42.5zM319 480q-37 0 -67 -13.5t-53 -36.5t-39 -53.5t-25 -64.5h306q6 36 1.5 67t-19.5 53.5t-41 35t-63 12.5zM220 770h107l47 -145h-73z" />
    <glyph glyph-name="eacute" unicode="&#xe9;" horiz-adv-x="568" 
d="M263 -15q-58 0 -101 18t-72 49.5t-43.5 74t-14.5 91.5q0 66 21 126.5t59.5 106t92.5 72.5t121 27q53 0 92.5 -16.5t65.5 -46t38.5 -70t12.5 -88.5q0 -20 -2 -40.5t-5 -41.5h-404q-1 -8 -1 -15v-15q0 -76 36.5 -117t108.5 -41q50 0 89.5 23.5t58.5 71.5h91
q-29 -84 -95 -126.5t-149 -42.5zM319 480q-37 0 -67 -13.5t-53 -36.5t-39 -53.5t-25 -64.5h306q6 36 1.5 67t-19.5 53.5t-41 35t-63 12.5zM366 770h114l-111 -145h-79z" />
    <glyph glyph-name="ecircumflex" unicode="&#xea;" horiz-adv-x="568" 
d="M263 -15q-58 0 -101 18t-72 49.5t-43.5 74t-14.5 91.5q0 66 21 126.5t59.5 106t92.5 72.5t121 27q53 0 92.5 -16.5t65.5 -46t38.5 -70t12.5 -88.5q0 -20 -2 -40.5t-5 -41.5h-404q-1 -8 -1 -15v-15q0 -76 36.5 -117t108.5 -41q50 0 89.5 23.5t58.5 71.5h91
q-29 -84 -95 -126.5t-149 -42.5zM319 480q-37 0 -67 -13.5t-53 -36.5t-39 -53.5t-25 -64.5h306q6 36 1.5 67t-19.5 53.5t-41 35t-63 12.5zM303 752h102l71 -123h-87l-40 76h-2l-66 -76h-95z" />
    <glyph glyph-name="edieresis" unicode="&#xeb;" horiz-adv-x="568" 
d="M263 -15q-58 0 -101 18t-72 49.5t-43.5 74t-14.5 91.5q0 66 21 126.5t59.5 106t92.5 72.5t121 27q53 0 92.5 -16.5t65.5 -46t38.5 -70t12.5 -88.5q0 -20 -2 -40.5t-5 -41.5h-404q-1 -8 -1 -15v-15q0 -76 36.5 -117t108.5 -41q50 0 89.5 23.5t58.5 71.5h91
q-29 -84 -95 -126.5t-149 -42.5zM319 480q-37 0 -67 -13.5t-53 -36.5t-39 -53.5t-25 -64.5h306q6 36 1.5 67t-19.5 53.5t-41 35t-63 12.5zM409 739h91l-21 -107h-91zM214 739h90l-21 -107h-90z" />
    <glyph glyph-name="igrave" unicode="&#xec;" horiz-adv-x="224" 
d="M121 537h91l-104 -537h-92zM68 770h107l47 -145h-73z" />
    <glyph glyph-name="iacute" unicode="&#xed;" horiz-adv-x="224" 
d="M121 537h91l-104 -537h-92zM214 770h114l-111 -145h-79z" />
    <glyph glyph-name="icircumflex" unicode="&#xee;" horiz-adv-x="224" 
d="M121 537h91l-104 -537h-92zM152 752h102l71 -123h-87l-40 76h-2l-66 -76h-95z" />
    <glyph glyph-name="idieresis" unicode="&#xef;" horiz-adv-x="224" 
d="M121 537h91l-104 -537h-92zM239 743h91l-21 -107h-91zM84 743h90l-21 -107h-90z" />
    <glyph glyph-name="eth" unicode="&#xf0;" horiz-adv-x="590" 
d="M217 627l125 41q-36 37 -72 69v7h105q13 -11 25.5 -22.5t26.5 -25.5l102 34l17 -46l-85 -28q41 -54 70 -130.5t29 -180.5q0 -78 -22 -144t-61 -114t-93.5 -75t-120.5 -27q-57 0 -100 18.5t-72 50.5t-43.5 76.5t-14.5 95.5q0 66 22 124.5t61 102.5t91.5 69.5t112.5 25.5
q44 0 77.5 -16t56.5 -45h3q-14 41 -34.5 75.5t-45.5 65.5l-143 -47zM268 59q45 0 81 21.5t61.5 56.5t39.5 81t14 94q0 36 -8 66t-25.5 52.5t-44.5 35t-65 12.5q-42 0 -78 -20.5t-62 -55.5t-40.5 -81.5t-14.5 -97.5q0 -73 34 -118.5t108 -45.5z" />
    <glyph glyph-name="ntilde" unicode="&#xf1;" horiz-adv-x="566" 
d="M121 537h90l-17 -80h2q30 43 75.5 68t99.5 25q39 0 71.5 -13t53.5 -37.5t29 -59.5t-1 -80l-72 -360h-91l71 358q11 55 -12 85.5t-82 30.5q-60 0 -106 -36t-59 -100l-66 -338h-91zM415 631q-20 0 -37 6.5t-31.5 14t-27.5 14t-23 6.5q-12 0 -21 -10t-11 -30h-64
q5 54 31 80.5t63 26.5q21 0 37 -6.5t29.5 -14t26.5 -14t27 -6.5q28 0 31 39h65q-5 -52 -29.5 -79t-65.5 -27z" />
    <glyph glyph-name="ograve" unicode="&#xf2;" horiz-adv-x="586" 
d="M260 -15q-56 0 -98 18.5t-71 50.5t-43.5 75t-14.5 93q0 65 22 124.5t61.5 104.5t93.5 72t119 27q56 0 99 -18.5t71.5 -50.5t43 -75t14.5 -93q0 -66 -22 -125.5t-61.5 -104.5t-94 -71.5t-119.5 -26.5zM265 59q47 0 84 22t62.5 58.5t39 82.5t13.5 94q0 34 -8.5 63.5
t-25.5 51.5t-44 34t-63 12q-46 0 -83 -22.5t-62.5 -59t-39 -83t-13.5 -94.5q0 -69 34 -114t106 -45zM235 770h107l47 -145h-73z" />
    <glyph glyph-name="oacute" unicode="&#xf3;" horiz-adv-x="586" 
d="M260 -15q-56 0 -98 18.5t-71 50.5t-43.5 75t-14.5 93q0 65 22 124.5t61.5 104.5t93.5 72t119 27q56 0 99 -18.5t71.5 -50.5t43 -75t14.5 -93q0 -66 -22 -125.5t-61.5 -104.5t-94 -71.5t-119.5 -26.5zM265 59q47 0 84 22t62.5 58.5t39 82.5t13.5 94q0 34 -8.5 63.5
t-25.5 51.5t-44 34t-63 12q-46 0 -83 -22.5t-62.5 -59t-39 -83t-13.5 -94.5q0 -69 34 -114t106 -45zM381 770h114l-111 -145h-79z" />
    <glyph glyph-name="ocircumflex" unicode="&#xf4;" horiz-adv-x="586" 
d="M260 -15q-56 0 -98 18.5t-71 50.5t-43.5 75t-14.5 93q0 65 22 124.5t61.5 104.5t93.5 72t119 27q56 0 99 -18.5t71.5 -50.5t43 -75t14.5 -93q0 -66 -22 -125.5t-61.5 -104.5t-94 -71.5t-119.5 -26.5zM265 59q47 0 84 22t62.5 58.5t39 82.5t13.5 94q0 34 -8.5 63.5
t-25.5 51.5t-44 34t-63 12q-46 0 -83 -22.5t-62.5 -59t-39 -83t-13.5 -94.5q0 -69 34 -114t106 -45zM318 752h102l71 -123h-87l-40 76h-2l-66 -76h-95z" />
    <glyph glyph-name="otilde" unicode="&#xf5;" horiz-adv-x="586" 
d="M260 -15q-56 0 -98 18.5t-71 50.5t-43.5 75t-14.5 93q0 65 22 124.5t61.5 104.5t93.5 72t119 27q56 0 99 -18.5t71.5 -50.5t43 -75t14.5 -93q0 -66 -22 -125.5t-61.5 -104.5t-94 -71.5t-119.5 -26.5zM265 59q47 0 84 22t62.5 58.5t39 82.5t13.5 94q0 34 -8.5 63.5
t-25.5 51.5t-44 34t-63 12q-46 0 -83 -22.5t-62.5 -59t-39 -83t-13.5 -94.5q0 -69 34 -114t106 -45zM421 631q-20 0 -37 6.5t-31.5 14t-27.5 14t-23 6.5q-12 0 -21 -10t-11 -30h-64q5 54 31 80.5t63 26.5q21 0 37 -6.5t29.5 -14t26.5 -14t27 -6.5q28 0 31 39h65
q-5 -52 -29.5 -79t-65.5 -27z" />
    <glyph glyph-name="odieresis" unicode="&#xf6;" horiz-adv-x="586" 
d="M260 -15q-56 0 -98 18.5t-71 50.5t-43.5 75t-14.5 93q0 65 22 124.5t61.5 104.5t93.5 72t119 27q56 0 99 -18.5t71.5 -50.5t43 -75t14.5 -93q0 -66 -22 -125.5t-61.5 -104.5t-94 -71.5t-119.5 -26.5zM265 59q47 0 84 22t62.5 58.5t39 82.5t13.5 94q0 34 -8.5 63.5
t-25.5 51.5t-44 34t-63 12q-46 0 -83 -22.5t-62.5 -59t-39 -83t-13.5 -94.5q0 -69 34 -114t106 -45zM424 739h91l-21 -107h-91zM229 739h90l-21 -107h-90z" />
    <glyph glyph-name="divide" unicode="&#xf7;" horiz-adv-x="594" 
d="M306 576h107l-21 -109h-107zM85 376h469l-14 -73h-469zM235 211h107l-21 -108h-107z" />
    <glyph glyph-name="oslash" unicode="&#xf8;" horiz-adv-x="586" 
d="M-13 3l81 78q-37 60 -37 141q0 65 22 124.5t61.5 104.5t93.5 72t119 27q54 0 95 -17t70 -46l79 76l31 -32l-83 -79q37 -60 37 -139q0 -66 -22 -125.5t-61.5 -104.5t-94 -71.5t-119.5 -26.5q-53 0 -93.5 16t-69.5 45l-78 -75zM123 218q0 -20 2.5 -38.5t8.5 -35.5l297 284
q-17 23 -44.5 36t-65.5 13q-46 0 -83 -22.5t-62.5 -59t-39 -83t-13.5 -94.5zM264 59q47 0 84 22t62.5 58.5t39 82.5t13.5 94q0 20 -2.5 37.5t-8.5 33.5l-295 -283q36 -45 107 -45z" />
    <glyph glyph-name="ugrave" unicode="&#xf9;" horiz-adv-x="556" 
d="M196 -13q-42 0 -73.5 13.5t-51 38t-26 59.5t1.5 78l71 362h90l-71 -361q-4 -23 -3 -43.5t11 -36t29.5 -25t51.5 -9.5t59 10.5t48 29t35 44t20 54.5l66 337h92l-106 -538h-88l14 77h-2q-30 -42 -72 -66t-96 -24zM234 770h107l47 -145h-73z" />
    <glyph glyph-name="uacute" unicode="&#xfa;" horiz-adv-x="556" 
d="M196 -13q-42 0 -73.5 13.5t-51 38t-26 59.5t1.5 78l71 362h90l-71 -361q-4 -23 -3 -43.5t11 -36t29.5 -25t51.5 -9.5t59 10.5t48 29t35 44t20 54.5l66 337h92l-106 -538h-88l14 77h-2q-30 -42 -72 -66t-96 -24zM380 770h114l-111 -145h-79z" />
    <glyph glyph-name="ucircumflex" unicode="&#xfb;" horiz-adv-x="556" 
d="M196 -13q-42 0 -73.5 13.5t-51 38t-26 59.5t1.5 78l71 362h90l-71 -361q-4 -23 -3 -43.5t11 -36t29.5 -25t51.5 -9.5t59 10.5t48 29t35 44t20 54.5l66 337h92l-106 -538h-88l14 77h-2q-30 -42 -72 -66t-96 -24zM317 752h102l71 -123h-87l-40 76h-2l-66 -76h-95z" />
    <glyph glyph-name="udieresis" unicode="&#xfc;" horiz-adv-x="556" 
d="M196 -13q-42 0 -73.5 13.5t-51 38t-26 59.5t1.5 78l71 362h90l-71 -361q-4 -23 -3 -43.5t11 -36t29.5 -25t51.5 -9.5t59 10.5t48 29t35 44t20 54.5l66 337h92l-106 -538h-88l14 77h-2q-30 -42 -72 -66t-96 -24zM423 739h91l-21 -107h-91zM228 739h90l-21 -107h-90z" />
    <glyph glyph-name="yacute" unicode="&#xfd;" horiz-adv-x="514" 
d="M44 -187q-23 0 -43 3.5t-34 10.5l16 75h4q8 -5 21.5 -8t32.5 -3q26 0 47 14.5t42 52.5q0 1 5.5 11t11.5 22t11 23t5 13l-100 510h94l52 -293q4 -23 7.5 -49t5.5 -49q3 -26 5 -52h3q10 23 21 48q9 21 21 46t25 48l165 301h100l-339 -587q-24 -42 -46 -69t-43 -42
t-43 -20.5t-47 -5.5zM358 770h114l-111 -145h-79z" />
    <glyph glyph-name="thorn" unicode="&#xfe;" horiz-adv-x="586" 
d="M295 -15q-70 0 -110.5 28.5t-62.5 76.5h-2q-1 -7 -4.5 -35t-9.5 -60l-34 -177h-92l181 926h91l-38 -196q-5 -24 -9.5 -45t-7.5 -37h1q34 41 76 62.5t93 21.5q46 0 81.5 -16t60 -45t37.5 -70t13 -91q0 -68 -18 -130t-52 -109.5t-83 -75.5t-111 -28zM283 58q44 0 78 24.5
t57 63.5t35 86.5t12 94.5q0 68 -31.5 107.5t-91.5 39.5q-47 0 -83.5 -21.5t-61 -57t-37 -80t-12.5 -90.5q0 -35 8.5 -65.5t25 -53t42 -35.5t59.5 -13z" />
    <glyph glyph-name="ydieresis" unicode="&#xff;" horiz-adv-x="514" 
d="M44 -187q-23 0 -43 3.5t-34 10.5l16 75h4q8 -5 21.5 -8t32.5 -3q26 0 47 14.5t42 52.5q0 1 5.5 11t11.5 22t11 23t5 13l-100 510h94l52 -293q4 -23 7.5 -49t5.5 -49q3 -26 5 -52h3q10 23 21 48q9 21 21 46t25 48l165 301h100l-339 -587q-24 -42 -46 -69t-43 -42
t-43 -20.5t-47 -5.5zM402 739h91l-21 -107h-91zM207 739h90l-21 -107h-90z" />
    <glyph glyph-name="Amacron" unicode="&#x100;" horiz-adv-x="690" 
d="M382 744h111l126 -744h-107l-31 218h-288l-117 -218h-105zM235 296h235l-29 203q-4 26 -7.5 55t-5.5 54q-3 29 -5 57h-2q-11 -26 -22 -53q-11 -23 -24 -51.5t-27 -54.5zM316 868h281l-15 -73h-281z" />
    <glyph glyph-name="amacron" unicode="&#x101;" horiz-adv-x="542" 
d="M185 -11q-80 0 -126 37.5t-46 101.5q0 46 15.5 76.5t44.5 50.5t69.5 31t91.5 17q44 5 77 10t55 15t33 27.5t10 46.5q-1 37 -28 58.5t-81 21.5q-60 0 -95.5 -27.5t-46.5 -78.5h-87q6 37 23.5 68.5t47 55t69.5 37t91 13.5q48 0 86 -12.5t62.5 -37t34 -62t-0.5 -87.5
l-45 -235q-6 -30 3.5 -43t43.5 -7h3l-12 -63q-9 -3 -19.5 -5.5t-27.5 -2.5q-35 0 -56.5 18t-23.5 55h-2q-26 -37 -68.5 -58t-94.5 -21zM201 52q37 0 66 11t50 29.5t33.5 41.5t17.5 47l20 102q-23 -14 -57 -23t-86 -17q-31 -5 -56.5 -12.5t-44 -20t-28.5 -30.5t-10 -45
q0 -23 8 -38.5t21 -25.5t30.5 -14.5t35.5 -4.5zM199 733h270l-14 -73h-270z" />
    <glyph glyph-name="Abreve" unicode="&#x102;" horiz-adv-x="690" 
d="M382 744h111l126 -744h-107l-31 218h-288l-117 -218h-105zM235 296h235l-29 203q-4 26 -7.5 55t-5.5 54q-3 29 -5 57h-2q-11 -26 -22 -53q-11 -23 -24 -51.5t-27 -54.5zM448 780q-29 0 -52.5 9t-40 25.5t-25 40.5t-6.5 53h63q2 -28 16 -44.5t46 -16.5q31 0 50.5 16.5
t27.5 44.5h66q-12 -57 -50 -92.5t-95 -35.5z" />
    <glyph glyph-name="abreve" unicode="&#x103;" horiz-adv-x="542" 
d="M185 -11q-80 0 -126 37.5t-46 101.5q0 46 15.5 76.5t44.5 50.5t69.5 31t91.5 17q44 5 77 10t55 15t33 27.5t10 46.5q-1 37 -28 58.5t-81 21.5q-60 0 -95.5 -27.5t-46.5 -78.5h-87q6 37 23.5 68.5t47 55t69.5 37t91 13.5q48 0 86 -12.5t62.5 -37t34 -62t-0.5 -87.5
l-45 -235q-6 -30 3.5 -43t43.5 -7h3l-12 -63q-9 -3 -19.5 -5.5t-27.5 -2.5q-35 0 -56.5 18t-23.5 55h-2q-26 -37 -68.5 -58t-94.5 -21zM201 52q37 0 66 11t50 29.5t33.5 41.5t17.5 47l20 102q-23 -14 -57 -23t-86 -17q-31 -5 -56.5 -12.5t-44 -20t-28.5 -30.5t-10 -45
q0 -23 8 -38.5t21 -25.5t30.5 -14.5t35.5 -4.5zM319 620q-29 0 -52.5 9t-40 25.5t-25 40.5t-6.5 53h63q2 -28 16 -44.5t46 -16.5q31 0 50.5 16.5t27.5 44.5h66q-12 -57 -50 -92.5t-95 -35.5z" />
    <glyph glyph-name="Aogonek" unicode="&#x104;" horiz-adv-x="690" 
d="M557 -191q-57 0 -81 23.5t-24 57.5q0 21 7 37.5t18.5 30t26 24t29.5 18.5h-21l-31 218h-288l-117 -218h-105l411 744h111l126 -743q-15 -6 -29.5 -16t-26.5 -22.5t-19.5 -27t-7.5 -29.5q0 -32 41 -32q21 0 40 7h3l-13 -64q-10 -4 -21.5 -6t-28.5 -2zM235 296h235l-29 203
q-4 26 -7.5 55t-5.5 54q-3 29 -5 57h-2q-11 -26 -22 -53q-11 -23 -24 -51.5t-27 -54.5z" />
    <glyph glyph-name="aogonek" unicode="&#x105;" horiz-adv-x="542" 
d="M403 -191q-57 0 -81 23.5t-24 57.5q0 40 26.5 68.5t61.5 47.5q-16 8 -25.5 23.5t-10.5 38.5h-2q-26 -37 -68.5 -58t-94.5 -21q-80 0 -126 37.5t-46 101.5q0 46 15.5 76.5t44.5 50.5t69.5 31t91.5 17q44 5 77 10t55 15t33 27.5t10 46.5q-1 37 -28 58.5t-81 21.5
q-60 0 -95.5 -27.5t-46.5 -78.5h-87q6 37 23.5 68.5t47 55t69.5 37t91 13.5q48 0 86 -12.5t62.5 -37t34 -62t-0.5 -87.5l-45 -235q-6 -30 3.5 -43t43.5 -7h3l-12 -63q-15 -4 -32 -13t-31 -22t-23 -28.5t-9 -33.5q0 -32 41 -32q21 0 40 7h3l-13 -64q-10 -4 -21.5 -6t-28.5 -2
zM201 52q37 0 66 11t50 29.5t33.5 41.5t17.5 47l20 102q-23 -14 -57 -23t-86 -17q-31 -5 -56.5 -12.5t-44 -20t-28.5 -30.5t-10 -45q0 -23 8 -38.5t21 -25.5t30.5 -14.5t35.5 -4.5z" />
    <glyph glyph-name="Cacute" unicode="&#x106;" horiz-adv-x="745" 
d="M373 -16q-71 0 -128.5 23t-98 65t-62 101.5t-21.5 132.5q0 94 30 177t83 144.5t125.5 97t158.5 35.5q68 0 119 -19t86 -51q35 -33 54 -77t21 -95h-98q-5 70 -52 114t-135 44q-64 0 -117 -29.5t-91 -79.5t-59 -117.5t-21 -142.5q0 -112 53 -175t157 -63q46 0 84 16t67 43
t49 63t30 77h100q-15 -66 -43 -118t-79 -95q-41 -34 -95.5 -52.5t-116.5 -18.5zM498 910h114l-106 -125h-79z" />
    <glyph glyph-name="cacute" unicode="&#x107;" horiz-adv-x="552" 
d="M253 -15q-53 0 -94.5 16.5t-70 46t-43.5 70.5t-15 91q0 70 21 132t59.5 108.5t93 73.5t121.5 27q52 0 90 -15t63 -40.5t37.5 -60t13.5 -72.5h-89q-1 51 -30.5 82.5t-92.5 31.5q-48 0 -84 -23.5t-61 -62t-37.5 -87t-12.5 -97.5q0 -69 32.5 -108t99.5 -39q59 0 101 33.5
t61 97.5h90q-26 -100 -93 -152.5t-160 -52.5zM369 770h114l-111 -145h-79z" />
    <glyph glyph-name="Ccircumflex" unicode="&#x108;" horiz-adv-x="745" 
d="M373 -16q-71 0 -128.5 23t-98 65t-62 101.5t-21.5 132.5q0 94 30 177t83 144.5t125.5 97t158.5 35.5q68 0 119 -19t86 -51q35 -33 54 -77t21 -95h-98q-5 70 -52 114t-135 44q-64 0 -117 -29.5t-91 -79.5t-59 -117.5t-21 -142.5q0 -112 53 -175t157 -63q46 0 84 16t67 43
t49 63t30 77h100q-15 -66 -43 -118t-79 -95q-41 -34 -95.5 -52.5t-116.5 -18.5zM440 898h101l76 -113h-92l-41 62h-2l-67 -62h-96z" />
    <glyph glyph-name="ccircumflex" unicode="&#x109;" horiz-adv-x="552" 
d="M253 -15q-53 0 -94.5 16.5t-70 46t-43.5 70.5t-15 91q0 70 21 132t59.5 108.5t93 73.5t121.5 27q52 0 90 -15t63 -40.5t37.5 -60t13.5 -72.5h-89q-1 51 -30.5 82.5t-92.5 31.5q-48 0 -84 -23.5t-61 -62t-37.5 -87t-12.5 -97.5q0 -69 32.5 -108t99.5 -39q59 0 101 33.5
t61 97.5h90q-26 -100 -93 -152.5t-160 -52.5zM306 752h102l71 -123h-87l-40 76h-2l-66 -76h-95z" />
    <glyph glyph-name="Cdotaccent" unicode="&#x10a;" horiz-adv-x="745" 
d="M373 -16q-71 0 -128.5 23t-98 65t-62 101.5t-21.5 132.5q0 94 30 177t83 144.5t125.5 97t158.5 35.5q68 0 119 -19t86 -51q35 -33 54 -77t21 -95h-98q-5 70 -52 114t-135 44q-64 0 -117 -29.5t-91 -79.5t-59 -117.5t-21 -142.5q0 -112 53 -175t157 -63q46 0 84 16t67 43
t49 63t30 77h100q-15 -66 -43 -118t-79 -95q-41 -34 -95.5 -52.5t-116.5 -18.5zM443 893h95l-21 -108h-95z" />
    <glyph glyph-name="cdotaccent" unicode="&#x10b;" horiz-adv-x="552" 
d="M253 -15q-53 0 -94.5 16.5t-70 46t-43.5 70.5t-15 91q0 70 21 132t59.5 108.5t93 73.5t121.5 27q52 0 90 -15t63 -40.5t37.5 -60t13.5 -72.5h-89q-1 51 -30.5 82.5t-92.5 31.5q-48 0 -84 -23.5t-61 -62t-37.5 -87t-12.5 -97.5q0 -69 32.5 -108t99.5 -39q59 0 101 33.5
t61 97.5h90q-26 -100 -93 -152.5t-160 -52.5zM313 744h95l-21 -108h-95z" />
    <glyph glyph-name="Ccaron" unicode="&#x10c;" horiz-adv-x="745" 
d="M373 -16q-71 0 -128.5 23t-98 65t-62 101.5t-21.5 132.5q0 94 30 177t83 144.5t125.5 97t158.5 35.5q68 0 119 -19t86 -51q35 -33 54 -77t21 -95h-98q-5 70 -52 114t-135 44q-64 0 -117 -29.5t-91 -79.5t-59 -117.5t-21 -142.5q0 -112 53 -175t157 -63q46 0 84 16t67 43
t49 63t30 77h100q-15 -66 -43 -118t-79 -95q-41 -34 -95.5 -52.5t-116.5 -18.5zM522 785h-101l-76 113h92l41 -62h2l67 62h96z" />
    <glyph glyph-name="ccaron" unicode="&#x10d;" horiz-adv-x="552" 
d="M253 -15q-53 0 -94.5 16.5t-70 46t-43.5 70.5t-15 91q0 70 21 132t59.5 108.5t93 73.5t121.5 27q52 0 90 -15t63 -40.5t37.5 -60t13.5 -72.5h-89q-1 51 -30.5 82.5t-92.5 31.5q-48 0 -84 -23.5t-61 -62t-37.5 -87t-12.5 -97.5q0 -69 32.5 -108t99.5 -39q59 0 101 33.5
t61 97.5h90q-26 -100 -93 -152.5t-160 -52.5zM218 749h87l40 -76h2l66 76h96l-118 -124h-101z" />
    <glyph glyph-name="Dcaron" unicode="&#x10e;" horiz-adv-x="722" 
d="M172 744h247q71 0 124.5 -22.5t89.5 -62.5t54.5 -94t18.5 -118q0 -103 -27 -185.5t-78.5 -140.5t-127.5 -89.5t-175 -31.5h-271zM306 87q79 0 135.5 27.5t93 76t53.5 114t17 141.5q0 47 -11.5 86t-36 67.5t-62.5 44t-90 15.5h-147l-113 -572h161zM467 785h-101l-76 113
h92l41 -62h2l67 62h96z" />
    <glyph glyph-name="dcaron" unicode="&#x10f;" horiz-adv-x="587" 
d="M225 -15q-43 0 -79 15.5t-62 44t-40.5 70t-14.5 93.5q0 72 20.5 134.5t56.5 108.5t85.5 72.5t108.5 26.5q63 0 102.5 -28.5t61.5 -78.5h2q2 15 6.5 42t9.5 53l41 206h91l-146 -744h-88l12 67q-34 -38 -75 -60t-92 -22zM248 58q46 0 81.5 23.5t60.5 60.5t38 83t13 92
q0 33 -8 61.5t-25 49.5t-43 33t-61 12q-45 0 -79 -23.5t-56.5 -61t-33.5 -84.5t-11 -93q0 -68 29.5 -110.5t94.5 -42.5zM756 655q-9 -48 -41.5 -72t-77.5 -26l8 44q26 4 39.5 16t18.5 38h-45l17 89h98z" />
    <glyph glyph-name="Dcroat" unicode="&#x110;" horiz-adv-x="731" 
d="M44 416h73l64 328h247q71 0 124.5 -22.5t89.5 -62.5t54.5 -94t18.5 -118q0 -103 -27 -185.5t-78.5 -140.5t-127.5 -89.5t-175 -31.5h-271l64 332h-72zM315 87q79 0 135.5 27.5t93 76t53.5 114t17 141.5q0 47 -11.5 86t-36 67.5t-62.5 44t-90 15.5h-147l-48 -243h208
l-17 -84h-208l-48 -245h161z" />
    <glyph glyph-name="dcroat" unicode="&#x111;" horiz-adv-x="587" 
d="M225 -16q-43 0 -79 15.5t-62 44.5t-40.5 70.5t-14.5 93.5q0 72 20.5 134.5t56.5 109t85.5 73t108.5 26.5q63 0 102.5 -29t61.5 -79h2q2 15 6.5 42t9.5 53l14 71h-149l12 61h149l15 74h91l-15 -74h72l-12 -61h-72l-119 -609h-88l12 67q-34 -38 -75 -60.5t-92 -22.5z
M248 57q46 0 81.5 23.5t60.5 61t38 83.5t13 92q0 33 -8 62t-25 50t-43 33t-61 12q-45 0 -79 -24t-56.5 -61.5t-33.5 -84.5t-11 -93q0 -68 29.5 -111t94.5 -43z" />
    <glyph glyph-name="Emacron" unicode="&#x112;" horiz-adv-x="657" 
d="M175 744h519l-17 -86h-418l-45 -230h380l-17 -82h-379l-49 -255h429l-17 -91h-531zM320 868h281l-15 -73h-281z" />
    <glyph glyph-name="emacron" unicode="&#x113;" horiz-adv-x="568" 
d="M263 -15q-58 0 -101 18t-72 49.5t-43.5 74t-14.5 91.5q0 66 21 126.5t59.5 106t92.5 72.5t121 27q53 0 92.5 -16.5t65.5 -46t38.5 -70t12.5 -88.5q0 -20 -2 -40.5t-5 -41.5h-404q-1 -8 -1 -15v-15q0 -76 36.5 -117t108.5 -41q50 0 89.5 23.5t58.5 71.5h91
q-29 -84 -95 -126.5t-149 -42.5zM319 480q-37 0 -67 -13.5t-53 -36.5t-39 -53.5t-25 -64.5h306q6 36 1.5 67t-19.5 53.5t-41 35t-63 12.5zM220 733h270l-14 -73h-270z" />
    <glyph glyph-name="Ebreve" unicode="&#x114;" horiz-adv-x="657" 
d="M175 744h519l-17 -86h-418l-45 -230h380l-17 -82h-379l-49 -255h429l-17 -91h-531zM453 780q-29 0 -52.5 9t-40 25.5t-25 40.5t-6.5 53h63q2 -28 16 -44.5t46 -16.5q31 0 50.5 16.5t27.5 44.5h66q-12 -57 -50 -92.5t-95 -35.5z" />
    <glyph glyph-name="ebreve" unicode="&#x115;" horiz-adv-x="568" 
d="M263 -15q-58 0 -101 18t-72 49.5t-43.5 74t-14.5 91.5q0 66 21 126.5t59.5 106t92.5 72.5t121 27q53 0 92.5 -16.5t65.5 -46t38.5 -70t12.5 -88.5q0 -20 -2 -40.5t-5 -41.5h-404q-1 -8 -1 -15v-15q0 -76 36.5 -117t108.5 -41q50 0 89.5 23.5t58.5 71.5h91
q-29 -84 -95 -126.5t-149 -42.5zM319 480q-37 0 -67 -13.5t-53 -36.5t-39 -53.5t-25 -64.5h306q6 36 1.5 67t-19.5 53.5t-41 35t-63 12.5zM340 620q-29 0 -52.5 9t-40 25.5t-25 40.5t-6.5 53h63q2 -28 16 -44.5t46 -16.5q31 0 50.5 16.5t27.5 44.5h66q-12 -57 -50 -92.5
t-95 -35.5z" />
    <glyph glyph-name="Edotaccent" unicode="&#x116;" horiz-adv-x="657" 
d="M175 744h519l-17 -86h-418l-45 -230h380l-17 -82h-379l-49 -255h429l-17 -91h-531zM418 893h95l-21 -108h-95z" />
    <glyph glyph-name="edotaccent" unicode="&#x117;" horiz-adv-x="568" 
d="M263 -15q-58 0 -101 18t-72 49.5t-43.5 74t-14.5 91.5q0 66 21 126.5t59.5 106t92.5 72.5t121 27q53 0 92.5 -16.5t65.5 -46t38.5 -70t12.5 -88.5q0 -20 -2 -40.5t-5 -41.5h-404q-1 -8 -1 -15v-15q0 -76 36.5 -117t108.5 -41q50 0 89.5 23.5t58.5 71.5h91
q-29 -84 -95 -126.5t-149 -42.5zM319 480q-37 0 -67 -13.5t-53 -36.5t-39 -53.5t-25 -64.5h306q6 36 1.5 67t-19.5 53.5t-41 35t-63 12.5zM310 744h95l-21 -108h-95z" />
    <glyph glyph-name="Eogonek" unicode="&#x118;" horiz-adv-x="657" 
d="M175 744h519l-17 -86h-418l-45 -230h380l-17 -82h-379l-49 -255h429l-17 -91h-50q-9 -7 -21.5 -17t-24 -22t-19 -26t-7.5 -29q0 -32 41 -32q21 0 40 7h3l-13 -64q-10 -4 -21.5 -6t-28.5 -2q-57 0 -81 23.5t-24 57.5q0 40 22.5 66.5t50.5 43.5h-398z" />
    <glyph glyph-name="eogonek" unicode="&#x119;" horiz-adv-x="568" 
d="M288 -191q-57 0 -81 23.5t-24 57.5t17.5 56.5t40.5 39.5q-53 3 -92 22.5t-65 50t-39 71.5t-13 88q0 66 21 126.5t59.5 106t92.5 72.5t121 27q53 0 92.5 -16.5t65.5 -46t38.5 -70t12.5 -88.5q0 -20 -2 -40.5t-5 -41.5h-404q-1 -8 -1 -15v-15q0 -76 36.5 -117t108.5 -41
q50 0 89.5 23.5t58.5 71.5h91q-20 -57 -54.5 -92t-75.5 -53q-21 -9 -41 -20t-35.5 -23.5t-24.5 -27t-9 -32.5q0 -32 41 -32q21 0 40 7h3l-13 -64q-10 -4 -21.5 -6t-28.5 -2zM319 480q-37 0 -67 -13.5t-53 -36.5t-39 -53.5t-25 -64.5h306q6 36 1.5 67t-19.5 53.5t-41 35
t-63 12.5z" />
    <glyph glyph-name="Ecaron" unicode="&#x11a;" horiz-adv-x="657" 
d="M175 744h519l-17 -86h-418l-45 -230h380l-17 -82h-379l-49 -255h429l-17 -91h-531zM497 785h-101l-76 113h92l41 -62h2l67 62h96z" />
    <glyph glyph-name="ecaron" unicode="&#x11b;" horiz-adv-x="568" 
d="M263 -15q-58 0 -101 18t-72 49.5t-43.5 74t-14.5 91.5q0 66 21 126.5t59.5 106t92.5 72.5t121 27q53 0 92.5 -16.5t65.5 -46t38.5 -70t12.5 -88.5q0 -20 -2 -40.5t-5 -41.5h-404q-1 -8 -1 -15v-15q0 -76 36.5 -117t108.5 -41q50 0 89.5 23.5t58.5 71.5h91
q-29 -84 -95 -126.5t-149 -42.5zM319 480q-37 0 -67 -13.5t-53 -36.5t-39 -53.5t-25 -64.5h306q6 36 1.5 67t-19.5 53.5t-41 35t-63 12.5zM215 749h87l40 -76h2l66 76h96l-118 -124h-101z" />
    <glyph glyph-name="Gcircumflex" unicode="&#x11c;" horiz-adv-x="771" 
d="M361 -16q-75 0 -132.5 25.5t-96.5 72.5q-33 42 -50.5 97t-17.5 121q0 103 36 195t104 157q51 51 118.5 79.5t149.5 28.5q65 0 116 -17t87 -47.5t56 -72.5t23 -93h-105q-5 65 -50 104.5t-136 39.5q-76 0 -131.5 -34t-92 -88t-54 -119.5t-17.5 -128.5q0 -115 55.5 -175
t152.5 -60q50 0 92 16t73 44.5t51 68t27 86.5l4 24h-213l16 85h311l-76 -393h-65l-5 100h-2q-84 -116 -228 -116zM452 898h101l76 -113h-92l-41 62h-2l-67 -62h-96z" />
    <glyph glyph-name="gcircumflex" unicode="&#x11d;" horiz-adv-x="579" 
d="M218 -189q-50 0 -89 11.5t-66 31.5t-42 47.5t-17 60.5h87q5 -36 36 -59t93 -23q64 0 103.5 33t50.5 93l6 37q0 1 1.5 7.5t3.5 16t5 20t5 19.5h-1q-31 -36 -69.5 -59t-91.5 -23q-46 0 -82 17t-61 46t-38 69t-13 85q0 67 20.5 124t56 98t83 64t100.5 23q61 0 101.5 -26.5
t61.5 -73.5l17 88h89l-105 -535q-11 -53 -32.5 -89.5t-53 -59t-72 -33t-87.5 -10.5zM256 96q48 0 82.5 23t57 58t33.5 78t11 82q0 63 -34.5 100.5t-103.5 37.5q-42 0 -74 -20.5t-53.5 -54t-33 -76.5t-11.5 -88q0 -63 30.5 -101.5t95.5 -38.5zM311 752h102l71 -123h-87
l-40 76h-2l-66 -76h-95z" />
    <glyph glyph-name="Gbreve" unicode="&#x11e;" horiz-adv-x="771" 
d="M361 -16q-75 0 -132.5 25.5t-96.5 72.5q-33 42 -50.5 97t-17.5 121q0 103 36 195t104 157q51 51 118.5 79.5t149.5 28.5q65 0 116 -17t87 -47.5t56 -72.5t23 -93h-105q-5 65 -50 104.5t-136 39.5q-76 0 -131.5 -34t-92 -88t-54 -119.5t-17.5 -128.5q0 -115 55.5 -175
t152.5 -60q50 0 92 16t73 44.5t51 68t27 86.5l4 24h-213l16 85h311l-76 -393h-65l-5 100h-2q-84 -116 -228 -116zM490 780q-29 0 -52.5 9t-40 25.5t-25 40.5t-6.5 53h63q2 -28 16 -44.5t46 -16.5q31 0 50.5 16.5t27.5 44.5h66q-12 -57 -50 -92.5t-95 -35.5z" />
    <glyph glyph-name="gbreve" unicode="&#x11f;" horiz-adv-x="579" 
d="M218 -189q-50 0 -89 11.5t-66 31.5t-42 47.5t-17 60.5h87q5 -36 36 -59t93 -23q64 0 103.5 33t50.5 93l6 37q0 1 1.5 7.5t3.5 16t5 20t5 19.5h-1q-31 -36 -69.5 -59t-91.5 -23q-46 0 -82 17t-61 46t-38 69t-13 85q0 67 20.5 124t56 98t83 64t100.5 23q61 0 101.5 -26.5
t61.5 -73.5l17 88h89l-105 -535q-11 -53 -32.5 -89.5t-53 -59t-72 -33t-87.5 -10.5zM256 96q48 0 82.5 23t57 58t33.5 78t11 82q0 63 -34.5 100.5t-103.5 37.5q-42 0 -74 -20.5t-53.5 -54t-33 -76.5t-11.5 -88q0 -63 30.5 -101.5t95.5 -38.5zM348 620q-29 0 -52.5 9
t-40 25.5t-25 40.5t-6.5 53h63q2 -28 16 -44.5t46 -16.5q31 0 50.5 16.5t27.5 44.5h66q-12 -57 -50 -92.5t-95 -35.5z" />
    <glyph glyph-name="Gdotaccent" unicode="&#x120;" horiz-adv-x="771" 
d="M361 -16q-75 0 -132.5 25.5t-96.5 72.5q-33 42 -50.5 97t-17.5 121q0 103 36 195t104 157q51 51 118.5 79.5t149.5 28.5q65 0 116 -17t87 -47.5t56 -72.5t23 -93h-105q-5 65 -50 104.5t-136 39.5q-76 0 -131.5 -34t-92 -88t-54 -119.5t-17.5 -128.5q0 -115 55.5 -175
t152.5 -60q50 0 92 16t73 44.5t51 68t27 86.5l4 24h-213l16 85h311l-76 -393h-65l-5 100h-2q-84 -116 -228 -116zM455 893h95l-21 -108h-95z" />
    <glyph glyph-name="gdotaccent" unicode="&#x121;" horiz-adv-x="579" 
d="M218 -189q-50 0 -89 11.5t-66 31.5t-42 47.5t-17 60.5h87q5 -36 36 -59t93 -23q64 0 103.5 33t50.5 93l6 37q0 1 1.5 7.5t3.5 16t5 20t5 19.5h-1q-31 -36 -69.5 -59t-91.5 -23q-46 0 -82 17t-61 46t-38 69t-13 85q0 67 20.5 124t56 98t83 64t100.5 23q61 0 101.5 -26.5
t61.5 -73.5l17 88h89l-105 -535q-11 -53 -32.5 -89.5t-53 -59t-72 -33t-87.5 -10.5zM256 96q48 0 82.5 23t57 58t33.5 78t11 82q0 63 -34.5 100.5t-103.5 37.5q-42 0 -74 -20.5t-53.5 -54t-33 -76.5t-11.5 -88q0 -63 30.5 -101.5t95.5 -38.5zM318 744h95l-21 -108h-95z" />
    <glyph glyph-name="uni0122" unicode="&#x122;" horiz-adv-x="771" 
d="M361 -16q-75 0 -132.5 25.5t-96.5 72.5q-33 42 -50.5 97t-17.5 121q0 103 36 195t104 157q51 51 118.5 79.5t149.5 28.5q65 0 116 -17t87 -47.5t56 -72.5t23 -93h-105q-5 65 -50 104.5t-136 39.5q-76 0 -131.5 -34t-92 -88t-54 -119.5t-17.5 -128.5q0 -115 55.5 -175
t152.5 -60q50 0 92 16t73 44.5t51 68t27 86.5l4 24h-213l16 85h311l-76 -393h-65l-5 100h-2q-84 -116 -228 -116zM384 -147q-10 -51 -42 -73.5t-85 -24.5l8 43q29 4 45 16.5t21 38.5h-53l19 96h106z" />
    <glyph glyph-name="uni0123" unicode="&#x123;" horiz-adv-x="579" 
d="M218 -189q-50 0 -89 11.5t-66 31.5t-42 47.5t-17 60.5h87q5 -36 36 -59t93 -23q64 0 103.5 33t50.5 93l6 37q0 1 1.5 7.5t3.5 16t5 20t5 19.5h-1q-31 -36 -69.5 -59t-91.5 -23q-46 0 -82 17t-61 46t-38 69t-13 85q0 67 20.5 124t56 98t83 64t100.5 23q61 0 101.5 -26.5
t61.5 -73.5l17 88h89l-105 -535q-11 -53 -32.5 -89.5t-53 -59t-72 -33t-87.5 -10.5zM256 96q48 0 82.5 23t57 58t33.5 78t11 82q0 63 -34.5 100.5t-103.5 37.5q-42 0 -74 -20.5t-53.5 -54t-33 -76.5t-11.5 -88q0 -63 30.5 -101.5t95.5 -38.5zM307 732q10 51 42 73.5t85 24.5
l-8 -43q-29 -4 -45 -16.5t-21 -38.5h53l-19 -96h-106z" />
    <glyph glyph-name="Hcircumflex" unicode="&#x124;" horiz-adv-x="733" 
d="M172 744h101l-61 -314h377l61 314h101l-145 -744h-101l68 349h-377l-68 -349h-101zM440 898h101l76 -113h-92l-41 62h-2l-67 -62h-96z" />
    <glyph glyph-name="hcircumflex" unicode="&#x125;" horiz-adv-x="566" 
d="M161 744h91l-39 -204l-19 -81h3q30 44 75 67.5t99 23.5q39 0 71.5 -13t53.5 -37t29 -59t-1 -80l-72 -361h-91l71 359q11 55 -12 85t-82 30q-60 0 -106 -35.5t-59 -99.5l-66 -339h-91zM363 898h101l76 -113h-92l-41 62h-2l-67 -62h-96z" />
    <glyph glyph-name="Hbar" unicode="&#x126;" horiz-adv-x="733" 
d="M73 612h73l26 132h101l-26 -132h377l26 132h101l-26 -132h75l-15 -71h-74l-105 -541h-101l68 349h-377l-68 -349h-101l105 541h-74zM212 430h377l21 111h-377z" />
    <glyph glyph-name="hbar" unicode="&#x127;" horiz-adv-x="566" 
d="M76 670h70l15 74h91l-15 -74h151l-12 -61h-150l-13 -69l-19 -81h3q30 44 75 67.5t99 23.5q39 0 71.5 -13t53.5 -37t29 -59t-1 -80l-72 -361h-91l71 359q11 55 -12 85t-82 30q-60 0 -106 -35.5t-59 -99.5l-66 -339h-91l118 609h-70z" />
    <glyph glyph-name="Itilde" unicode="&#x128;" horiz-adv-x="259" 
d="M174 744h102l-145 -744h-102zM303 786q-20 0 -37 6.5t-31.5 14t-27.5 14t-23 6.5q-12 0 -21 -10t-11 -30h-64q5 54 31 80.5t63 26.5q21 0 37 -6.5t29.5 -14t26.5 -14t27 -6.5q28 0 31 39h65q-5 -52 -29.5 -79t-65.5 -27z" />
    <glyph glyph-name="itilde" unicode="&#x129;" horiz-adv-x="224" 
d="M121 537h91l-104 -537h-92zM255 631q-20 0 -37 6.5t-31.5 14t-27.5 14t-23 6.5q-12 0 -21 -10t-11 -30h-64q5 54 31 80.5t63 26.5q21 0 37 -6.5t29.5 -14t26.5 -14t27 -6.5q28 0 31 39h65q-5 -52 -29.5 -79t-65.5 -27z" />
    <glyph glyph-name="Imacron" unicode="&#x12a;" horiz-adv-x="259" 
d="M174 744h102l-145 -744h-102zM128 868h241l-15 -73h-241z" />
    <glyph glyph-name="imacron" unicode="&#x12b;" horiz-adv-x="224" 
d="M121 537h91l-104 -537h-92zM99 717h204l-14 -73h-204z" />
    <glyph glyph-name="Ibreve" unicode="&#x12c;" horiz-adv-x="259" 
d="M174 744h102l-145 -744h-102zM241 780q-29 0 -52.5 9t-40 25.5t-25 40.5t-6.5 53h63q2 -28 16 -44.5t46 -16.5q31 0 50.5 16.5t27.5 44.5h66q-12 -57 -50 -92.5t-95 -35.5z" />
    <glyph glyph-name="ibreve" unicode="&#x12d;" horiz-adv-x="224" 
d="M121 537h91l-104 -537h-92zM189 620q-29 0 -52.5 9t-40 25.5t-25 40.5t-6.5 53h63q2 -28 16 -44.5t46 -16.5q31 0 50.5 16.5t27.5 44.5h66q-12 -57 -50 -92.5t-95 -35.5z" />
    <glyph glyph-name="Iogonek" unicode="&#x12e;" horiz-adv-x="259" 
d="M174 744h102l-145 -744q-12 -6 -26 -16t-26 -22.5t-19.5 -26.5t-7.5 -29q0 -32 41 -32q21 0 40 7h3l-13 -64q-10 -4 -21.5 -6t-28.5 -2q-57 0 -81 23.5t-24 57.5q0 21 7 37.5t18.5 30t26 24t29.5 18.5h-20z" />
    <glyph glyph-name="iogonek" unicode="&#x12f;" horiz-adv-x="224" 
d="M121 537h91l-105 -537q-12 -6 -26 -16t-25.5 -22t-19 -26.5t-7.5 -29.5q0 -32 41 -32q21 0 40 7h3l-13 -64q-10 -4 -21.5 -6t-28.5 -2q-57 0 -81 23.5t-24 57.5q0 21 7 37.5t18.5 30t26 24t29.5 18.5h-10zM159 744h95l-21 -108h-95z" />
    <glyph glyph-name="Idotaccent" unicode="&#x130;" horiz-adv-x="259" 
d="M174 744h102l-145 -744h-102zM206 893h95l-21 -108h-95z" />
    <glyph glyph-name="dotlessi" unicode="&#x131;" horiz-adv-x="224" 
d="M121 537h91l-104 -537h-92z" />
    <glyph glyph-name="IJ" unicode="&#x132;" horiz-adv-x="761" 
d="M174 744h102l-145 -744h-102zM453 -15q-51 0 -92.5 14t-69 43t-37.5 75t2 111l4 19h99l-4 -20q-9 -48 -5 -79t18 -48.5t36 -24.5t50 -7q55 0 85 32t43 97l106 547h102l-111 -567q-8 -43 -25.5 -78t-45.5 -60q-57 -54 -155 -54z" />
    <glyph glyph-name="ij" unicode="&#x133;" horiz-adv-x="448" 
d="M176 -170q-14 0 -26.5 1.5t-23.5 3.5l15 74h2q8 -2 13 -2.5t12 -0.5q29 0 44 12t20 40l113 579h91l-114 -584q-8 -39 -21.5 -63t-32.5 -37.5t-42 -18t-50 -4.5zM121 537h91l-105 -537h-91zM383 744h95l-21 -108h-95zM159 744h95l-21 -108h-95z" />
    <glyph glyph-name="Jcircumflex" unicode="&#x134;" horiz-adv-x="535" 
d="M227 -15q-51 0 -92.5 14t-69 43t-37.5 75t2 111l4 19h99l-4 -20q-9 -48 -5 -79t18 -48.5t36 -24.5t50 -7q55 0 85 32t43 97l106 547h102l-111 -567q-8 -43 -25.5 -78t-45.5 -60q-57 -54 -155 -54zM486 898h101l76 -113h-92l-41 62h-2l-67 -62h-96z" />
    <glyph glyph-name="jcircumflex" unicode="&#x135;" horiz-adv-x="224" 
d="M-48 -170q-14 0 -26.5 1.5t-23.5 3.5l15 74h2q8 -2 13 -2.5t12 -0.5q29 0 44 12t20 40l113 579h91l-114 -584q-8 -39 -21.5 -63t-32.5 -37.5t-42 -18t-50 -4.5zM149 752h102l71 -123h-87l-40 76h-2l-66 -76h-95z" />
    <glyph glyph-name="uni0136" unicode="&#x136;" horiz-adv-x="675" 
d="M315 379l-135 -112l-51 -267h-102l145 744h102l-45 -230q-8 -36 -16 -71t-15 -62l422 364h128l-359 -306l236 -439h-109zM347 -147q-10 -51 -42 -73.5t-85 -24.5l8 43q29 4 45 16.5t21 38.5h-53l19 96h106z" />
    <glyph glyph-name="uni0137" unicode="&#x137;" horiz-adv-x="536" 
d="M161 744h90l-64 -328l-25 -109l272 230h116l-246 -203l164 -334h-98l-134 280l-89 -70l-41 -210h-90zM249 -147q-10 -51 -42 -73.5t-85 -24.5l8 43q29 4 45 16.5t21 38.5h-53l19 96h106z" />
    <glyph glyph-name="kgreenlandic" unicode="&#x138;" horiz-adv-x="536" 
d="M121 538h90l-24 -122l-25 -109l272 230h116l-246 -203l164 -334h-98l-134 280l-89 -70l-41 -210h-90z" />
    <glyph glyph-name="Lacute" unicode="&#x139;" horiz-adv-x="589" 
d="M172 744h102l-128 -653h378l-18 -91h-479zM256 910h114l-106 -125h-79z" />
    <glyph glyph-name="lacute" unicode="&#x13a;" horiz-adv-x="229" 
d="M164 744h91l-145 -744h-91zM248 910h114l-106 -125h-79z" />
    <glyph glyph-name="uni013B" unicode="&#x13b;" horiz-adv-x="589" 
d="M172 744h102l-128 -653h378l-18 -91h-479zM297 -147q-10 -51 -42 -73.5t-85 -24.5l8 43q29 4 45 16.5t21 38.5h-53l19 96h106z" />
    <glyph glyph-name="uni013C" unicode="&#x13c;" horiz-adv-x="229" 
d="M164 744h91l-145 -744h-91zM90 -147q-10 -51 -42 -73.5t-85 -24.5l8 43q29 4 45 16.5t21 38.5h-53l19 96h106z" />
    <glyph glyph-name="Lcaron" unicode="&#x13d;" horiz-adv-x="589" 
d="M172 744h102l-128 -653h378l-18 -91h-479zM513 642q-10 -51 -42.5 -75t-80.5 -26l9 45q27 4 40.5 17t18.5 39h-46l20 102h101z" />
    <glyph glyph-name="lcaron" unicode="&#x13e;" horiz-adv-x="229" 
d="M164 744h91l-145 -744h-91zM390 655q-9 -48 -41.5 -72t-77.5 -26l8 44q26 4 39.5 16t18.5 38h-45l17 89h98z" />
    <glyph glyph-name="Ldot" unicode="&#x13f;" horiz-adv-x="589" 
d="M172 744h102l-128 -653h378l-18 -91h-479zM409 413h107l-21 -110h-108z" />
    <glyph glyph-name="ldot" unicode="&#x140;" horiz-adv-x="343" 
d="M164 744h91l-145 -744h-91zM260 413h107l-21 -110h-108z" />
    <glyph glyph-name="Lslash" unicode="&#x141;" horiz-adv-x="589" 
d="M13 301l80 35l80 408h101l-70 -360l272 118l-17 -84l-272 -118l-40 -209h377l-17 -91h-479l49 252l-80 -34z" />
    <glyph glyph-name="lslash" unicode="&#x142;" horiz-adv-x="263" 
d="M18 334l94 59l69 351h91l-56 -287l101 63l-16 -84l-102 -64l-72 -372h-91l60 308l-93 -58z" />
    <glyph glyph-name="Nacute" unicode="&#x143;" horiz-adv-x="730" 
d="M172 744h107l204 -477q10 -23 19.5 -49t17.5 -49q9 -26 18 -53h2q3 29 7 57q3 24 7.5 52t9.5 53l90 466h94l-145 -744h-102l-207 478q-10 21 -19.5 46.5t-17.5 48.5q-10 26 -19 53h-2q-3 -29 -7 -57q-3 -24 -7 -52t-9 -52l-91 -465h-95zM502 910h114l-106 -125h-79z" />
    <glyph glyph-name="nacute" unicode="&#x144;" horiz-adv-x="566" 
d="M121 537h90l-17 -80h2q30 43 75.5 68t99.5 25q39 0 71.5 -13t53.5 -37.5t29 -59.5t-1 -80l-72 -360h-91l71 358q11 55 -12 85.5t-82 30.5q-60 0 -106 -36t-59 -100l-66 -338h-91zM374 770h114l-111 -145h-79z" />
    <glyph glyph-name="uni0145" unicode="&#x145;" horiz-adv-x="730" 
d="M172 744h107l204 -477q10 -23 19.5 -49t17.5 -49q9 -26 18 -53h2q3 29 7 57q3 24 7.5 52t9.5 53l90 466h94l-145 -744h-102l-207 478q-10 21 -19.5 46.5t-17.5 48.5q-10 26 -19 53h-2q-3 -29 -7 -57q-3 -24 -7 -52t-9 -52l-91 -465h-95zM346 -147q-10 -51 -42 -73.5
t-85 -24.5l8 43q29 4 45 16.5t21 38.5h-53l19 96h106z" />
    <glyph glyph-name="uni0146" unicode="&#x146;" horiz-adv-x="566" 
d="M121 537h90l-17 -80h2q30 43 75.5 68t99.5 25q39 0 71.5 -13t53.5 -37.5t29 -59.5t-1 -80l-72 -360h-91l71 358q11 55 -12 85.5t-82 30.5q-60 0 -106 -36t-59 -100l-66 -338h-91zM267 -147q-10 -51 -42 -73.5t-85 -24.5l8 43q29 4 45 16.5t21 38.5h-53l19 96h106z" />
    <glyph glyph-name="Ncaron" unicode="&#x147;" horiz-adv-x="730" 
d="M172 744h107l204 -477q10 -23 19.5 -49t17.5 -49q9 -26 18 -53h2q3 29 7 57q3 24 7.5 52t9.5 53l90 466h94l-145 -744h-102l-207 478q-10 21 -19.5 46.5t-17.5 48.5q-10 26 -19 53h-2q-3 -29 -7 -57q-3 -24 -7 -52t-9 -52l-91 -465h-95zM526 785h-101l-76 113h92l41 -62
h2l67 62h96z" />
    <glyph glyph-name="ncaron" unicode="&#x148;" horiz-adv-x="566" 
d="M121 537h90l-17 -80h2q30 43 75.5 68t99.5 25q39 0 71.5 -13t53.5 -37.5t29 -59.5t-1 -80l-72 -360h-91l71 358q11 55 -12 85.5t-82 30.5q-60 0 -106 -36t-59 -100l-66 -338h-91zM223 749h87l40 -76h2l66 76h96l-118 -124h-101z" />
    <glyph glyph-name="napostrophe" unicode="&#x149;" horiz-adv-x="566" 
d="M121 537h90l-17 -80h2q30 43 75.5 68t99.5 25q39 0 71.5 -13t53.5 -37.5t29 -59.5t-1 -80l-72 -360h-91l71 358q11 55 -12 85.5t-82 30.5q-60 0 -106 -36t-59 -100l-66 -338h-91zM133 655q-9 -48 -41.5 -72t-77.5 -26l8 44q26 4 39.5 16t18.5 38h-45l17 89h98z" />
    <glyph glyph-name="Eng" unicode="&#x14a;" horiz-adv-x="730" 
d="M376 -106q55 0 85.5 25t41.5 75l-209 484q-10 21 -19.5 46.5t-17.5 48.5q-10 26 -19 53h-2q-3 -29 -7 -57q-3 -24 -7 -52t-9 -52l-91 -465h-95l145 744h107l204 -477q10 -23 19.5 -49t17.5 -49q9 -26 18 -53h2q3 29 7 57q3 24 7.5 52t9.5 53l90 466h94l-145 -741
q-8 -43 -23 -76.5t-42 -61.5q-53 -54 -153 -54q-20 0 -35.5 1.5t-27.5 3.5l16 81h3q9 -2 16.5 -2.5t18.5 -0.5z" />
    <glyph glyph-name="eng" unicode="&#x14b;" horiz-adv-x="566" 
d="M432 358q11 55 -12 85.5t-82 30.5q-60 0 -106 -36t-59 -100l-66 -338h-91l105 537h90l-17 -80h2q30 43 75.5 68t99.5 25q39 0 71.5 -13t53.5 -37.5t29 -59.5t-1 -80l-82 -407q-8 -39 -21.5 -63t-32.5 -37.5t-42 -18t-50 -4.5q-14 0 -26.5 1.5t-23.5 3.5l15 74h2
q8 -2 13 -2.5t12 -0.5q29 0 44.5 12t20.5 40z" />
    <glyph glyph-name="Omacron" unicode="&#x14c;" horiz-adv-x="813" 
d="M395 -16q-77 0 -138.5 24t-104.5 68t-65.5 105.5t-22.5 136.5q0 87 28.5 166.5t81.5 141t127.5 98t166.5 36.5q78 0 138.5 -25t102.5 -69.5t64 -105t22 -130.5q0 -89 -27.5 -169.5t-79 -142t-126 -98t-167.5 -36.5zM401 70q69 0 123 30t91 79.5t56.5 114t19.5 134.5
q0 58 -16.5 103.5t-46.5 77t-72.5 48t-94.5 16.5q-69 0 -123.5 -30.5t-92 -80t-57 -114t-19.5 -131.5q0 -56 15.5 -101.5t45 -77.5t72.5 -50t99 -18zM358 868h281l-15 -73h-281z" />
    <glyph glyph-name="omacron" unicode="&#x14d;" horiz-adv-x="586" 
d="M260 -15q-56 0 -98 18.5t-71 50.5t-43.5 75t-14.5 93q0 65 22 124.5t61.5 104.5t93.5 72t119 27q56 0 99 -18.5t71.5 -50.5t43 -75t14.5 -93q0 -66 -22 -125.5t-61.5 -104.5t-94 -71.5t-119.5 -26.5zM265 59q47 0 84 22t62.5 58.5t39 82.5t13.5 94q0 34 -8.5 63.5
t-25.5 51.5t-44 34t-63 12q-46 0 -83 -22.5t-62.5 -59t-39 -83t-13.5 -94.5q0 -69 34 -114t106 -45zM235 733h270l-14 -73h-270z" />
    <glyph glyph-name="Obreve" unicode="&#x14e;" horiz-adv-x="813" 
d="M395 -16q-77 0 -138.5 24t-104.5 68t-65.5 105.5t-22.5 136.5q0 87 28.5 166.5t81.5 141t127.5 98t166.5 36.5q78 0 138.5 -25t102.5 -69.5t64 -105t22 -130.5q0 -89 -27.5 -169.5t-79 -142t-126 -98t-167.5 -36.5zM401 70q69 0 123 30t91 79.5t56.5 114t19.5 134.5
q0 58 -16.5 103.5t-46.5 77t-72.5 48t-94.5 16.5q-69 0 -123.5 -30.5t-92 -80t-57 -114t-19.5 -131.5q0 -56 15.5 -101.5t45 -77.5t72.5 -50t99 -18zM491 780q-29 0 -52.5 9t-40 25.5t-25 40.5t-6.5 53h63q2 -28 16 -44.5t46 -16.5q31 0 50.5 16.5t27.5 44.5h66
q-12 -57 -50 -92.5t-95 -35.5z" />
    <glyph glyph-name="obreve" unicode="&#x14f;" horiz-adv-x="586" 
d="M260 -15q-56 0 -98 18.5t-71 50.5t-43.5 75t-14.5 93q0 65 22 124.5t61.5 104.5t93.5 72t119 27q56 0 99 -18.5t71.5 -50.5t43 -75t14.5 -93q0 -66 -22 -125.5t-61.5 -104.5t-94 -71.5t-119.5 -26.5zM265 59q47 0 84 22t62.5 58.5t39 82.5t13.5 94q0 34 -8.5 63.5
t-25.5 51.5t-44 34t-63 12q-46 0 -83 -22.5t-62.5 -59t-39 -83t-13.5 -94.5q0 -69 34 -114t106 -45zM355 620q-29 0 -52.5 9t-40 25.5t-25 40.5t-6.5 53h63q2 -28 16 -44.5t46 -16.5q31 0 50.5 16.5t27.5 44.5h66q-12 -57 -50 -92.5t-95 -35.5z" />
    <glyph glyph-name="Ohungarumlaut" unicode="&#x150;" horiz-adv-x="813" 
d="M395 -16q-77 0 -138.5 24t-104.5 68t-65.5 105.5t-22.5 136.5q0 87 28.5 166.5t81.5 141t127.5 98t166.5 36.5q78 0 138.5 -25t102.5 -69.5t64 -105t22 -130.5q0 -89 -27.5 -169.5t-79 -142t-126 -98t-167.5 -36.5zM401 70q69 0 123 30t91 79.5t56.5 114t19.5 134.5
q0 58 -16.5 103.5t-46.5 77t-72.5 48t-94.5 16.5q-69 0 -123.5 -30.5t-92 -80t-57 -114t-19.5 -131.5q0 -56 15.5 -101.5t45 -77.5t72.5 -50t99 -18zM561 910h91l-73 -125h-68zM420 910h91l-73 -125h-68z" />
    <glyph glyph-name="ohungarumlaut" unicode="&#x151;" horiz-adv-x="586" 
d="M260 -15q-56 0 -98 18.5t-71 50.5t-43.5 75t-14.5 93q0 65 22 124.5t61.5 104.5t93.5 72t119 27q56 0 99 -18.5t71.5 -50.5t43 -75t14.5 -93q0 -66 -22 -125.5t-61.5 -104.5t-94 -71.5t-119.5 -26.5zM265 59q47 0 84 22t62.5 58.5t39 82.5t13.5 94q0 34 -8.5 63.5
t-25.5 51.5t-44 34t-63 12q-46 0 -83 -22.5t-62.5 -59t-39 -83t-13.5 -94.5q0 -69 34 -114t106 -45zM430 770h91l-79 -145h-68zM289 770h91l-79 -145h-68z" />
    <glyph glyph-name="OE" unicode="&#x152;" horiz-adv-x="1122" 
d="M351 -16q-70 0 -123.5 25t-90 69t-55.5 103t-19 128q0 93 29.5 175.5t82 143.5t125 96.5t158.5 35.5q72 0 120.5 -28.5t75.5 -80.5l18 93h487l-17 -86h-390l-45 -230h350l-16 -82h-350l-49 -255h401l-17 -91h-497l12 64q-38 -38 -85 -59t-105 -21zM364 67q37 0 71 9.5
t61 27.5t45 43t24 56q0 1 4.5 22.5t10.5 53t13.5 68.5t13.5 69t10 53.5t4 22.5q7 42 -3 76t-33 58t-57 37t-74 13q-64 0 -116.5 -28t-90 -76.5t-58.5 -115.5t-21 -145q0 -50 11.5 -94t35.5 -77.5t61 -53t88 -19.5z" />
    <glyph glyph-name="oe" unicode="&#x153;" horiz-adv-x="982" 
d="M680 -15q-80 0 -128.5 34.5t-70.5 91.5q-37 -57 -94 -91.5t-130 -34.5q-54 0 -96 18.5t-70.5 50.5t-43 75t-14.5 93q0 65 22 124.5t61.5 104.5t93 72t116.5 27q76 0 123.5 -34.5t70.5 -91.5q36 57 92 91.5t130 34.5q52 0 91 -16.5t64.5 -46t38.5 -70t13 -88.5
q0 -39 -8 -82h-397q-1 -8 -1 -15v-15q0 -76 36 -117t106 -41q48 0 87 23.5t58 71.5h91q-15 -42 -39 -73.5t-55.5 -53t-69 -32t-77.5 -10.5zM262 59q46 0 82 22t61.5 58.5t39 82.5t13.5 94q0 34 -8.5 63.5t-25.5 51.5t-43 34t-61 12q-45 0 -81 -22.5t-61.5 -59t-39 -83
t-13.5 -94.5q0 -69 33.5 -114t103.5 -45zM736 480q-36 0 -65.5 -13.5t-52 -36.5t-38.5 -53.5t-25 -64.5h300q6 36 2 67t-19 53.5t-40.5 35t-61.5 12.5z" />
    <glyph glyph-name="Racute" unicode="&#x154;" horiz-adv-x="685" 
d="M172 744h288q48 0 87.5 -13t67.5 -37.5t43.5 -59.5t14.5 -78q-1 -77 -41.5 -131.5t-130.5 -76.5v-3q51 -16 76.5 -49.5t25.5 -92.5q0 -35 -3.5 -72.5t-3.5 -63.5q0 -29 4 -41.5t9 -17.5l-1 -8h-102q-12 12 -12 47q0 31 4.5 70t4.5 79q0 62 -32 89t-101 27h-181l-60 -312
h-102zM205 391h187q91 0 135 42.5t44 112.5q1 54 -29.5 84t-98.5 30h-186zM447 910h114l-106 -125h-79z" />
    <glyph glyph-name="racute" unicode="&#x155;" horiz-adv-x="365" 
d="M121 537h89l-19 -95h3q28 47 68 74t92 27q24 0 34 -4l-11 -89h-4q-7 2 -15 4t-22 2q-60 0 -107 -39t-63 -119l-59 -298h-91zM302 770h114l-111 -145h-79z" />
    <glyph glyph-name="uni0156" unicode="&#x156;" horiz-adv-x="685" 
d="M172 744h288q48 0 87.5 -13t67.5 -37.5t43.5 -59.5t14.5 -78q-1 -77 -41.5 -131.5t-130.5 -76.5v-3q51 -16 76.5 -49.5t25.5 -92.5q0 -35 -3.5 -72.5t-3.5 -63.5q0 -29 4 -41.5t9 -17.5l-1 -8h-102q-12 12 -12 47q0 31 4.5 70t4.5 79q0 62 -32 89t-101 27h-181l-60 -312
h-102zM205 391h187q91 0 135 42.5t44 112.5q1 54 -29.5 84t-98.5 30h-186zM343 -147q-10 -51 -42 -73.5t-85 -24.5l8 43q29 4 45 16.5t21 38.5h-53l19 96h106z" />
    <glyph glyph-name="uni0157" unicode="&#x157;" horiz-adv-x="365" 
d="M121 537h89l-19 -95h3q28 47 68 74t92 27q24 0 34 -4l-11 -89h-4q-7 2 -15 4t-22 2q-60 0 -107 -39t-63 -119l-59 -298h-91zM90 -147q-10 -51 -42 -73.5t-85 -24.5l8 43q29 4 45 16.5t21 38.5h-53l19 96h106z" />
    <glyph glyph-name="Rcaron" unicode="&#x158;" horiz-adv-x="685" 
d="M172 744h288q48 0 87.5 -13t67.5 -37.5t43.5 -59.5t14.5 -78q-1 -77 -41.5 -131.5t-130.5 -76.5v-3q51 -16 76.5 -49.5t25.5 -92.5q0 -35 -3.5 -72.5t-3.5 -63.5q0 -29 4 -41.5t9 -17.5l-1 -8h-102q-12 12 -12 47q0 31 4.5 70t4.5 79q0 62 -32 89t-101 27h-181l-60 -312
h-102zM205 391h187q91 0 135 42.5t44 112.5q1 54 -29.5 84t-98.5 30h-186zM471 785h-101l-76 113h92l41 -62h2l67 62h96z" />
    <glyph glyph-name="rcaron" unicode="&#x159;" horiz-adv-x="365" 
d="M121 537h89l-19 -95h3q28 47 68 74t92 27q24 0 34 -4l-11 -89h-4q-7 2 -15 4t-22 2q-60 0 -107 -39t-63 -119l-59 -298h-91zM148 749h87l40 -76h2l66 76h96l-118 -124h-101z" />
    <glyph glyph-name="Sacute" unicode="&#x15a;" horiz-adv-x="662" 
d="M339 -16q-79 0 -137 20.5t-96.5 56t-58 82t-20.5 98.5h101q5 -84 57 -131t155 -47q78 0 122.5 37t44.5 101q0 28 -10.5 49t-33 37.5t-57.5 32t-84 33.5q-42 16 -78.5 33.5t-63 41t-41.5 55.5t-15 76q0 45 17 81.5t48.5 63t77.5 41t103 14.5q68 0 117.5 -18t82.5 -48
t50 -70t20 -85h-96q-5 62 -49.5 103t-126.5 41q-69 0 -107 -31.5t-38 -86.5q0 -24 9 -42t28 -33t49.5 -28.5t72.5 -29.5q49 -18 91 -37t72.5 -44.5t48 -60.5t17.5 -86q0 -47 -19.5 -87.5t-55 -69.5t-85.5 -45.5t-112 -16.5zM426 910h114l-106 -125h-79z" />
    <glyph glyph-name="sacute" unicode="&#x15b;" horiz-adv-x="523" 
d="M245 -14q-59 0 -102 13t-71.5 36.5t-43 56t-17.5 72.5h93q5 -59 43.5 -82.5t99.5 -23.5q64 0 91.5 27t27.5 64q0 32 -28.5 52.5t-92.5 40.5q-38 12 -68.5 24t-53 29.5t-35 41t-13.5 58.5q-1 33 12.5 61.5t39 49t62.5 32.5t84 12q104 0 155.5 -44t53.5 -113h-92
q-2 87 -117 87q-56 0 -80.5 -20.5t-24.5 -54.5t31.5 -51.5t94.5 -37.5q33 -11 63 -23.5t52.5 -31.5t36 -45t14.5 -62q0 -38 -15 -69t-43.5 -53t-68 -34t-88.5 -12zM330 770h114l-111 -145h-79z" />
    <glyph glyph-name="Scircumflex" unicode="&#x15c;" horiz-adv-x="662" 
d="M339 -16q-79 0 -137 20.5t-96.5 56t-58 82t-20.5 98.5h101q5 -84 57 -131t155 -47q78 0 122.5 37t44.5 101q0 28 -10.5 49t-33 37.5t-57.5 32t-84 33.5q-42 16 -78.5 33.5t-63 41t-41.5 55.5t-15 76q0 45 17 81.5t48.5 63t77.5 41t103 14.5q68 0 117.5 -18t82.5 -48
t50 -70t20 -85h-96q-5 62 -49.5 103t-126.5 41q-69 0 -107 -31.5t-38 -86.5q0 -24 9 -42t28 -33t49.5 -28.5t72.5 -29.5q49 -18 91 -37t72.5 -44.5t48 -60.5t17.5 -86q0 -47 -19.5 -87.5t-55 -69.5t-85.5 -45.5t-112 -16.5zM367 898h101l76 -113h-92l-41 62h-2l-67 -62h-96z
" />
    <glyph glyph-name="scircumflex" unicode="&#x15d;" horiz-adv-x="523" 
d="M245 -14q-59 0 -102 13t-71.5 36.5t-43 56t-17.5 72.5h93q5 -59 43.5 -82.5t99.5 -23.5q64 0 91.5 27t27.5 64q0 32 -28.5 52.5t-92.5 40.5q-38 12 -68.5 24t-53 29.5t-35 41t-13.5 58.5q-1 33 12.5 61.5t39 49t62.5 32.5t84 12q104 0 155.5 -44t53.5 -113h-92
q-2 87 -117 87q-56 0 -80.5 -20.5t-24.5 -54.5t31.5 -51.5t94.5 -37.5q33 -11 63 -23.5t52.5 -31.5t36 -45t14.5 -62q0 -38 -15 -69t-43.5 -53t-68 -34t-88.5 -12zM268 752h102l71 -123h-87l-40 76h-2l-66 -76h-95z" />
    <glyph glyph-name="Scedilla" unicode="&#x15e;" horiz-adv-x="662" 
d="M232 -208q-38 0 -63 9.5t-41 22.5l20 28q15 -8 31.5 -12t41.5 -4q29 0 47.5 9.5t18.5 30.5q0 15 -11.5 22.5t-27.5 7.5q-14 0 -24.5 -2t-20.5 -5l-11 25l69 66q-59 10 -102.5 33.5t-72.5 56.5t-43.5 74.5t-15.5 86.5h101q5 -84 57 -131t155 -47q78 0 122.5 37t44.5 101
q0 28 -10.5 49t-33 37.5t-57.5 32t-84 33.5q-42 16 -78.5 33.5t-63 41t-41.5 55.5t-15 76q0 45 17 81.5t48.5 63t77.5 41t103 14.5q68 0 117.5 -18t82.5 -48t50 -70t20 -85h-96q-5 62 -49.5 103t-126.5 41q-69 0 -107 -31.5t-38 -86.5q0 -24 9 -42t28 -33t49.5 -28.5
t72.5 -29.5q49 -18 91 -37t72.5 -44.5t48 -60.5t17.5 -86q0 -47 -19.5 -87.5t-55 -69.5t-85.5 -45.5t-112 -16.5q-8 0 -14.5 0.5t-13.5 0.5l-53 -43l1 -2q15 2 32.5 0.5t31.5 -8.5t23.5 -20t9.5 -34q0 -24 -10 -40t-27 -26.5t-39.5 -15t-47.5 -4.5z" />
    <glyph glyph-name="scedilla" unicode="&#x15f;" horiz-adv-x="523" 
d="M166 -208q-38 0 -63 9.5t-41 22.5l20 28q15 -8 31.5 -12t41.5 -4q29 0 47.5 9.5t18.5 30.5q0 15 -11.5 22.5t-27.5 7.5q-14 0 -24.5 -2t-20.5 -5l-11 25l67 65q-91 11 -134 57.5t-48 117.5h93q5 -59 43.5 -82.5t99.5 -23.5q64 0 91.5 27t27.5 64q0 32 -28.5 52.5
t-92.5 40.5q-38 12 -68.5 24t-53 29.5t-35 41t-13.5 58.5q-1 33 12.5 61.5t39 49t62.5 32.5t84 12q104 0 155.5 -44t53.5 -113h-92q-2 87 -117 87q-56 0 -80.5 -20.5t-24.5 -54.5t31.5 -51.5t94.5 -37.5q33 -11 63 -23.5t52.5 -31.5t36 -45t14.5 -62q0 -38 -15 -69
t-43 -52.5t-68 -34t-88 -12.5l-54 -44l1 -2q15 2 32.5 0.5t31.5 -8.5t23.5 -20t9.5 -34q0 -24 -10 -40t-27 -26.5t-39.5 -15t-47.5 -4.5z" />
    <glyph glyph-name="Scaron" unicode="&#x160;" horiz-adv-x="662" 
d="M339 -16q-79 0 -137 20.5t-96.5 56t-58 82t-20.5 98.5h101q5 -84 57 -131t155 -47q78 0 122.5 37t44.5 101q0 28 -10.5 49t-33 37.5t-57.5 32t-84 33.5q-42 16 -78.5 33.5t-63 41t-41.5 55.5t-15 76q0 45 17 81.5t48.5 63t77.5 41t103 14.5q68 0 117.5 -18t82.5 -48
t50 -70t20 -85h-96q-5 62 -49.5 103t-126.5 41q-69 0 -107 -31.5t-38 -86.5q0 -24 9 -42t28 -33t49.5 -28.5t72.5 -29.5q49 -18 91 -37t72.5 -44.5t48 -60.5t17.5 -86q0 -47 -19.5 -87.5t-55 -69.5t-85.5 -45.5t-112 -16.5zM449 785h-101l-76 113h92l41 -62h2l67 62h96z" />
    <glyph glyph-name="scaron" unicode="&#x161;" horiz-adv-x="523" 
d="M245 -14q-59 0 -102 13t-71.5 36.5t-43 56t-17.5 72.5h93q5 -59 43.5 -82.5t99.5 -23.5q64 0 91.5 27t27.5 64q0 32 -28.5 52.5t-92.5 40.5q-38 12 -68.5 24t-53 29.5t-35 41t-13.5 58.5q-1 33 12.5 61.5t39 49t62.5 32.5t84 12q104 0 155.5 -44t53.5 -113h-92
q-2 87 -117 87q-56 0 -80.5 -20.5t-24.5 -54.5t31.5 -51.5t94.5 -37.5q33 -11 63 -23.5t52.5 -31.5t36 -45t14.5 -62q0 -38 -15 -69t-43.5 -53t-68 -34t-88.5 -12zM179 749h87l40 -76h2l66 76h96l-118 -124h-101z" />
    <glyph glyph-name="uni0162" unicode="&#x162;" horiz-adv-x="647" 
d="M128 744h580l-16 -86h-241l-128 -658h-100l128 658h-240zM297 -147q-10 -51 -42 -73.5t-85 -24.5l8 43q29 4 45 16.5t21 38.5h-53l19 96h106z" />
    <glyph glyph-name="uni0163" unicode="&#x163;" horiz-adv-x="352" 
d="M87 537h83l33 170h90l-33 -170h100l-15 -71h-99l-66 -336q-6 -32 6.5 -45t38.5 -13q12 0 24 1.5t19 3.5h3l-14 -75q-14 -2 -29 -3.5t-35 -1.5q-55 0 -86 31t-19 91l68 347h-83zM177 -147q-10 -51 -42 -73.5t-85 -24.5l8 43q29 4 45 16.5t21 38.5h-53l19 96h106z" />
    <glyph glyph-name="Tcaron" unicode="&#x164;" horiz-adv-x="647" 
d="M128 744h580l-16 -86h-241l-128 -658h-100l128 658h-240zM477 785h-101l-76 113h92l41 -62h2l67 62h96z" />
    <glyph glyph-name="tcaron" unicode="&#x165;" horiz-adv-x="352" 
d="M87 537h83l33 170h90l-33 -170h100l-15 -71h-99l-66 -336q-6 -32 6.5 -45t38.5 -13q12 0 24 1.5t19 3.5h3l-14 -75q-14 -2 -29 -3.5t-35 -1.5q-55 0 -86 31t-19 91l68 347h-83zM449 666q-10 -52 -42 -74.5t-77 -24.5l8 44q26 4 39 14.5t18 36.5h-45l16 82h98z" />
    <glyph glyph-name="Tbar" unicode="&#x166;" horiz-adv-x="647" 
d="M128 744h580l-16 -86h-241l-44 -226h166l-16 -78h-165l-69 -354h-100l69 354h-164l16 78h163l44 226h-240z" />
    <glyph glyph-name="tbar" unicode="&#x167;" horiz-adv-x="352" 
d="M87 537h83l33 170h90l-33 -170h100l-15 -71h-99l-21 -104h107l-13 -68h-107l-32 -164q-6 -32 6.5 -45t38.5 -13q12 0 24 1.5t19 3.5h3l-14 -75q-14 -2 -29 -3.5t-35 -1.5q-55 0 -86 31t-19 91l34 175h-81l13 68h81l21 104h-83z" />
    <glyph glyph-name="Utilde" unicode="&#x168;" horiz-adv-x="696" 
d="M329 -12q-62 0 -115.5 16.5t-90 50.5t-52 84.5t-2.5 118.5l96 486h99l-94 -486q-18 -92 24.5 -138.5t135.5 -46.5q86 0 135 40t66 131l98 500h100l-101 -516q-25 -128 -102 -184t-197 -56zM522 786q-20 0 -37 6.5t-31.5 14t-27.5 14t-23 6.5q-12 0 -21 -10t-11 -30h-64
q5 54 31 80.5t63 26.5q21 0 37 -6.5t29.5 -14t26.5 -14t27 -6.5q28 0 31 39h65q-5 -52 -29.5 -79t-65.5 -27z" />
    <glyph glyph-name="utilde" unicode="&#x169;" horiz-adv-x="556" 
d="M196 -13q-42 0 -73.5 13.5t-51 38t-26 59.5t1.5 78l71 362h90l-71 -361q-4 -23 -3 -43.5t11 -36t29.5 -25t51.5 -9.5t59 10.5t48 29t35 44t20 54.5l66 337h92l-106 -538h-88l14 77h-2q-30 -42 -72 -66t-96 -24zM420 631q-20 0 -37 6.5t-31.5 14t-27.5 14t-23 6.5
q-12 0 -21 -10t-11 -30h-64q5 54 31 80.5t63 26.5q21 0 37 -6.5t29.5 -14t26.5 -14t27 -6.5q28 0 31 39h65q-5 -52 -29.5 -79t-65.5 -27z" />
    <glyph glyph-name="Umacron" unicode="&#x16a;" horiz-adv-x="696" 
d="M329 -12q-62 0 -115.5 16.5t-90 50.5t-52 84.5t-2.5 118.5l96 486h99l-94 -486q-18 -92 24.5 -138.5t135.5 -46.5q86 0 135 40t66 131l98 500h100l-101 -516q-25 -128 -102 -184t-197 -56zM327 868h281l-15 -73h-281z" />
    <glyph glyph-name="umacron" unicode="&#x16b;" horiz-adv-x="556" 
d="M196 -13q-42 0 -73.5 13.5t-51 38t-26 59.5t1.5 78l71 362h90l-71 -361q-4 -23 -3 -43.5t11 -36t29.5 -25t51.5 -9.5t59 10.5t48 29t35 44t20 54.5l66 337h92l-106 -538h-88l14 77h-2q-30 -42 -72 -66t-96 -24zM234 733h270l-14 -73h-270z" />
    <glyph glyph-name="Ubreve" unicode="&#x16c;" horiz-adv-x="696" 
d="M329 -12q-62 0 -115.5 16.5t-90 50.5t-52 84.5t-2.5 118.5l96 486h99l-94 -486q-18 -92 24.5 -138.5t135.5 -46.5q86 0 135 40t66 131l98 500h100l-101 -516q-25 -128 -102 -184t-197 -56zM460 780q-29 0 -52.5 9t-40 25.5t-25 40.5t-6.5 53h63q2 -28 16 -44.5t46 -16.5
q31 0 50.5 16.5t27.5 44.5h66q-12 -57 -50 -92.5t-95 -35.5z" />
    <glyph glyph-name="ubreve" unicode="&#x16d;" horiz-adv-x="556" 
d="M196 -13q-42 0 -73.5 13.5t-51 38t-26 59.5t1.5 78l71 362h90l-71 -361q-4 -23 -3 -43.5t11 -36t29.5 -25t51.5 -9.5t59 10.5t48 29t35 44t20 54.5l66 337h92l-106 -538h-88l14 77h-2q-30 -42 -72 -66t-96 -24zM354 620q-29 0 -52.5 9t-40 25.5t-25 40.5t-6.5 53h63
q2 -28 16 -44.5t46 -16.5q31 0 50.5 16.5t27.5 44.5h66q-12 -57 -50 -92.5t-95 -35.5z" />
    <glyph glyph-name="Uring" unicode="&#x16e;" horiz-adv-x="696" 
d="M329 -12q-62 0 -115.5 16.5t-90 50.5t-52 84.5t-2.5 118.5l96 486h99l-94 -486q-18 -92 24.5 -138.5t135.5 -46.5q86 0 135 40t66 131l98 500h100l-101 -516q-25 -128 -102 -184t-197 -56zM448 738q-21 0 -39.5 7.5t-32.5 21t-22 32t-8 39.5t8 39t22 31.5t32.5 21
t39.5 7.5t40 -7.5t33 -21t22 -31.5t8 -39t-8 -39.5t-22 -32t-33 -21t-40 -7.5zM448 779q25 0 40.5 16.5t15.5 42.5q0 25 -15.5 41.5t-40.5 16.5q-24 0 -39.5 -16.5t-15.5 -41.5q0 -26 15.5 -42.5t39.5 -16.5z" />
    <glyph glyph-name="uring" unicode="&#x16f;" horiz-adv-x="556" 
d="M196 -13q-42 0 -73.5 13.5t-51 38t-26 59.5t1.5 78l71 362h90l-71 -361q-4 -23 -3 -43.5t11 -36t29.5 -25t51.5 -9.5t59 10.5t48 29t35 44t20 54.5l66 337h92l-106 -538h-88l14 77h-2q-30 -42 -72 -66t-96 -24zM342 600q-21 0 -39.5 7.5t-32.5 21t-22 32t-8 39.5t8 39
t22 31.5t32.5 21t39.5 7.5t40 -7.5t33 -21t22 -31.5t8 -39t-8 -39.5t-22 -32t-33 -21t-40 -7.5zM342 641q25 0 40.5 16.5t15.5 42.5q0 25 -15.5 41.5t-40.5 16.5q-24 0 -39.5 -16.5t-15.5 -41.5q0 -26 15.5 -42.5t39.5 -16.5z" />
    <glyph glyph-name="Uhungarumlaut" unicode="&#x170;" horiz-adv-x="696" 
d="M329 -12q-62 0 -115.5 16.5t-90 50.5t-52 84.5t-2.5 118.5l96 486h99l-94 -486q-18 -92 24.5 -138.5t135.5 -46.5q86 0 135 40t66 131l98 500h100l-101 -516q-25 -128 -102 -184t-197 -56zM530 910h91l-73 -125h-68zM389 910h91l-73 -125h-68z" />
    <glyph glyph-name="uhungarumlaut" unicode="&#x171;" horiz-adv-x="556" 
d="M196 -13q-42 0 -73.5 13.5t-51 38t-26 59.5t1.5 78l71 362h90l-71 -361q-4 -23 -3 -43.5t11 -36t29.5 -25t51.5 -9.5t59 10.5t48 29t35 44t20 54.5l66 337h92l-106 -538h-88l14 77h-2q-30 -42 -72 -66t-96 -24zM288 770h91l-79 -145h-68zM429 770h91l-79 -145h-68z" />
    <glyph glyph-name="Uogonek" unicode="&#x172;" horiz-adv-x="696" 
d="M348 -191q-57 0 -81 23.5t-24 57.5q0 35 18.5 58.5t43.5 40.5q-58 3 -107 21t-82 52t-46.5 82.5t-0.5 113.5l96 486h99l-94 -486q-18 -92 24.5 -138.5t135.5 -46.5q86 0 135 40t66 131l98 500h100l-101 -516q-20 -99 -68 -151t-116 -74q-50 -17 -83.5 -40t-33.5 -57
q0 -32 41 -32q21 0 40 7h3l-13 -64q-10 -4 -21.5 -6t-28.5 -2z" />
    <glyph glyph-name="uogonek" unicode="&#x173;" horiz-adv-x="556" 
d="M383 -191q-57 0 -81 23.5t-24 57.5q0 21 7 37.5t18.5 30t26 24t29.5 18.5h-7l14 77h-2q-30 -42 -72 -66t-96 -24q-42 0 -73.5 13.5t-51 38t-26 59.5t1.5 78l71 362h90l-71 -361q-4 -23 -3 -43.5t11 -36t29.5 -25t51.5 -9.5t59 10.5t48 29t35 44t20 54.5l66 337h92
l-106 -538q-11 -6 -24.5 -15.5t-25.5 -22t-20 -27t-8 -29.5q0 -32 41 -32q21 0 40 7h3l-13 -64q-10 -4 -21.5 -6t-28.5 -2z" />
    <glyph glyph-name="Wcircumflex" unicode="&#x174;" horiz-adv-x="951" 
d="M116 744h99l20 -436q1 -28 1.5 -62t-0.5 -65q-1 -36 -2 -73h2q12 36 25 72q11 31 24.5 65t26.5 62l202 437h106l27 -437q2 -28 3 -62t1 -65v-72h2q12 37 24 73q11 31 24 65t25 62l195 436h103l-347 -744h-97l-27 482q-2 24 -2.5 55t0.5 59q0 33 2 66h-2q-12 -32 -24 -65
q-11 -28 -23 -59t-23 -56l-223 -482h-97zM542 898h101l76 -113h-92l-41 62h-2l-67 -62h-96z" />
    <glyph glyph-name="wcircumflex" unicode="&#x175;" horiz-adv-x="771" 
d="M67 537h93l24 -298q2 -23 3 -50t2 -51l2 -56h2q9 26 20 53q9 23 20 50t22 52l139 300h88l17 -299q2 -22 2.5 -49t2.5 -51q1 -28 3 -57h2q9 26 19 53q8 23 19 50.5t24 53.5l145 299h97l-275 -537h-93l-20 296q-2 20 -2.5 45.5t-0.5 48.5v55h-2q-12 -28 -23 -55
q-10 -23 -21 -48.5t-19 -44.5l-137 -297h-91zM419 752h102l71 -123h-87l-40 76h-2l-66 -76h-95z" />
    <glyph glyph-name="Ycircumflex" unicode="&#x176;" horiz-adv-x="669" 
d="M293 312l-177 432h105l88 -224q8 -20 15.5 -44.5t14.5 -45.5q8 -25 15 -50h2q16 25 33 50q14 21 31 45.5t33 44.5l177 224h115l-351 -433l-61 -311h-101zM402 898h101l76 -113h-92l-41 62h-2l-67 -62h-96z" />
    <glyph glyph-name="ycircumflex" unicode="&#x177;" horiz-adv-x="514" 
d="M44 -187q-23 0 -43 3.5t-34 10.5l16 75h4q8 -5 21.5 -8t32.5 -3q26 0 47 14.5t42 52.5q0 1 5.5 11t11.5 22t11 23t5 13l-100 510h94l52 -293q4 -23 7.5 -49t5.5 -49q3 -26 5 -52h3q10 23 21 48q9 21 21 46t25 48l165 301h100l-339 -587q-24 -42 -46 -69t-43 -42
t-43 -20.5t-47 -5.5zM296 752h102l71 -123h-87l-40 76h-2l-66 -76h-95z" />
    <glyph glyph-name="Ydieresis" unicode="&#x178;" horiz-adv-x="669" 
d="M293 312l-177 432h105l88 -224q8 -20 15.5 -44.5t14.5 -45.5q8 -25 15 -50h2q16 25 33 50q14 21 31 45.5t33 44.5l177 224h115l-351 -433l-61 -311h-101zM505 892h91l-21 -107h-91zM310 892h90l-21 -107h-90z" />
    <glyph glyph-name="Zacute" unicode="&#x179;" horiz-adv-x="659" 
d="M10 93l443 467q15 17 33.5 34.5t35.5 32.5q19 18 38 35v3q-24 -2 -47 -3q-20 -1 -42.5 -1.5t-41.5 -0.5h-283l16 84h529l-15 -77l-440 -467q-17 -18 -37.5 -37.5t-38.5 -36.5q-21 -19 -43 -38v-3q24 1 49 2q21 1 45 1.5t44 0.5h325l-18 -89h-571zM450 910h114l-106 -125
h-79z" />
    <glyph glyph-name="zacute" unicode="&#x17a;" horiz-adv-x="506" 
d="M7 68l297 318q11 11 24 24.5t25 24.5l28 26v3q-19 -1 -37 -2q-16 -1 -33 -1h-30h-179l15 76h395l-9 -55l-305 -324l-25 -25t-27 -26q-15 -14 -30 -29l-1 -4q21 1 40 2q17 1 35.5 2t32.5 1h210l-15 -79h-424zM350 770h114l-111 -145h-79z" />
    <glyph glyph-name="Zdotaccent" unicode="&#x17b;" horiz-adv-x="659" 
d="M10 93l443 467q15 17 33.5 34.5t35.5 32.5q19 18 38 35v3q-24 -2 -47 -3q-20 -1 -42.5 -1.5t-41.5 -0.5h-283l16 84h529l-15 -77l-440 -467q-17 -18 -37.5 -37.5t-38.5 -36.5q-21 -19 -43 -38v-3q24 1 49 2q21 1 45 1.5t44 0.5h325l-18 -89h-571zM395 893h95l-21 -108
h-95z" />
    <glyph glyph-name="zdotaccent" unicode="&#x17c;" horiz-adv-x="506" 
d="M7 68l297 318q11 11 24 24.5t25 24.5l28 26v3q-19 -1 -37 -2q-16 -1 -33 -1h-30h-179l15 76h395l-9 -55l-305 -324l-25 -25t-27 -26q-15 -14 -30 -29l-1 -4q21 1 40 2q17 1 35.5 2t32.5 1h210l-15 -79h-424zM295 744h95l-21 -108h-95z" />
    <glyph glyph-name="Zcaron" unicode="&#x17d;" horiz-adv-x="659" 
d="M10 93l443 467q15 17 33.5 34.5t35.5 32.5q19 18 38 35v3q-24 -2 -47 -3q-20 -1 -42.5 -1.5t-41.5 -0.5h-283l16 84h529l-15 -77l-440 -467q-17 -18 -37.5 -37.5t-38.5 -36.5q-21 -19 -43 -38v-3q24 1 49 2q21 1 45 1.5t44 0.5h325l-18 -89h-571zM474 785h-101l-76 113
h92l41 -62h2l67 62h96z" />
    <glyph glyph-name="zcaron" unicode="&#x17e;" horiz-adv-x="506" 
d="M7 68l297 318q11 11 24 24.5t25 24.5l28 26v3q-19 -1 -37 -2q-16 -1 -33 -1h-30h-179l15 76h395l-9 -55l-305 -324l-25 -25t-27 -26q-15 -14 -30 -29l-1 -4q21 1 40 2q17 1 35.5 2t32.5 1h210l-15 -79h-424zM199 749h87l40 -76h2l66 76h96l-118 -124h-101z" />
    <glyph glyph-name="florin" unicode="&#x192;" horiz-adv-x="391" 
d="M67 423h99l40 178q18 76 63 105q28 17 67 21.5t90 -2.5l-11 -75q-30 3 -50.5 1.5t-34 -8.5t-21.5 -21t-13 -35l-37 -164h121l-13 -68h-123l-88 -390q-8 -39 -23.5 -64.5t-38.5 -39.5q-25 -16 -58.5 -19t-72.5 3l12 72q37 -4 59.5 6.5t31.5 51.5l85 380h-97z" />
    <glyph glyph-name="AEacute" unicode="&#x1fc;" horiz-adv-x="996" 
d="M391 744h641l-17 -86h-377l-45 -230h336l-16 -82h-336l-49 -254h388l-18 -92h-489l42 219h-253l-121 -219h-105zM241 298h225l70 360h-95zM735 910h114l-106 -125h-79z" />
    <glyph glyph-name="aeacute" unicode="&#x1fd;" horiz-adv-x="901" 
d="M186 -11q-81 0 -127 37.5t-46 101.5q0 46 15.5 76.5t44.5 50.5t69.5 31t91.5 17q44 5 77 10t55 15t33 27.5t10 46.5q-1 37 -28 58.5t-81 21.5q-60 0 -95.5 -27.5t-46.5 -78.5h-87q6 37 23.5 68.5t47 55t69.5 37t91 13.5q63 0 107 -22t62 -67q35 42 82.5 66t109.5 24
q52 0 90.5 -16.5t64 -46t38.5 -70t13 -88.5q0 -20 -2 -41t-6 -42h-395q-1 -8 -1 -15v-15q0 -76 35 -117.5t105 -41.5q49 0 87.5 24t57.5 72h90q-29 -85 -93.5 -127.5t-146.5 -42.5q-76 0 -127 32t-74 86q-43 -64 -97.5 -88.5t-115.5 -24.5zM201 52q37 0 66 11t50 29.5
t33.5 41.5t17.5 47l20 102q-23 -14 -57 -23t-86 -17q-31 -5 -56.5 -12.5t-44 -20t-28.5 -30.5t-10 -45q0 -23 8 -38.5t21 -25.5t30.5 -14.5t35.5 -4.5zM656 481q-36 0 -65 -13.5t-51.5 -37t-38 -54t-24.5 -64.5h297q6 36 2 67t-18.5 53.5t-39.5 35.5t-62 13zM544 770h114
l-111 -145h-79z" />
    <glyph glyph-name="Oslashacute" unicode="&#x1fe;" horiz-adv-x="813" 
d="M7 1l116 111q-29 42 -44 93.5t-15 112.5q0 87 28.5 166.5t81.5 141t127.5 98t166.5 36.5q77 0 136.5 -24.5t101.5 -67.5l107 101l37 -37l-110 -105q55 -83 55 -197q0 -89 -27.5 -169.5t-79 -142t-126 -98t-167.5 -36.5q-75 0 -135 23t-103 65l-115 -110zM169 317
q0 -78 29 -134l438 417q-30 35 -74 54t-101 19q-69 0 -123.5 -30.5t-92 -80t-57 -114t-19.5 -131.5zM401 70q69 0 123 30t91 79.5t56.5 114t19.5 134.5q0 73 -26 127l-437 -416q29 -33 72.5 -51t100.5 -18zM511 910h114l-106 -125h-79z" />
    <glyph glyph-name="oslashacute" unicode="&#x1ff;" horiz-adv-x="586" 
d="M-13 3l81 78q-37 60 -37 141q0 65 22 124.5t61.5 104.5t93.5 72t119 27q54 0 95 -17t70 -46l79 76l31 -32l-83 -79q37 -60 37 -139q0 -66 -22 -125.5t-61.5 -104.5t-94 -71.5t-119.5 -26.5q-53 0 -93.5 16t-69.5 45l-78 -75zM123 218q0 -20 2.5 -38.5t8.5 -35.5l297 284
q-17 23 -44.5 36t-65.5 13q-46 0 -83 -22.5t-62.5 -59t-39 -83t-13.5 -94.5zM264 59q47 0 84 22t62.5 58.5t39 82.5t13.5 94q0 20 -2.5 37.5t-8.5 33.5l-295 -283q36 -45 107 -45zM381 770h114l-111 -145h-79z" />
    <glyph glyph-name="uni0218" unicode="&#x218;" horiz-adv-x="662" 
d="M339 -16q-79 0 -137 20.5t-96.5 56t-58 82t-20.5 98.5h101q5 -84 57 -131t155 -47q78 0 122.5 37t44.5 101q0 28 -10.5 49t-33 37.5t-57.5 32t-84 33.5q-42 16 -78.5 33.5t-63 41t-41.5 55.5t-15 76q0 45 17 81.5t48.5 63t77.5 41t103 14.5q68 0 117.5 -18t82.5 -48
t50 -70t20 -85h-96q-5 62 -49.5 103t-126.5 41q-69 0 -107 -31.5t-38 -86.5q0 -24 9 -42t28 -33t49.5 -28.5t72.5 -29.5q49 -18 91 -37t72.5 -44.5t48 -60.5t17.5 -86q0 -47 -19.5 -87.5t-55 -69.5t-85.5 -45.5t-112 -16.5zM334 -147q-10 -51 -42 -73.5t-85 -24.5l8 43
q29 4 45 16.5t21 38.5h-53l19 96h106z" />
    <glyph glyph-name="uni0219" unicode="&#x219;" horiz-adv-x="523" 
d="M245 -14q-59 0 -102 13t-71.5 36.5t-43 56t-17.5 72.5h93q5 -59 43.5 -82.5t99.5 -23.5q64 0 91.5 27t27.5 64q0 32 -28.5 52.5t-92.5 40.5q-38 12 -68.5 24t-53 29.5t-35 41t-13.5 58.5q-1 33 12.5 61.5t39 49t62.5 32.5t84 12q104 0 155.5 -44t53.5 -113h-92
q-2 87 -117 87q-56 0 -80.5 -20.5t-24.5 -54.5t31.5 -51.5t94.5 -37.5q33 -11 63 -23.5t52.5 -31.5t36 -45t14.5 -62q0 -38 -15 -69t-43.5 -53t-68 -34t-88.5 -12zM235 -147q-10 -51 -42 -73.5t-85 -24.5l8 43q29 4 45 16.5t21 38.5h-53l19 96h106z" />
    <glyph glyph-name="uni021A" unicode="&#x21a;" horiz-adv-x="647" 
d="M128 744h580l-16 -86h-241l-128 -658h-100l128 658h-240zM297 -147q-10 -51 -42 -73.5t-85 -24.5l8 43q29 4 45 16.5t21 38.5h-53l19 96h106z" />
    <glyph glyph-name="uni021B" unicode="&#x21b;" horiz-adv-x="352" 
d="M87 537h83l33 170h90l-33 -170h100l-15 -71h-99l-66 -336q-6 -32 6.5 -45t38.5 -13q12 0 24 1.5t19 3.5h3l-14 -75q-14 -2 -29 -3.5t-35 -1.5q-55 0 -86 31t-19 91l68 347h-83zM177 -147q-10 -51 -42 -73.5t-85 -24.5l8 43q29 4 45 16.5t21 38.5h-53l19 96h106z" />
    <glyph glyph-name="uni0237" unicode="&#x237;" horiz-adv-x="224" 
d="M-48 -170q-14 0 -26.5 1.5t-23.5 3.5l15 74h2q8 -2 13 -2.5t12 -0.5q29 0 44 12t20 40l113 579h91l-114 -584q-8 -39 -21.5 -63t-32.5 -37.5t-42 -18t-50 -4.5z" />
    <glyph glyph-name="circumflex" unicode="&#x2c6;" horiz-adv-x="532" 
d="M311 752h102l71 -123h-87l-40 76h-2l-66 -76h-95z" />
    <glyph glyph-name="caron" unicode="&#x2c7;" horiz-adv-x="532" 
d="M216 749h87l40 -76h2l66 76h96l-118 -124h-101z" />
    <glyph glyph-name="uni02C9" unicode="&#x2c9;" horiz-adv-x="532" 
d="M223 733h270l-14 -73h-270z" />
    <glyph glyph-name="breve" unicode="&#x2d8;" horiz-adv-x="532" 
d="M371 620q-29 0 -52.5 9t-40 25.5t-25 40.5t-6.5 53h63q2 -28 16 -44.5t46 -16.5q31 0 50.5 16.5t27.5 44.5h66q-12 -57 -50 -92.5t-95 -35.5z" />
    <glyph glyph-name="dotaccent" unicode="&#x2d9;" horiz-adv-x="532" 
d="M313 744h95l-21 -108h-95z" />
    <glyph glyph-name="ring" unicode="&#x2da;" horiz-adv-x="545" 
d="M358 600q-21 0 -39.5 7.5t-32.5 21t-22 32t-8 39.5t8 39t22 31.5t32.5 21t39.5 7.5t40 -7.5t33 -21t22 -31.5t8 -39t-8 -39.5t-22 -32t-33 -21t-40 -7.5zM358 641q25 0 40.5 16.5t15.5 42.5q0 25 -15.5 41.5t-40.5 16.5q-24 0 -39.5 -16.5t-15.5 -41.5q0 -26 15.5 -42.5
t39.5 -16.5z" />
    <glyph glyph-name="ogonek" unicode="&#x2db;" horiz-adv-x="532" 
d="M228 -191q-57 0 -81 23.5t-24 57.5q0 21 7 37.5t18.5 30t26 24t29.5 18.5h75q-9 -7 -21.5 -17t-24 -22t-19 -26t-7.5 -29q0 -32 41 -32q21 0 40 7h3l-13 -64q-10 -4 -21.5 -6t-28.5 -2z" />
    <glyph glyph-name="tilde" unicode="&#x2dc;" horiz-adv-x="532" 
d="M408 631q-20 0 -37 6.5t-31.5 14t-27.5 14t-23 6.5q-12 0 -21 -10t-11 -30h-64q5 54 31 80.5t63 26.5q21 0 37 -6.5t29.5 -14t26.5 -14t27 -6.5q28 0 31 39h65q-5 -52 -29.5 -79t-65.5 -27z" />
    <glyph glyph-name="hungarumlaut" unicode="&#x2dd;" horiz-adv-x="532" 
d="M413 770h91l-79 -145h-68zM272 770h91l-79 -145h-68z" />
    <glyph glyph-name="uni0394" unicode="&#x394;" horiz-adv-x="698" 
d="M-3 90l386 654h119l134 -661l-16 -83h-640zM94 83h441l-83 422q-7 35 -11.5 64.5t-6.5 51.5q-4 26 -5 46h-2q-10 -21 -22 -45q-11 -20 -25 -47.5t-32 -57.5z" />
    <glyph glyph-name="uni03A9" unicode="&#x3a9;" horiz-adv-x="758" 
d="M156 85v2q-46 34 -71 92.5t-25 136.5q0 99 30.5 180.5t82.5 140t122 90.5t148 32q72 0 128.5 -23t95.5 -64t60 -98t21 -125q0 -70 -14.5 -127.5t-40 -103t-59.5 -78.5t-72 -53v-2h122l-16 -85h-296l14 83q63 6 111.5 39t81.5 83.5t50 113.5t17 130q0 49 -13.5 90
t-40 70.5t-65 45.5t-89.5 16q-60 0 -110 -26t-87 -73.5t-57.5 -113.5t-20.5 -145q0 -41 8 -79t25 -68.5t43.5 -52.5t64.5 -31l-16 -82h-284l16 85h136z" />
    <glyph glyph-name="uni03BC" unicode="&#x3bc;" horiz-adv-x="556" 
d="M200 -12q-59 0 -89 30h-3q-1 -10 -3 -23q-2 -11 -4.5 -26.5t-6.5 -35.5l-22 -115h-92l141 720h90l-71 -361q-10 -51 9 -81t72 -33q31 -2 59.5 7.5t51 28.5t38 45t21.5 57l66 337h92l-106 -538h-88l14 77h-2q-29 -41 -72 -65t-95 -24z" />
    <glyph glyph-name="pi" unicode="&#x3c0;" horiz-adv-x="698" 
d="M-3 90l386 654h119l134 -661l-16 -83h-640zM94 83h441l-83 422q-7 35 -11.5 64.5t-6.5 51.5q-4 26 -5 46h-2q-10 -21 -22 -45q-11 -20 -25 -47.5t-32 -57.5z" />
    <glyph glyph-name="Wgrave" unicode="&#x1e80;" horiz-adv-x="951" 
d="M116 744h99l20 -436q1 -28 1.5 -62t-0.5 -65q-1 -36 -2 -73h2q12 36 25 72q11 31 24.5 65t26.5 62l202 437h106l27 -437q2 -28 3 -62t1 -65v-72h2q12 37 24 73q11 31 24 65t25 62l195 436h103l-347 -744h-97l-27 482q-2 24 -2.5 55t0.5 59q0 33 2 66h-2q-12 -32 -24 -65
q-11 -28 -23 -59t-23 -56l-223 -482h-97zM465 910h107l39 -125h-73z" />
    <glyph glyph-name="wgrave" unicode="&#x1e81;" horiz-adv-x="771" 
d="M67 537h93l24 -298q2 -23 3 -50t2 -51l2 -56h2q9 26 20 53q9 23 20 50t22 52l139 300h88l17 -299q2 -22 2.5 -49t2.5 -51q1 -28 3 -57h2q9 26 19 53q8 23 19 50.5t24 53.5l145 299h97l-275 -537h-93l-20 296q-2 20 -2.5 45.5t-0.5 48.5v55h-2q-12 -28 -23 -55
q-10 -23 -21 -48.5t-19 -44.5l-137 -297h-91zM335 770h107l47 -145h-73z" />
    <glyph glyph-name="Wacute" unicode="&#x1e82;" horiz-adv-x="951" 
d="M116 744h99l20 -436q1 -28 1.5 -62t-0.5 -65q-1 -36 -2 -73h2q12 36 25 72q11 31 24.5 65t26.5 62l202 437h106l27 -437q2 -28 3 -62t1 -65v-72h2q12 37 24 73q11 31 24 65t25 62l195 436h103l-347 -744h-97l-27 482q-2 24 -2.5 55t0.5 59q0 33 2 66h-2q-12 -32 -24 -65
q-11 -28 -23 -59t-23 -56l-223 -482h-97zM603 910h114l-106 -125h-79z" />
    <glyph glyph-name="wacute" unicode="&#x1e83;" horiz-adv-x="771" 
d="M67 537h93l24 -298q2 -23 3 -50t2 -51l2 -56h2q9 26 20 53q9 23 20 50t22 52l139 300h88l17 -299q2 -22 2.5 -49t2.5 -51q1 -28 3 -57h2q9 26 19 53q8 23 19 50.5t24 53.5l145 299h97l-275 -537h-93l-20 296q-2 20 -2.5 45.5t-0.5 48.5v55h-2q-12 -28 -23 -55
q-10 -23 -21 -48.5t-19 -44.5l-137 -297h-91zM481 770h114l-111 -145h-79z" />
    <glyph glyph-name="Wdieresis" unicode="&#x1e84;" horiz-adv-x="951" 
d="M116 744h99l20 -436q1 -28 1.5 -62t-0.5 -65q-1 -36 -2 -73h2q12 36 25 72q11 31 24.5 65t26.5 62l202 437h106l27 -437q2 -28 3 -62t1 -65v-72h2q12 37 24 73q11 31 24 65t25 62l195 436h103l-347 -744h-97l-27 482q-2 24 -2.5 55t0.5 59q0 33 2 66h-2q-12 -32 -24 -65
q-11 -28 -23 -59t-23 -56l-223 -482h-97zM648 892h91l-21 -107h-91zM453 892h90l-21 -107h-90z" />
    <glyph glyph-name="wdieresis" unicode="&#x1e85;" horiz-adv-x="771" 
d="M67 537h93l24 -298q2 -23 3 -50t2 -51l2 -56h2q9 26 20 53q9 23 20 50t22 52l139 300h88l17 -299q2 -22 2.5 -49t2.5 -51q1 -28 3 -57h2q9 26 19 53q8 23 19 50.5t24 53.5l145 299h97l-275 -537h-93l-20 296q-2 20 -2.5 45.5t-0.5 48.5v55h-2q-12 -28 -23 -55
q-10 -23 -21 -48.5t-19 -44.5l-137 -297h-91zM525 739h91l-21 -107h-91zM330 739h90l-21 -107h-90z" />
    <glyph glyph-name="Ygrave" unicode="&#x1ef2;" horiz-adv-x="669" 
d="M293 312l-177 432h105l88 -224q8 -20 15.5 -44.5t14.5 -45.5q8 -25 15 -50h2q16 25 33 50q14 21 31 45.5t33 44.5l177 224h115l-351 -433l-61 -311h-101zM318 910h107l39 -125h-73z" />
    <glyph glyph-name="ygrave" unicode="&#x1ef3;" horiz-adv-x="514" 
d="M44 -187q-23 0 -43 3.5t-34 10.5l16 75h4q8 -5 21.5 -8t32.5 -3q26 0 47 14.5t42 52.5q0 1 5.5 11t11.5 22t11 23t5 13l-100 510h94l52 -293q4 -23 7.5 -49t5.5 -49q3 -26 5 -52h3q10 23 21 48q9 21 21 46t25 48l165 301h100l-339 -587q-24 -42 -46 -69t-43 -42
t-43 -20.5t-47 -5.5zM212 770h107l47 -145h-73z" />
    <glyph glyph-name="uni2009" unicode="&#x2009;" horiz-adv-x="110" 
 />
    <glyph glyph-name="endash" unicode="&#x2013;" horiz-adv-x="500" 
d="M57 304h404l-15 -78h-403z" />
    <glyph glyph-name="emdash" unicode="&#x2014;" horiz-adv-x="1000" 
d="M108 304h802l-15 -78h-801z" />
    <glyph glyph-name="quoteleft" unicode="&#x2018;" horiz-adv-x="201" 
d="M121 621q7 35 19 58.5t28.5 37.5t36.5 21t42 9l-10 -46q-23 -6 -38.5 -23t-23.5 -58l-3 -14h46l-21 -107h-100z" />
    <glyph glyph-name="quoteright" unicode="&#x2019;" horiz-adv-x="201" 
d="M105 543q24 5 39 22t23 58l3 15h-45l21 106h99l-23 -121q-7 -35 -19.5 -58.5t-29 -38t-36 -21.5t-41.5 -9z" />
    <glyph glyph-name="quotesinglbase" unicode="&#x201a;" horiz-adv-x="201" 
d="M-19 -95q24 5 39.5 22t23.5 59l2 14h-45l21 106h100l-24 -121q-7 -35 -19.5 -58.5t-29 -38t-36 -21t-41.5 -8.5z" />
    <glyph glyph-name="quotedblleft" unicode="&#x201c;" horiz-adv-x="369" 
d="M121 621q7 35 19 58.5t28.5 37.5t36.5 21t42 9l-10 -46q-23 -6 -38.5 -23t-23.5 -58l-3 -14h46l-21 -107h-100zM289 621q7 35 19.5 58.5t28.5 37.5t36 21t42 9l-9 -46q-24 -6 -39.5 -23t-23.5 -58l-2 -14h45l-21 -107h-100z" />
    <glyph glyph-name="quotedblright" unicode="&#x201d;" horiz-adv-x="369" 
d="M273 543q24 5 39.5 22t23.5 58l2 15h-45l21 106h100l-24 -121q-7 -35 -19.5 -58.5t-28.5 -38t-36 -21.5t-42 -9zM105 543q24 5 39 22t23 58l3 15h-45l21 106h99l-23 -121q-7 -35 -19.5 -58.5t-29 -38t-36 -21.5t-41.5 -9z" />
    <glyph glyph-name="quotedblbase" unicode="&#x201e;" horiz-adv-x="369" 
d="M149 -95q24 5 39.5 22t23.5 59l2 14h-45l21 106h100l-24 -121q-7 -35 -19 -58.5t-28.5 -37.5t-36.5 -21t-42 -9zM-19 -95q24 5 39.5 22t23.5 59l2 14h-45l21 106h100l-24 -121q-7 -35 -19.5 -58.5t-29 -38t-36 -21t-41.5 -8.5z" />
    <glyph glyph-name="dagger" unicode="&#x2020;" horiz-adv-x="584" 
d="M101 549h201l38 195h95l-38 -195h200l-15 -81h-201l-113 -580h-94l112 580h-201z" />
    <glyph glyph-name="daggerdbl" unicode="&#x2021;" horiz-adv-x="584" 
d="M381 468l-59 -305h200l-15 -81h-201l-38 -194h-94l37 194h-201l16 81h201l59 305h-201l16 81h201l38 195h95l-38 -195h200l-15 -81h-201z" />
    <glyph glyph-name="bullet" unicode="&#x2022;" horiz-adv-x="339" 
d="M184 211q-26 0 -49 10t-40 27t-26.5 40t-9.5 49t9.5 49.5t26.5 41t40 27.5t49 10t48.5 -10t39.5 -27.5t27 -41t10 -49.5t-10 -49t-27 -40t-39.5 -27t-48.5 -10z" />
    <glyph glyph-name="ellipsis" unicode="&#x2026;" horiz-adv-x="702" 
d="M25 110h108l-22 -110h-107zM269 110h107l-21 -110h-108zM512 110h108l-21 -110h-108z" />
    <glyph glyph-name="perthousand" unicode="&#x2030;" horiz-adv-x="1264" 
d="M670 712h71l-500 -712h-72zM235 316q-37 0 -65.5 12.5t-48 35t-30 53t-10.5 66.5q0 50 14 95t39 78.5t60.5 53.5t78.5 20q37 0 65 -12.5t47 -35t29 -53t10 -66.5q0 -53 -14 -98t-39.5 -78t-60 -52t-75.5 -19zM236 379q26 0 46.5 16t34.5 42.5t21.5 61t7.5 72.5
q0 45 -19 70.5t-56 25.5q-26 0 -46.5 -15t-34.5 -40.5t-21.5 -59.5t-7.5 -71q0 -45 17.5 -73.5t57.5 -28.5zM641 -16q-74 0 -114 47t-40 120q0 50 14 95t39 78.5t60.5 53t78.5 19.5q37 0 65 -12.5t47 -35t29 -52.5t10 -66q0 -53 -14.5 -98t-39.5 -78t-60 -52t-75 -19z
M642 47q26 0 46.5 16t34.5 42t21.5 60.5t7.5 72.5q0 46 -19.5 71.5t-55.5 25.5q-26 0 -46.5 -15t-34.5 -41t-21.5 -60t-7.5 -71q0 -45 17.5 -73t57.5 -28zM1032 -16q-36 0 -64.5 12.5t-48 34.5t-30 53t-10.5 67q0 50 13.5 95t38.5 78.5t60.5 53t78.5 19.5q37 0 65.5 -12.5
t47.5 -35t28.5 -52.5t9.5 -66q0 -53 -14 -98t-39.5 -78t-60 -52t-75.5 -19zM1034 47q26 0 46.5 16t34.5 42t21.5 60.5t7.5 72.5q0 46 -19.5 71.5t-56.5 25.5q-26 0 -46.5 -15t-34.5 -41t-21.5 -60t-7.5 -71q0 -45 17.5 -73t58.5 -28z" />
    <glyph glyph-name="minute" unicode="&#x2032;" horiz-adv-x="195" 
d="M168 744h83l-83 -248h-83z" />
    <glyph glyph-name="second" unicode="&#x2033;" horiz-adv-x="356" 
d="M329 744h83l-84 -248h-83zM168 744h83l-83 -248h-83z" />
    <glyph glyph-name="guilsinglleft" unicode="&#x2039;" horiz-adv-x="319" 
d="M74 236l20 97l190 147l-21 -105l-130 -97v-2l92 -100l-19 -95z" />
    <glyph glyph-name="guilsinglright" unicode="&#x203a;" horiz-adv-x="319" 
d="M65 186l130 97v2l-92 100l19 95l132 -155l-19 -98l-191 -146z" />
    <glyph glyph-name="fraction" unicode="&#x2044;" horiz-adv-x="189" 
d="M437 744h88l-766 -874h-87z" />
    <glyph glyph-name="uni2070" unicode="&#x2070;" horiz-adv-x="445" 
d="M243 275q-41 0 -72 14t-52 38.5t-31.5 59t-10.5 76.5q0 57 15.5 110t44.5 93t70 64t91 24q78 0 120 -50.5t42 -135.5q0 -58 -14.5 -111t-42.5 -93.5t-68 -64.5t-92 -24zM244 338q34 0 59.5 21t43 54t26 74.5t8.5 82.5q0 56 -20.5 89t-65.5 33q-33 0 -58.5 -21t-43 -54.5
t-27 -75t-9.5 -81.5q0 -57 21 -89.5t66 -32.5z" />
    <glyph glyph-name="uni2074" unicode="&#x2074;" horiz-adv-x="415" 
d="M267 393h-216l14 70l276 286h72l-58 -296h70l-11 -60h-71l-21 -108h-76zM123 450q12 0 24 1q11 1 24 1.5t27 0.5h81l24 121q3 16 6.5 31t6.5 27q4 14 8 27h-2q-8 -11 -18 -22q-8 -10 -18.5 -22t-21.5 -24l-71 -74q-11 -11 -23 -22.5t-23 -20.5q-12 -11 -24 -21v-3z" />
    <glyph glyph-name="uni2075" unicode="&#x2075;" horiz-adv-x="405" 
d="M223 275q-39 0 -69.5 11t-52 30t-33.5 43t-13 51h78q3 -29 24.5 -50t65.5 -21t72.5 30.5t28.5 81.5q0 36 -20 60t-58 24q-29 0 -52.5 -12t-37.5 -31h-73l84 251h260l-11 -66h-204l-40 -118h3q17 17 40.5 26.5t54.5 9.5q26 0 50.5 -9t43 -27t30 -44.5t11.5 -61.5
q0 -41 -13.5 -73.5t-38 -56t-58 -36t-72.5 -12.5z" />
    <glyph glyph-name="uni2076" unicode="&#x2076;" horiz-adv-x="417" 
d="M236 275q-38 0 -66.5 12t-49.5 32q-23 22 -34 55.5t-11 77.5q0 36 6 73t18 70.5t29.5 62t40.5 49.5q26 23 56.5 35t69.5 12q34 0 60 -9.5t43.5 -26t26.5 -37.5t10 -44h-75q-2 23 -17.5 40.5t-50.5 17.5q-49 0 -82.5 -42t-50.5 -114h2q24 26 52.5 39t63.5 13
q29 0 54.5 -10.5t44 -29t29 -44.5t10.5 -56q0 -36 -13.5 -68t-37 -56t-56.5 -38t-72 -14zM236 335q24 0 43 9t32.5 24.5t21 36.5t7.5 44q0 38 -23.5 61t-60.5 23q-48 0 -78 -31t-30 -78q0 -41 24 -65t64 -24z" />
    <glyph glyph-name="uni2077" unicode="&#x2077;" horiz-adv-x="371" 
d="M100 285q12 61 37 119.5t58.5 110t73 93.5t80.5 71v2q-13 -1 -27 -2q-12 -1 -28.5 -1.5t-34.5 -0.5h-151l13 67h319l-11 -60q-39 -31 -78 -73t-72.5 -93t-58.5 -110t-36 -123h-84v0z" />
    <glyph glyph-name="uni2078" unicode="&#x2078;" horiz-adv-x="419" 
d="M238 274q-36 0 -68.5 9t-56.5 26.5t-38.5 42.5t-14.5 58q0 56 33.5 87.5t82.5 43.5v2q-25 13 -39.5 35t-14.5 51q0 27 12 50t33.5 39.5t51.5 26t67 9.5q69 0 111 -31.5t42 -85.5q0 -40 -22.5 -68.5t-66.5 -40.5v-1q32 -14 51 -42t19 -63q0 -36 -14 -63.5t-38 -46
t-57.5 -28.5t-72.5 -10zM278 558q38 0 61.5 20.5t23.5 53.5q0 29 -21 46.5t-58 17.5q-39 0 -63 -19.5t-24 -52.5q0 -30 22.5 -48t58.5 -18zM238 335q51 0 76.5 26t25.5 65q0 35 -25.5 58t-70.5 23q-51 0 -77 -26t-26 -67q0 -36 25.5 -57.5t71.5 -21.5z" />
    <glyph glyph-name="uni2079" unicode="&#x2079;" horiz-adv-x="420" 
d="M214 274q-36 0 -63.5 10t-46 27t-29 39.5t-12.5 47.5h76q3 -24 19.5 -44t56.5 -20q27 0 48 12t37 33t27.5 49t19.5 60h-2q-22 -24 -50 -37.5t-62 -13.5q-31 0 -57 11t-44.5 30.5t-29 45.5t-10.5 56q0 36 13.5 67.5t37.5 55t58 37.5t75 14q37 0 65.5 -11.5t47.5 -29.5
q23 -22 35 -52.5t12 -72.5q0 -40 -7 -81t-21 -78.5t-34.5 -68.5t-47.5 -50q-47 -36 -112 -36zM251 495q48 0 79 31t31 80q0 40 -24.5 64t-63.5 24q-48 0 -77 -31.5t-29 -79.5q0 -40 22.5 -64t61.5 -24z" />
    <glyph glyph-name="uni2080" unicode="&#x2080;" horiz-adv-x="445" 
d="M162 -170q-41 0 -72 14t-52 38.5t-31.5 59t-10.5 76.5q0 57 15.5 110t44.5 93t70 64t91 24q78 0 120 -50.5t42 -135.5q0 -58 -14.5 -111t-42.5 -93.5t-68 -64.5t-92 -24zM163 -107q34 0 59.5 21t43 54t26 74.5t8.5 82.5q0 56 -20.5 89t-65.5 33q-33 0 -58.5 -21
t-43 -54.5t-27 -75t-9.5 -81.5q0 -57 21 -89.5t66 -32.5z" />
    <glyph glyph-name="uni2081" unicode="&#x2081;" horiz-adv-x="278" 
d="M112 166h-106l11 52q49 2 84.5 20t53.5 64h61l-90 -462h-78z" />
    <glyph glyph-name="uni2082" unicode="&#x2082;" horiz-adv-x="399" 
d="M-49 -160q8 48 27.5 80t45.5 55q34 29 74 50.5t77 41.5q43 22 68.5 46t25.5 65q0 29 -18.5 47.5t-51.5 18.5q-39 0 -63 -20q-14 -13 -24 -31.5t-15 -47.5h-78q7 44 21.5 72t38.5 48q22 19 53 31t71 12q71 0 109 -36t38 -90q0 -32 -9.5 -55.5t-26 -42t-39 -33.5t-49.5 -30
q-19 -11 -40.5 -22t-42.5 -23t-40 -25t-32 -29q-7 -8 -8 -14h229l-13 -68h-328v0z" />
    <glyph glyph-name="uni2083" unicode="&#x2083;" horiz-adv-x="417" 
d="M156 -170q-44 0 -78 12t-57 35t-32.5 54t-7.5 63h75q-2 -43 22.5 -73t79.5 -30q42 0 68 22.5t26 64.5q0 32 -21.5 54.5t-61.5 22.5h-31l11 56h25q101 0 101 73q0 29 -18.5 48t-53.5 19q-42 0 -68.5 -25.5t-31.5 -68.5h-76q9 72 56.5 112t122.5 40q31 0 58.5 -8t47 -23.5
t31 -37.5t11.5 -50q0 -43 -26.5 -70.5t-68.5 -38.5v-2q35 -11 54.5 -39.5t19.5 -63.5q0 -36 -14 -63.5t-38 -45.5t-56 -27.5t-69 -9.5z" />
    <glyph glyph-name="uni2084" unicode="&#x2084;" horiz-adv-x="415" 
d="M186 -52h-216l14 70l276 286h72l-58 -296h70l-11 -60h-71l-21 -108h-76zM42 5q12 0 24 1q11 1 24 1.5t27 0.5h81l24 121q3 16 6.5 31t6.5 27q4 14 8 27h-2q-8 -11 -18 -22q-8 -10 -18.5 -22t-21.5 -24l-71 -74q-11 -11 -23 -22.5t-23 -20.5q-12 -11 -24 -21v-3z" />
    <glyph glyph-name="uni2085" unicode="&#x2085;" horiz-adv-x="405" 
d="M142 -170q-39 0 -69.5 11t-52 30t-33.5 43t-13 51h78q3 -29 24.5 -50t65.5 -21t72.5 30.5t28.5 81.5q0 36 -20 60t-58 24q-29 0 -52.5 -12t-37.5 -31h-73l84 251h260l-11 -66h-204l-40 -118h3q17 17 40.5 26.5t54.5 9.5q26 0 50.5 -9t43 -27t30 -44.5t11.5 -61.5
q0 -41 -13.5 -73.5t-38 -56t-58 -36t-72.5 -12.5z" />
    <glyph glyph-name="uni2086" unicode="&#x2086;" horiz-adv-x="417" 
d="M155 -170q-38 0 -66.5 12t-49.5 32q-23 22 -34 55.5t-11 77.5q0 36 6 73t18 70.5t29.5 62t40.5 49.5q26 23 56.5 35t69.5 12q34 0 60 -9.5t43.5 -26t26.5 -37.5t10 -44h-75q-2 23 -17.5 40.5t-50.5 17.5q-49 0 -82.5 -42t-50.5 -114h2q24 26 52.5 39t63.5 13
q29 0 54.5 -10.5t44 -29t29 -44.5t10.5 -56q0 -36 -13.5 -68t-37 -56t-56.5 -38t-72 -14zM155 -110q24 0 43 9t32.5 24.5t21 36.5t7.5 44q0 38 -23.5 61t-60.5 23q-48 0 -78 -31t-30 -78q0 -41 24 -65t64 -24z" />
    <glyph glyph-name="uni2087" unicode="&#x2087;" horiz-adv-x="371" 
d="M19 -160q12 61 37 119.5t58.5 110t73 93.5t80.5 71v2q-13 -1 -27 -2q-12 -1 -28.5 -1.5t-34.5 -0.5h-151l13 67h319l-11 -60q-39 -31 -78 -73t-72.5 -93t-58.5 -110t-36 -123h-84v0z" />
    <glyph glyph-name="uni2088" unicode="&#x2088;" horiz-adv-x="419" 
d="M157 -171q-36 0 -68.5 9t-56.5 26.5t-38.5 42.5t-14.5 58q0 56 33.5 87.5t82.5 43.5v2q-25 13 -39.5 35t-14.5 51q0 27 12 50t33.5 39.5t51.5 26t67 9.5q69 0 111 -31.5t42 -85.5q0 -40 -22.5 -68.5t-66.5 -40.5v-1q32 -14 51 -42t19 -63q0 -36 -14 -63.5t-38 -46
t-57.5 -28.5t-72.5 -10zM197 113q38 0 61.5 20.5t23.5 53.5q0 29 -21 46.5t-58 17.5q-39 0 -63 -19.5t-24 -52.5q0 -30 22.5 -48t58.5 -18zM157 -110q51 0 76.5 26t25.5 65q0 35 -25.5 58t-70.5 23q-51 0 -77 -26t-26 -67q0 -36 25.5 -57.5t71.5 -21.5z" />
    <glyph glyph-name="uni2089" unicode="&#x2089;" horiz-adv-x="420" 
d="M133 -171q-36 0 -63.5 10t-46 27t-29 39.5t-12.5 47.5h76q3 -24 19.5 -44t56.5 -20q27 0 48 12t37 33t27.5 49t19.5 60h-2q-22 -24 -50 -37.5t-62 -13.5q-31 0 -57 11t-44.5 30.5t-29 45.5t-10.5 56q0 36 13.5 67.5t37.5 55t58 37.5t75 14q37 0 65.5 -11.5t47.5 -29.5
q23 -22 35 -52.5t12 -72.5q0 -40 -7 -81t-21 -78.5t-34.5 -68.5t-47.5 -50q-47 -36 -112 -36zM170 50q48 0 79 31t31 80q0 40 -24.5 64t-63.5 24q-48 0 -77 -31.5t-29 -79.5q0 -40 22.5 -64t61.5 -24z" />
    <glyph glyph-name="Euro" unicode="&#x20ac;" horiz-adv-x="649" 
d="M69 452h55q19 63 49.5 114.5t71 87.5t89.5 55.5t104 19.5q51 0 89.5 -16t65 -44t42 -65.5t19.5 -80.5h-93q-9 59 -39.5 94t-92.5 35q-36 0 -67.5 -14.5t-57.5 -41t-46.5 -63.5t-34.5 -81h210l-11 -56h-213q-4 -20 -6.5 -40.5t-3.5 -41.5h207l-11 -56h-197
q2 -96 40.5 -145.5t113.5 -49.5q73 0 113.5 43.5t65.5 119.5h92q-13 -54 -36.5 -98.5t-58 -76t-79.5 -49t-102 -17.5q-53 0 -97 17.5t-77 52t-52 85.5t-21 118h-70l12 56h59q1 21 3.5 41.5t6.5 40.5h-54z" />
    <glyph glyph-name="uni2113" unicode="&#x2113;" horiz-adv-x="391" 
d="M156 626q14 70 54.5 98t93.5 28q63 0 91 -31.5t27 -97.5q-1 -56 -18.5 -112.5t-49.5 -107.5t-77.5 -92t-102.5 -66l-16 -79q-8 -45 2 -67.5t52 -22.5q27 0 45.5 4.5t33.5 10.5h3l-16 -77q-32 -16 -82 -16q-158 0 -130 163l9 51q-15 -7 -34 -14t-33 -11l15 68
q14 5 32.5 11.5t33.5 14.5zM253 382q18 22 34.5 54t28.5 66t19.5 67t7.5 56q0 30 -11 41.5t-31 11.5q-21 0 -35 -13t-21 -48l-57 -299q35 25 65 64z" />
    <glyph glyph-name="trademark" unicode="&#x2122;" horiz-adv-x="858" 
d="M512 744h102l17 -162q2 -19 3 -44.5t3 -48.5q2 -27 3 -56h2q11 27 22 53q10 23 20.5 47.5t20.5 44.5l83 166h106l-75 -382h-67l27 140q5 26 11.5 56t12.5 56l14 62h-3l-26 -56q-11 -25 -25.5 -54t-28.5 -58l-73 -146h-69l-15 146q-3 29 -5.5 59l-4.5 54q-3 28 -4 55h-3
l-10 -62q-5 -26 -9.5 -56t-9.5 -56l-28 -140h-66zM134 744h310l-13 -62h-119l-62 -320h-74l62 320h-117z" />
    <glyph glyph-name="Omega" unicode="&#x2126;" horiz-adv-x="758" 
d="M156 85v2q-46 34 -71 92.5t-25 136.5q0 99 30.5 180.5t82.5 140t122 90.5t148 32q72 0 128.5 -23t95.5 -64t60 -98t21 -125q0 -70 -14.5 -127.5t-40 -103t-59.5 -78.5t-72 -53v-2h122l-16 -85h-296l14 83q63 6 111.5 39t81.5 83.5t50 113.5t17 130q0 49 -13.5 90
t-40 70.5t-65 45.5t-89.5 16q-60 0 -110 -26t-87 -73.5t-57.5 -113.5t-20.5 -145q0 -41 8 -79t25 -68.5t43.5 -52.5t64.5 -31l-16 -82h-284l16 85h136z" />
    <glyph glyph-name="estimated" unicode="&#x212e;" horiz-adv-x="685" 
d="M187 301v-203q29 -29 70.5 -45t101.5 -16q91 0 141 39.5t75 109.5h52q-10 -43 -31.5 -79t-55 -62.5t-79 -41t-102.5 -14.5q-73 0 -130 23.5t-96 66t-59.5 101t-20.5 129.5q0 70 22 128.5t62 100.5t95.5 65.5t121.5 23.5q55 0 99.5 -15.5t79.5 -43.5q56 -47 77.5 -114
t20.5 -153h-444zM354 582q-55 0 -97.5 -17t-69.5 -45v-175h313v188q-23 23 -60.5 36t-85.5 13z" />
    <glyph glyph-name="onethird" unicode="&#x2153;" horiz-adv-x="890" 
d="M187 611h-106l11 52q49 2 84.5 20t53.5 64h61l-90 -462h-78zM735 744h88l-766 -874h-87zM641 -120q-44 0 -78 12t-57 35t-32.5 54t-7.5 63h75q-2 -43 22.5 -73t79.5 -30q42 0 68 22.5t26 64.5q0 32 -21.5 54.5t-61.5 22.5h-31l11 56h25q101 0 101 73q0 29 -18.5 48
t-53.5 19q-42 0 -68.5 -25.5t-31.5 -68.5h-76q9 72 56.5 112t122.5 40q31 0 58.5 -8t47 -23.5t31 -37.5t11.5 -50q0 -43 -26.5 -70.5t-68.5 -38.5v-2q35 -11 54.5 -39.5t19.5 -63.5q0 -36 -14 -63.5t-38 -45.5t-56 -27.5t-69 -9.5z" />
    <glyph glyph-name="twothirds" unicode="&#x2154;" horiz-adv-x="965" 
d="M26 285q8 48 27.5 80t45.5 55q34 29 74 50.5t77 41.5q43 22 68.5 46t25.5 65q0 29 -18.5 47.5t-51.5 18.5q-39 0 -63 -20q-14 -13 -24 -31.5t-15 -47.5h-78q7 44 21.5 72t38.5 48q22 19 53 31t71 12q71 0 109 -36t38 -90q0 -32 -9.5 -55.5t-26 -42t-39 -33.5t-49.5 -30
q-19 -11 -40.5 -22t-42.5 -23t-40 -25t-32 -29q-7 -8 -8 -14h229l-13 -68h-328zM826 744h88l-766 -874h-87zM717 -120q-44 0 -78 12t-57 35t-32.5 54t-7.5 63h75q-2 -43 22.5 -73t79.5 -30q42 0 68 22.5t26 64.5q0 32 -21.5 54.5t-61.5 22.5h-31l11 56h25q101 0 101 73
q0 29 -18.5 48t-53.5 19q-42 0 -68.5 -25.5t-31.5 -68.5h-76q9 72 56.5 112t122.5 40q31 0 58.5 -8t47 -23.5t31 -37.5t11.5 -50q0 -43 -26.5 -70.5t-68.5 -38.5v-2q35 -11 54.5 -39.5t19.5 -63.5q0 -36 -14 -63.5t-38 -45.5t-56 -27.5t-69 -9.5z" />
    <glyph glyph-name="oneeighth" unicode="&#x215b;" horiz-adv-x="899" 
d="M189 611h-106l11 52q49 2 84.5 20t53.5 64h61l-90 -462h-78zM734 744h88l-766 -874h-87zM628 -121q-36 0 -68.5 9t-56.5 26.5t-38.5 42.5t-14.5 58q0 56 33.5 87.5t82.5 43.5v2q-25 13 -39.5 35t-14.5 51q0 27 12 50t33.5 39.5t51.5 26t67 9.5q69 0 111 -31.5t42 -85.5
q0 -40 -22.5 -68.5t-66.5 -40.5v-1q32 -14 51 -42t19 -63q0 -36 -14 -63.5t-38 -46t-57.5 -28.5t-72.5 -10zM668 163q38 0 61.5 20.5t23.5 53.5q0 29 -21 46.5t-58 17.5q-39 0 -63 -19.5t-24 -52.5q0 -30 22.5 -48t58.5 -18zM628 -60q51 0 76.5 26t25.5 65q0 35 -25.5 58
t-70.5 23q-51 0 -77 -26t-26 -67q0 -36 25.5 -57.5t71.5 -21.5z" />
    <glyph glyph-name="threeeighths" unicode="&#x215c;" horiz-adv-x="957" 
d="M231 275q-44 0 -78 12t-57 35t-32.5 54t-7.5 63h75q-2 -43 22.5 -73t79.5 -30q42 0 68 22.5t26 64.5q0 32 -21.5 54.5t-61.5 22.5h-31l11 56h25q101 0 101 73q0 29 -18.5 48t-53.5 19q-42 0 -68.5 -25.5t-31.5 -68.5h-76q9 72 56.5 112t122.5 40q31 0 58.5 -8t47 -23.5
t31 -37.5t11.5 -50q0 -43 -26.5 -70.5t-68.5 -38.5v-2q35 -11 54.5 -39.5t19.5 -63.5q0 -36 -14 -63.5t-38 -45.5t-56 -27.5t-69 -9.5zM810 744h88l-766 -874h-87zM686 -121q-36 0 -68.5 9t-56.5 26.5t-38.5 42.5t-14.5 58q0 56 33.5 87.5t82.5 43.5v2q-25 13 -39.5 35
t-14.5 51q0 27 12 50t33.5 39.5t51.5 26t67 9.5q69 0 111 -31.5t42 -85.5q0 -40 -22.5 -68.5t-66.5 -40.5v-1q32 -14 51 -42t19 -63q0 -36 -14 -63.5t-38 -46t-57.5 -28.5t-72.5 -10zM726 163q38 0 61.5 20.5t23.5 53.5q0 29 -21 46.5t-58 17.5q-39 0 -63 -19.5t-24 -52.5
q0 -30 22.5 -48t58.5 -18zM686 -60q51 0 76.5 26t25.5 65q0 35 -25.5 58t-70.5 23q-51 0 -77 -26t-26 -67q0 -36 25.5 -57.5t71.5 -21.5z" />
    <glyph glyph-name="fiveeighths" unicode="&#x215d;" horiz-adv-x="949" 
d="M217 275q-39 0 -69.5 11t-52 30t-33.5 43t-13 51h78q3 -29 24.5 -50t65.5 -21t72.5 30.5t28.5 81.5q0 36 -20 60t-58 24q-29 0 -52.5 -12t-37.5 -31h-73l84 251h260l-11 -66h-204l-40 -118h3q17 17 40.5 26.5t54.5 9.5q26 0 50.5 -9t43 -27t30 -44.5t11.5 -61.5
q0 -41 -13.5 -73.5t-38 -56t-58 -36t-72.5 -12.5zM799 744h88l-766 -874h-87zM677 -121q-36 0 -68.5 9t-56.5 26.5t-38.5 42.5t-14.5 58q0 56 33.5 87.5t82.5 43.5v2q-25 13 -39.5 35t-14.5 51q0 27 12 50t33.5 39.5t51.5 26t67 9.5q69 0 111 -31.5t42 -85.5
q0 -40 -22.5 -68.5t-66.5 -40.5v-1q32 -14 51 -42t19 -63q0 -36 -14 -63.5t-38 -46t-57.5 -28.5t-72.5 -10zM717 163q38 0 61.5 20.5t23.5 53.5q0 29 -21 46.5t-58 17.5q-39 0 -63 -19.5t-24 -52.5q0 -30 22.5 -48t58.5 -18zM677 -60q51 0 76.5 26t25.5 65q0 35 -25.5 58
t-70.5 23q-51 0 -77 -26t-26 -67q0 -36 25.5 -57.5t71.5 -21.5z" />
    <glyph glyph-name="seveneighths" unicode="&#x215e;" horiz-adv-x="902" 
d="M95 285q12 61 37 119.5t58.5 110t73 93.5t80.5 71v2q-13 -1 -27 -2q-12 -1 -28.5 -1.5t-34.5 -0.5h-151l13 67h319l-11 -60q-39 -31 -78 -73t-72.5 -93t-58.5 -110t-36 -123h-84zM726 744h88l-766 -874h-87zM631 -121q-36 0 -68.5 9t-56.5 26.5t-38.5 42.5t-14.5 58
q0 56 33.5 87.5t82.5 43.5v2q-25 13 -39.5 35t-14.5 51q0 27 12 50t33.5 39.5t51.5 26t67 9.5q69 0 111 -31.5t42 -85.5q0 -40 -22.5 -68.5t-66.5 -40.5v-1q32 -14 51 -42t19 -63q0 -36 -14 -63.5t-38 -46t-57.5 -28.5t-72.5 -10zM671 163q38 0 61.5 20.5t23.5 53.5
q0 29 -21 46.5t-58 17.5q-39 0 -63 -19.5t-24 -52.5q0 -30 22.5 -48t58.5 -18zM631 -60q51 0 76.5 26t25.5 65q0 35 -25.5 58t-70.5 23q-51 0 -77 -26t-26 -67q0 -36 25.5 -57.5t71.5 -21.5z" />
    <glyph glyph-name="partialdiff" unicode="&#x2202;" horiz-adv-x="594" 
d="M444 415q-9 58 -30.5 101.5t-55 74t-80.5 49.5t-108 30v81q102 -13 172.5 -50.5t115 -96t64 -135.5t19.5 -169q0 -58 -15.5 -114.5t-48 -101t-83 -72t-119.5 -27.5q-53 0 -95.5 17t-72 46.5t-45.5 69.5t-16 87q0 57 18.5 107t52.5 87t81 58t103 21q40 0 79 -15.5
t64 -47.5zM277 62q40 0 71 17t52.5 45.5t33 64t11.5 73.5q0 62 -35 101t-104 39q-38 0 -68.5 -14.5t-52 -40t-33.5 -62t-12 -79.5q0 -63 34 -103.5t103 -40.5z" />
    <glyph glyph-name="Delta" unicode="&#x2206;" horiz-adv-x="698" 
d="M-3 90l386 654h119l134 -661l-16 -83h-640zM94 83h441l-83 422q-7 35 -11.5 64.5t-6.5 51.5q-4 26 -5 46h-2q-10 -21 -22 -45q-11 -20 -25 -47.5t-32 -57.5z" />
    <glyph glyph-name="product" unicode="&#x220f;" horiz-adv-x="749" 
d="M667 744v-848h-103v758h-379v-758h-103v848h585z" />
    <glyph glyph-name="summation" unicode="&#x2211;" horiz-adv-x="670" 
d="M52 -104v99l293 333v2l-293 320v94h559v-87h-439v-2l280 -302v-42l-287 -323v-2h456v-90h-569z" />
    <glyph glyph-name="minus" unicode="&#x2212;" horiz-adv-x="594" 
d="M85 375h470l-14 -71h-471z" />
    <glyph glyph-name="uni2215" unicode="&#x2215;" horiz-adv-x="189" 
d="M437 744h88l-766 -874h-87z" />
    <glyph glyph-name="uni2219" unicode="&#x2219;" horiz-adv-x="232" 
d="M86 381h107l-21 -110h-108z" />
    <glyph glyph-name="radical" unicode="&#x221a;" horiz-adv-x="643" 
d="M28 326h153l71 -186q11 -30 21 -61t18 -56q9 -29 16 -56h2q6 27 13 56q6 25 14.5 55.5t17.5 60.5l182 605h97l-266 -848h-116l-135 343h-88v87z" />
    <glyph glyph-name="infinity" unicode="&#x221e;" horiz-adv-x="744" 
d="M194 136q-39 0 -69 15t-49.5 39.5t-29.5 57.5t-10 69t10 68.5t30 57.5t49.5 39.5t68.5 14.5q31 0 57 -9.5t48.5 -26t41 -38.5t34.5 -47q16 25 34 47t39 38.5t46 26t55 9.5q36 0 65.5 -13t50 -36.5t32 -57t11.5 -73.5q0 -41 -11.5 -74t-32 -57t-50 -37t-65.5 -13
q-30 0 -55 9.5t-46 26t-39 39t-34 47.5q-16 -25 -34.5 -47.5t-41 -39t-48.5 -26t-57 -9.5zM199 416q-41 0 -59 -29t-18 -70t18 -70.5t59 -29.5q19 0 36 8.5t32 22.5t28 31.5t24 36.5q-23 40 -52.5 70t-67.5 30zM544 217q41 0 59.5 29.5t18.5 70.5t-18.5 70t-59.5 29
q-36 0 -63.5 -30t-50.5 -70q12 -19 24.5 -36.5t26.5 -31.5t29.5 -22.5t33.5 -8.5z" />
    <glyph glyph-name="integral" unicode="&#x222b;" horiz-adv-x="351" 
d="M122 606q0 39 11 66t31 44.5t47.5 25t59.5 7.5q44 0 76 -9v-78h-3q-8 3 -22.5 6t-35.5 3q-71 0 -71 -73v-642q0 -39 -11.5 -66t-31.5 -44t-47 -24.5t-59 -7.5q-24 0 -42.5 2.5t-33.5 7.5v78h3q8 -3 22.5 -6.5t35.5 -3.5q71 0 71 73v641z" />
    <glyph glyph-name="approxequal" unicode="&#x2248;" horiz-adv-x="591" 
d="M444 359q-31 0 -65.5 6.5t-68 14t-63.5 14t-52 6.5q-43 0 -51 -49h-70q8 60 43 91t84 31q31 0 66 -6.5t68 -14t62 -14t49 -6.5q26 0 39 12.5t17 35.5h71q-8 -55 -40.5 -88t-88.5 -33zM415 177q-31 0 -65.5 6.5t-68 14t-63.5 14t-52 6.5q-43 0 -52 -49h-70q9 60 44 91
t84 31q31 0 66 -6.5t68 -14t62 -14t49 -6.5q26 0 38.5 12.5t16.5 35.5h71q-8 -55 -40 -88t-88 -33z" />
    <glyph glyph-name="notequal" unicode="&#x2260;" horiz-adv-x="594" 
d="M101 455h262l85 123h73l-85 -123h134l-14 -73h-170l-78 -113h226l-14 -72h-261l-85 -124h-73l85 124h-135l14 72h170l78 113h-226z" />
    <glyph glyph-name="lessequal" unicode="&#x2264;" horiz-adv-x="539" 
d="M24 73h417l-14 -73h-417zM65 287l19 97l449 166l-16 -86l-248 -87q-20 -7 -43.5 -14t-43.5 -14q-24 -8 -48 -15v-2q21 -7 42 -15q18 -7 40 -15t42 -16l208 -84l-16 -81z" />
    <glyph glyph-name="greaterequal" unicode="&#x2265;" horiz-adv-x="539" 
d="M431 0h-417l14 73h417zM505 384l-19 -97l-449 -166l16 86l248 87q19 6 43 13.5t44 14.5q24 8 48 15v2q-21 7 -42 15q-18 7 -40 15t-42 16l-208 84l16 81z" />
    <glyph glyph-name="uni24C5" unicode="&#x24c5;" horiz-adv-x="863" 
d="M452 -18q-80 0 -149.5 29t-120.5 81t-80.5 123t-29.5 154q0 84 29.5 155t80.5 122.5t120.5 81t149.5 29.5q81 0 150.5 -29.5t121 -81t81 -122.5t29.5 -155q0 -83 -29.5 -154t-81 -123t-121 -81t-150.5 -29zM452 24q72 0 132.5 26t105 72t69.5 109.5t25 137.5
q0 75 -25 138.5t-69.5 110t-105 72.5t-132.5 26q-71 0 -131.5 -26t-105 -72.5t-69.5 -110t-25 -138.5q0 -74 25 -137.5t69.5 -109.5t105 -72t131.5 -26zM309 582h184q36 0 63.5 -10.5t44.5 -29.5q35 -37 35 -93q0 -60 -36.5 -95.5t-103.5 -35.5h-108v-160h-79v424zM388 380
h94q37 0 56 18t19 49q0 33 -19 51t-54 18h-96v-136z" />
    <glyph glyph-name="lozenge" unicode="&#x25ca;" horiz-adv-x="584" 
d="M555 371l-209 -371h-107l-210 373l209 371h107zM233 189q16 -29 26.5 -51.5t18.5 -39.5q8 -19 14 -34h2q5 15 13 34q13 31 45 91l98 179l-100 186q-16 29 -27 51.5t-18 39.5q-9 19 -14 34h-2q-5 -15 -13 -34q-7 -17 -18 -39.5t-27 -51.5l-98 -179z" />
    <glyph glyph-name="uniF001" unicode="&#xf001;" horiz-adv-x="556" 
d="M162 537l19 95q12 61 51 90q38 28 101 28q34 0 65 -7l-13 -72q-32 2 -52.5 1t-33 -6.5t-19.5 -16t-10 -27.5l-17 -85h105l-14 -71h-105l-90 -466h-91l90 466h-78l15 71h77zM452 537h91l-104 -537h-92zM469 636l21 108h95l-21 -108h-95z" />
    <glyph glyph-name="uniF002" unicode="&#xf002;" horiz-adv-x="559" 
d="M181 632q7 35 22 58.5t38 37.5q35 22 91 22q34 0 66 -7l-13 -72q-32 2 -52.5 1t-33 -6.5t-19.5 -16t-10 -27.5l-17 -85h105l-14 -71h-105l-90 -466h-91l90 466h-78l15 71h77zM492 744h92l-145 -744h-92z" />
    <glyph glyph-name="uniF8FF" unicode="&#xf8ff;" horiz-adv-x="880" 
d="M68 745h745v-745h-745v745zM190 299h175v-176h150v176h175v149h-175v170h-150v-170h-175v-149z" />
    <glyph glyph-name="glyph326" horiz-adv-x="224" 
d="M-48 -170q-14 0 -26.5 1.5t-23.5 3.5l15 74h2q8 -2 13 -2.5t12 -0.5q29 0 44 12t20 40l113 579h91l-114 -584q-8 -39 -21.5 -63t-32.5 -37.5t-42 -18t-50 -4.5z" />
    <glyph glyph-name="glyph336" horiz-adv-x="532" 
d="M257 -147q-10 -51 -42 -73.5t-85 -24.5l8 43q29 4 45 16.5t21 38.5h-53l19 96h106z" />
    <glyph glyph-name="zero.dnom" horiz-adv-x="445" 
d="M166 -120q-41 0 -72 14t-52 38.5t-31.5 59t-10.5 76.5q0 57 15.5 110t44.5 93t70 64t91 24q78 0 120 -50.5t42 -135.5q0 -58 -14.5 -111t-42.5 -93.5t-68 -64.5t-92 -24zM167 -57q34 0 59.5 21t43 54t26 74.5t8.5 82.5q0 56 -20.5 89t-65.5 33q-33 0 -58.5 -21t-43 -54.5
t-27 -75t-9.5 -81.5q0 -57 21 -89.5t66 -32.5z" />
    <glyph glyph-name="one.dnom" horiz-adv-x="278" 
d="M116 216h-106l11 52q49 2 84.5 20t53.5 64h61l-90 -462h-78z" />
    <glyph glyph-name="two.dnom" horiz-adv-x="399" 
d="M-45 -110q8 48 27.5 80t45.5 55q34 29 74 50.5t77 41.5q43 22 68.5 46t25.5 65q0 29 -18.5 47.5t-51.5 18.5q-39 0 -63 -20q-14 -13 -24 -31.5t-15 -47.5h-78q7 44 21.5 72t38.5 48q22 19 53 31t71 12q71 0 109 -36t38 -90q0 -32 -9.5 -55.5t-26 -42t-39 -33.5t-49.5 -30
q-19 -11 -40.5 -22t-42.5 -23t-40 -25t-32 -29q-7 -8 -8 -14h229l-13 -68h-328v0z" />
    <glyph glyph-name="three.dnom" horiz-adv-x="417" 
d="M160 -120q-44 0 -78 12t-57 35t-32.5 54t-7.5 63h75q-2 -43 22.5 -73t79.5 -30q42 0 68 22.5t26 64.5q0 32 -21.5 54.5t-61.5 22.5h-31l11 56h25q101 0 101 73q0 29 -18.5 48t-53.5 19q-42 0 -68.5 -25.5t-31.5 -68.5h-76q9 72 56.5 112t122.5 40q31 0 58.5 -8t47 -23.5
t31 -37.5t11.5 -50q0 -43 -26.5 -70.5t-68.5 -38.5v-2q35 -11 54.5 -39.5t19.5 -63.5q0 -36 -14 -63.5t-38 -45.5t-56 -27.5t-69 -9.5z" />
    <glyph glyph-name="four.dnom" horiz-adv-x="415" 
d="M190 -2h-216l14 70l276 286h72l-58 -296h70l-11 -60h-71l-21 -108h-76zM46 55q12 0 24 1q11 1 24 1.5t27 0.5h81l24 121q3 16 6.5 31t6.5 27q4 14 8 27h-2q-8 -11 -18 -22q-8 -10 -18.5 -22t-21.5 -24l-71 -74q-11 -11 -23 -22.5t-23 -20.5q-12 -11 -24 -21v-3z" />
    <glyph glyph-name="five.dnom" horiz-adv-x="405" 
d="M146 -120q-39 0 -69.5 11t-52 30t-33.5 43t-13 51h78q3 -29 24.5 -50t65.5 -21t72.5 30.5t28.5 81.5q0 36 -20 60t-58 24q-29 0 -52.5 -12t-37.5 -31h-73l84 251h260l-11 -66h-204l-40 -118h3q17 17 40.5 26.5t54.5 9.5q26 0 50.5 -9t43 -27t30 -44.5t11.5 -61.5
q0 -41 -13.5 -73.5t-38 -56t-58 -36t-72.5 -12.5z" />
    <glyph glyph-name="six.dnom" horiz-adv-x="417" 
d="M159 -120q-38 0 -66.5 12t-49.5 32q-23 22 -34 55.5t-11 77.5q0 36 6 73t18 70.5t29.5 62t40.5 49.5q26 23 56.5 35t69.5 12q34 0 60 -9.5t43.5 -26t26.5 -37.5t10 -44h-75q-2 23 -17.5 40.5t-50.5 17.5q-49 0 -82.5 -42t-50.5 -114h2q24 26 52.5 39t63.5 13
q29 0 54.5 -10.5t44 -29t29 -44.5t10.5 -56q0 -36 -13.5 -68t-37 -56t-56.5 -38t-72 -14zM159 -60q24 0 43 9t32.5 24.5t21 36.5t7.5 44q0 38 -23.5 61t-60.5 23q-48 0 -78 -31t-30 -78q0 -41 24 -65t64 -24z" />
    <glyph glyph-name="seven.dnom" horiz-adv-x="371" 
d="M23 -110q12 61 37 119.5t58.5 110t73 93.5t80.5 71v2q-13 -1 -27 -2q-12 -1 -28.5 -1.5t-34.5 -0.5h-151l13 67h319l-11 -60q-39 -31 -78 -73t-72.5 -93t-58.5 -110t-36 -123h-84v0z" />
    <glyph glyph-name="eight.dnom" horiz-adv-x="419" 
d="M161 -121q-36 0 -68.5 9t-56.5 26.5t-38.5 42.5t-14.5 58q0 56 33.5 87.5t82.5 43.5v2q-25 13 -39.5 35t-14.5 51q0 27 12 50t33.5 39.5t51.5 26t67 9.5q69 0 111 -31.5t42 -85.5q0 -40 -22.5 -68.5t-66.5 -40.5v-1q32 -14 51 -42t19 -63q0 -36 -14 -63.5t-38 -46
t-57.5 -28.5t-72.5 -10zM201 163q38 0 61.5 20.5t23.5 53.5q0 29 -21 46.5t-58 17.5q-39 0 -63 -19.5t-24 -52.5q0 -30 22.5 -48t58.5 -18zM161 -60q51 0 76.5 26t25.5 65q0 35 -25.5 58t-70.5 23q-51 0 -77 -26t-26 -67q0 -36 25.5 -57.5t71.5 -21.5z" />
    <glyph glyph-name="nine.dnom" horiz-adv-x="420" 
d="M137 -121q-36 0 -63.5 10t-46 27t-29 39.5t-12.5 47.5h76q3 -24 19.5 -44t56.5 -20q27 0 48 12t37 33t27.5 49t19.5 60h-2q-22 -24 -50 -37.5t-62 -13.5q-31 0 -57 11t-44.5 30.5t-29 45.5t-10.5 56q0 36 13.5 67.5t37.5 55t58 37.5t75 14q37 0 65.5 -11.5t47.5 -29.5
q23 -22 35 -52.5t12 -72.5q0 -40 -7 -81t-21 -78.5t-34.5 -68.5t-47.5 -50q-47 -36 -112 -36zM174 100q48 0 79 31t31 80q0 40 -24.5 64t-63.5 24q-48 0 -77 -31.5t-29 -79.5q0 -40 22.5 -64t61.5 -24z" />
    <glyph glyph-name="zero.numr" horiz-adv-x="445" 
d="M243 275q-41 0 -72 14t-52 38.5t-31.5 59t-10.5 76.5q0 57 15.5 110t44.5 93t70 64t91 24q78 0 120 -50.5t42 -135.5q0 -58 -14.5 -111t-42.5 -93.5t-68 -64.5t-92 -24zM244 338q34 0 59.5 21t43 54t26 74.5t8.5 82.5q0 56 -20.5 89t-65.5 33q-33 0 -58.5 -21t-43 -54.5
t-27 -75t-9.5 -81.5q0 -57 21 -89.5t66 -32.5z" />
    <glyph glyph-name="one.numr" horiz-adv-x="278" 
d="M187 611h-106l11 52q49 2 84.5 20t53.5 64h61l-90 -462h-78z" />
    <glyph glyph-name="two.numr" horiz-adv-x="399" 
d="M32 285q8 48 27.5 80t45.5 55q34 29 74 50.5t77 41.5q43 22 68.5 46t25.5 65q0 29 -18.5 47.5t-51.5 18.5q-39 0 -63 -20q-14 -13 -24 -31.5t-15 -47.5h-78q7 44 21.5 72t38.5 48q22 19 53 31t71 12q71 0 109 -36t38 -90q0 -32 -9.5 -55.5t-26 -42t-39 -33.5t-49.5 -30
q-19 -11 -40.5 -22t-42.5 -23t-40 -25t-32 -29q-7 -8 -8 -14h229l-13 -68h-328v0z" />
    <glyph glyph-name="three.numr" horiz-adv-x="417" 
d="M237 275q-44 0 -78 12t-57 35t-32.5 54t-7.5 63h75q-2 -43 22.5 -73t79.5 -30q42 0 68 22.5t26 64.5q0 32 -21.5 54.5t-61.5 22.5h-31l11 56h25q101 0 101 73q0 29 -18.5 48t-53.5 19q-42 0 -68.5 -25.5t-31.5 -68.5h-76q9 72 56.5 112t122.5 40q31 0 58.5 -8t47 -23.5
t31 -37.5t11.5 -50q0 -43 -26.5 -70.5t-68.5 -38.5v-2q35 -11 54.5 -39.5t19.5 -63.5q0 -36 -14 -63.5t-38 -45.5t-56 -27.5t-69 -9.5z" />
    <glyph glyph-name="four.numr" horiz-adv-x="415" 
d="M267 393h-216l14 70l276 286h72l-58 -296h70l-11 -60h-71l-21 -108h-76zM123 450q12 0 24 1q11 1 24 1.5t27 0.5h81l24 121q3 16 6.5 31t6.5 27q4 14 8 27h-2q-8 -11 -18 -22q-8 -10 -18.5 -22t-21.5 -24l-71 -74q-11 -11 -23 -22.5t-23 -20.5q-12 -11 -24 -21v-3z" />
    <glyph glyph-name="five.numr" horiz-adv-x="405" 
d="M223 275q-39 0 -69.5 11t-52 30t-33.5 43t-13 51h78q3 -29 24.5 -50t65.5 -21t72.5 30.5t28.5 81.5q0 36 -20 60t-58 24q-29 0 -52.5 -12t-37.5 -31h-73l84 251h260l-11 -66h-204l-40 -118h3q17 17 40.5 26.5t54.5 9.5q26 0 50.5 -9t43 -27t30 -44.5t11.5 -61.5
q0 -41 -13.5 -73.5t-38 -56t-58 -36t-72.5 -12.5z" />
    <glyph glyph-name="six.numr" horiz-adv-x="417" 
d="M236 275q-38 0 -66.5 12t-49.5 32q-23 22 -34 55.5t-11 77.5q0 36 6 73t18 70.5t29.5 62t40.5 49.5q26 23 56.5 35t69.5 12q34 0 60 -9.5t43.5 -26t26.5 -37.5t10 -44h-75q-2 23 -17.5 40.5t-50.5 17.5q-49 0 -82.5 -42t-50.5 -114h2q24 26 52.5 39t63.5 13
q29 0 54.5 -10.5t44 -29t29 -44.5t10.5 -56q0 -36 -13.5 -68t-37 -56t-56.5 -38t-72 -14zM236 335q24 0 43 9t32.5 24.5t21 36.5t7.5 44q0 38 -23.5 61t-60.5 23q-48 0 -78 -31t-30 -78q0 -41 24 -65t64 -24z" />
    <glyph glyph-name="seven.numr" horiz-adv-x="371" 
d="M100 285q12 61 37 119.5t58.5 110t73 93.5t80.5 71v2q-13 -1 -27 -2q-12 -1 -28.5 -1.5t-34.5 -0.5h-151l13 67h319l-11 -60q-39 -31 -78 -73t-72.5 -93t-58.5 -110t-36 -123h-84v0z" />
    <glyph glyph-name="eight.numr" horiz-adv-x="419" 
d="M238 274q-36 0 -68.5 9t-56.5 26.5t-38.5 42.5t-14.5 58q0 56 33.5 87.5t82.5 43.5v2q-25 13 -39.5 35t-14.5 51q0 27 12 50t33.5 39.5t51.5 26t67 9.5q69 0 111 -31.5t42 -85.5q0 -40 -22.5 -68.5t-66.5 -40.5v-1q32 -14 51 -42t19 -63q0 -36 -14 -63.5t-38 -46
t-57.5 -28.5t-72.5 -10zM278 558q38 0 61.5 20.5t23.5 53.5q0 29 -21 46.5t-58 17.5q-39 0 -63 -19.5t-24 -52.5q0 -30 22.5 -48t58.5 -18zM238 335q51 0 76.5 26t25.5 65q0 35 -25.5 58t-70.5 23q-51 0 -77 -26t-26 -67q0 -36 25.5 -57.5t71.5 -21.5z" />
    <glyph glyph-name="nine.numr" horiz-adv-x="420" 
d="M214 274q-36 0 -63.5 10t-46 27t-29 39.5t-12.5 47.5h76q3 -24 19.5 -44t56.5 -20q27 0 48 12t37 33t27.5 49t19.5 60h-2q-22 -24 -50 -37.5t-62 -13.5q-31 0 -57 11t-44.5 30.5t-29 45.5t-10.5 56q0 36 13.5 67.5t37.5 55t58 37.5t75 14q37 0 65.5 -11.5t47.5 -29.5
q23 -22 35 -52.5t12 -72.5q0 -40 -7 -81t-21 -78.5t-34.5 -68.5t-47.5 -50q-47 -36 -112 -36zM251 495q48 0 79 31t31 80q0 40 -24.5 64t-63.5 24q-48 0 -77 -31.5t-29 -79.5q0 -40 22.5 -64t61.5 -24z" />
    <glyph glyph-name="acute.aalt" horiz-adv-x="532" 
d="M374 910h114l-106 -125h-79z" />
    <glyph glyph-name="breve.aalt" horiz-adv-x="532" 
d="M380 780q-29 0 -52.5 9t-40 25.5t-25 40.5t-6.5 53h63q2 -28 16 -44.5t46 -16.5q31 0 50.5 16.5t27.5 44.5h66q-12 -57 -50 -92.5t-95 -35.5z" />
    <glyph glyph-name="glyph432" horiz-adv-x="492" 
d="M374 655q-9 -48 -41.5 -72t-77.5 -26l8 44q26 4 39.5 16t18.5 38h-45l17 89h98z" />
    <glyph glyph-name="glyph433" horiz-adv-x="532" 
d="M399 785h-101l-76 113h92l41 -62h2l67 62h96z" />
    <glyph glyph-name="circumflex.aalt" horiz-adv-x="532" 
d="M321 898h101l76 -113h-92l-41 62h-2l-67 -62h-96z" />
    <glyph glyph-name="glyph435" horiz-adv-x="532" 
d="M257 -147q-10 -51 -42 -73.5t-85 -24.5l8 43q29 4 45 16.5t21 38.5h-53l19 96h106z" />
    <glyph glyph-name="dieresis.aalt" horiz-adv-x="532" 
d="M422 892h91l-21 -107h-91zM227 892h90l-21 -107h-90z" />
    <glyph glyph-name="dotaccent.aalt" horiz-adv-x="532" 
d="M323 893h95l-21 -108h-95z" />
    <glyph glyph-name="grave.aalt" horiz-adv-x="532" 
d="M251 910h107l39 -125h-73z" />
    <glyph glyph-name="hungarumlaut.aalt" horiz-adv-x="532" 
d="M421 910h91l-73 -125h-68zM280 910h91l-73 -125h-68z" />
    <glyph glyph-name="macron.aalt" horiz-adv-x="532" 
d="M226 868h281l-15 -73h-281z" />
    <glyph glyph-name="ring.aalt" horiz-adv-x="545" 
d="M364 768q-21 0 -39.5 7.5t-32.5 21t-22 32t-8 39.5t8 39t22 31.5t32.5 21t39.5 7.5t40 -7.5t33 -21t22 -31.5t8 -39t-8 -39.5t-22 -32t-33 -21t-40 -7.5zM364 809q25 0 40.5 16.5t15.5 42.5q0 25 -15.5 41.5t-40.5 16.5q-24 0 -39.5 -16.5t-15.5 -41.5q0 -26 15.5 -42.5
t39.5 -16.5z" />
    <glyph glyph-name="tilde.aalt" horiz-adv-x="532" 
d="M418 786q-20 0 -37 6.5t-31.5 14t-27.5 14t-23 6.5q-12 0 -21 -10t-11 -30h-64q5 54 31 80.5t63 26.5q21 0 37 -6.5t29.5 -14t26.5 -14t27 -6.5q28 0 31 39h65q-5 -52 -29.5 -79t-65.5 -27z" />
    <glyph glyph-name="glyph445" horiz-adv-x="647" 
d="M128 744h580l-16 -86h-241l-128 -658h-100l128 658h-240zM297 -147q-10 -51 -42 -73.5t-85 -24.5l8 43q29 4 45 16.5t21 38.5h-53l19 96h106z" />
    <glyph glyph-name="glyph447" horiz-adv-x="224" 
d="M121 537h91l-105 -537h-91zM159 744h95l-21 -108h-95z" />
    <glyph glyph-name="glyph450" horiz-adv-x="352" 
d="M87 537h83l33 170h90l-33 -170h100l-15 -71h-99l-66 -336q-6 -32 6.5 -45t38.5 -13q12 0 24 1.5t19 3.5h3l-14 -75q-14 -2 -29 -3.5t-35 -1.5q-55 0 -86 31t-19 91l68 347h-83zM177 -147q-10 -51 -42 -73.5t-85 -24.5l8 43q29 4 45 16.5t21 38.5h-53l19 96h106z" />
    <glyph glyph-name="glyph451" horiz-adv-x="492" 
d="M221 -147q-10 -51 -42 -73.5t-85 -24.5l8 43q29 4 45 16.5t21 38.5h-53l19 96h106z" />
    <glyph glyph-name="glyph452" horiz-adv-x="500" 
d="M305 732q10 51 42 73.5t85 24.5l-8 -43q-29 -4 -45 -16.5t-21 -38.5h53l-19 -96h-106z" />
    <glyph glyph-name="R.aalt" horiz-adv-x="688" 
d="M386 308h-198l-60 -308h-101l145 744h291q100 0 156 -54q26 -24 40.5 -59t14.5 -76t-10.5 -79t-33.5 -70t-58.5 -55.5t-85.5 -34.5l125 -316h-110zM204 388h201q86 0 128 44.5t42 120.5q0 51 -32.5 78.5t-92.5 27.5h-193z" />
    <glyph glyph-name="Racute.aalt" horiz-adv-x="688" 
d="M386 308h-198l-60 -308h-101l145 744h291q100 0 156 -54q26 -24 40.5 -59t14.5 -76t-10.5 -79t-33.5 -70t-58.5 -55.5t-85.5 -34.5l125 -316h-110zM204 388h201q86 0 128 44.5t42 120.5q0 51 -32.5 78.5t-92.5 27.5h-193zM446 910h114l-106 -125h-79z" />
    <glyph glyph-name="Rcaron.aalt" horiz-adv-x="688" 
d="M386 308h-198l-60 -308h-101l145 744h291q100 0 156 -54q26 -24 40.5 -59t14.5 -76t-10.5 -79t-33.5 -70t-58.5 -55.5t-85.5 -34.5l125 -316h-110zM204 388h201q86 0 128 44.5t42 120.5q0 51 -32.5 78.5t-92.5 27.5h-193zM470 785h-101l-76 113h92l41 -62h2l67 62h96z
" />
    <glyph glyph-name="uni0156.aalt" horiz-adv-x="688" 
d="M386 308h-198l-60 -308h-101l145 744h291q100 0 156 -54q26 -24 40.5 -59t14.5 -76t-10.5 -79t-33.5 -70t-58.5 -55.5t-85.5 -34.5l125 -316h-110zM204 388h201q86 0 128 44.5t42 120.5q0 51 -32.5 78.5t-92.5 27.5h-193zM327 -147q-10 -51 -42 -73.5t-85 -24.5l8 43
q29 4 45 16.5t21 38.5h-53l19 96h106z" />
    <glyph glyph-name="Ccedilla.aalt" horiz-adv-x="745" 
d="M275 -86l15 79q-53 12 -95 39.5t-71.5 67.5t-45 92t-15.5 114q0 94 30 177t83 144.5t125.5 97t158.5 35.5q68 0 119 -19t86 -51q35 -33 54 -77t21 -95h-98q-5 70 -52 114t-135 44q-64 0 -117 -29.5t-91 -79.5t-59 -117.5t-21 -142.5q0 -112 53 -175t157 -63q46 0 84 16
t67 43t49 63t30 77h100q-15 -66 -43 -118t-79 -95q-37 -31 -86 -49t-104 -21l-14 -71q-10 -51 -42 -73.5t-85 -24.5l8 43q29 4 45 16.5t21 38.5h-53z" />
    <glyph glyph-name="Scedilla.aalt" horiz-adv-x="662" 
d="M611 203q0 -47 -18.5 -86t-53 -68.5t-83 -46.5t-108.5 -18l-14 -70q-10 -51 -42 -73.5t-85 -24.5l8 43q29 4 45 16.5t21 38.5h-53l15 80q-54 11 -94 35t-67 56.5t-40.5 72t-14.5 83.5h101q5 -84 57 -131t155 -47q78 0 122.5 37t44.5 101q0 28 -10.5 49t-33 37.5t-57.5 32
t-84 33.5q-42 16 -78.5 33.5t-63 41t-41.5 55.5t-15 76q0 45 17 81.5t48.5 63t77.5 41t103 14.5q68 0 117.5 -18t82.5 -48t50 -70t20 -85h-96q-5 62 -49.5 103t-126.5 41q-69 0 -107 -31.5t-38 -86.5q0 -24 9 -42t28 -33t49.5 -28.5t72.5 -29.5q49 -18 91 -37t72.5 -44.5
t48 -60.5t17.5 -86z" />
    <glyph glyph-name="ccedilla.aalt" horiz-adv-x="552" 
d="M165 -86l16 80q-73 20 -112 77t-39 138q0 70 21 132t59.5 108.5t93 73.5t121.5 27q52 0 90 -15t63 -40.5t37.5 -60t13.5 -72.5h-89q-1 51 -30.5 82.5t-92.5 31.5q-48 0 -84 -23.5t-61 -62t-37.5 -87t-12.5 -97.5q0 -69 32.5 -108t99.5 -39q59 0 101 33.5t61 97.5h90
q-23 -91 -81.5 -143t-139.5 -60l-14 -73q-10 -51 -42 -73.5t-85 -24.5l8 43q29 4 45 16.5t21 38.5h-53z" />
    <glyph glyph-name="scedilla.aalt" horiz-adv-x="523" 
d="M160 -86l15 78q-81 14 -120 59.5t-44 112.5h93q5 -59 43.5 -82.5t99.5 -23.5q64 0 91.5 27t27.5 64q0 32 -28.5 52.5t-92.5 40.5q-38 12 -68.5 24t-53 29.5t-35 41t-13.5 58.5q-1 33 12.5 61.5t39 49t62.5 32.5t84 12q104 0 155.5 -44t53.5 -113h-92q-2 87 -117 87
q-56 0 -80.5 -20.5t-24.5 -54.5t31.5 -51.5t94.5 -37.5q33 -11 63 -23.5t52.5 -31.5t36 -45t14.5 -62q0 -35 -12.5 -63.5t-36 -50t-57 -35t-74.5 -17.5l-14 -74q-10 -51 -42 -73.5t-85 -24.5l8 43q29 4 45 16.5t21 38.5h-53z" />
    <glyph glyph-name="hyphen.aalt" horiz-adv-x="388" 
d="M70 378h295l-19 -96h-295z" />
    <glyph glyph-name="endash.aalt" horiz-adv-x="500" 
d="M70 370h404l-15 -80h-404z" />
    <glyph glyph-name="emdash.aalt" horiz-adv-x="1000" 
d="M121 370h803l-15 -80h-803z" />
    <glyph glyph-name="questiondown.aalt" horiz-adv-x="538" 
d="M327 744h106l-21 -110h-107zM237 -14q-52 0 -92.5 14t-68 38.5t-42 57.5t-14.5 70q0 38 12.5 67.5t32 53t44 42t49.5 33.5q48 29 73.5 49t39.5 44q9 14 14 31.5t10 40.5h85q-8 -43 -18.5 -72.5t-26 -52t-38.5 -41t-56 -40.5l-44 -28t-39.5 -31t-28.5 -39.5t-11 -53.5
q0 -21 7.5 -39.5t22.5 -33t38 -23t55 -8.5q69 0 114.5 41t56.5 121h92q-7 -55 -28 -99.5t-55 -76t-80 -48.5t-104 -17z" />
    <glyph glyph-name="exclamdown.aalt" horiz-adv-x="261" 
d="M77 236l84 292h49l-35 -298l-44 -230h-100zM172 744h107l-21 -110h-108z" />
    <glyph glyph-name="parenleft.aalt" horiz-adv-x="334" 
d="M181 -94q-41 78 -65 166t-24 188q0 93 19 173t52.5 148.5t79.5 126.5t100 107h80q-55 -59 -98 -122t-72.5 -133.5t-45 -151t-15.5 -173.5q0 -183 62 -329h-73v0z" />
    <glyph glyph-name="parenright.aalt" horiz-adv-x="334" 
d="M-49 -94q55 59 98 122t72.5 133.5t45 151t15.5 173.5q0 183 -62 329h73q41 -78 65 -166t24 -188q0 -93 -19 -173t-52.5 -148.5t-79.5 -126.5t-100 -107h-80v0z" />
    <glyph glyph-name="bracketleft.aalt" horiz-adv-x="353" 
d="M194 815h227l-14 -72h-133l-148 -761h133l-15 -76h-226z" />
    <glyph glyph-name="bracketright.aalt" horiz-adv-x="353" 
d="M-13 -18h132l148 761h-132l13 72h226l-176 -909h-226z" />
    <glyph glyph-name="braceleft.aalt" horiz-adv-x="353" 
d="M226 -94q-93 0 -128 41.5t-17 132.5l34 177q8 37 -7 56t-59 21l15 75q44 2 64.5 14t28.5 50l39 201q15 77 53.5 109t114.5 32h57l-13 -72h-40q-36 0 -54.5 -18t-27.5 -65l-39 -204q-9 -42 -28 -62.5t-53 -30.5v-3q29 -11 40 -35.5t2 -69.5l-37 -189q-10 -50 6 -67t57 -17
h26l-15 -76h-19v0z" />
    <glyph glyph-name="braceright.aalt" horiz-adv-x="353" 
d="M-14 -22h40q36 0 54.5 18t27.5 65l41 211q8 43 27 63.5t53 29.5v3q-29 12 -39 36t-2 69l35 182q10 50 -6 67t-57 17h-26l15 76h19q93 0 128 -41.5t17 -132.5l-33 -169q-8 -38 7 -57t59 -21l-15 -74q-44 -2 -64.5 -14t-28.5 -50l-40 -209q-15 -77 -53.5 -109t-114.5 -32
h-57z" />
    <glyph glyph-name="guillemotleft.aalt" horiz-adv-x="510" 
d="M84 288l20 97l176 146l-22 -112l-109 -90v-2l73 -93l-20 -100zM289 288l20 97l176 146l-22 -112l-109 -90v-2l73 -93l-20 -100z" />
    <glyph glyph-name="guillemotright.aalt" horiz-adv-x="510" 
d="M454 377l-20 -97l-176 -146l22 112l109 90v2l-73 93l20 100zM249 377l-20 -97l-176 -146l22 112l109 90v2l-73 93l20 100z" />
    <glyph glyph-name="guilsinglleft.aalt" horiz-adv-x="319" 
d="M83 288l20 97l190 147l-22 -111l-122 -91v-2l86 -94l-20 -101z" />
    <glyph glyph-name="guilsinglright.aalt" horiz-adv-x="319" 
d="M263 377l-20 -97l-190 -147l22 111l122 91v2l-86 94l20 101z" />
    <glyph glyph-name="registered.aalt" horiz-adv-x="863" 
d="M452 -18q-80 0 -149.5 29t-120.5 81t-80.5 123t-29.5 154q0 84 29.5 155t80.5 122.5t120.5 81t149.5 29.5t150 -29.5t121.5 -81t81 -122.5t29.5 -155q0 -83 -29.5 -154t-81 -123t-121.5 -81t-150 -29zM452 24q71 0 132 26t105.5 72t69.5 109.5t25 137.5q0 75 -25 138.5
t-69.5 110t-105.5 72.5t-132 26t-131.5 -26t-105 -72.5t-70 -110t-25.5 -138.5q0 -74 25.5 -137.5t70 -109.5t105 -72t131.5 -26zM293 584h199q60 0 98.5 -31.5t38.5 -87.5q0 -38 -18.5 -64.5t-60.5 -39.5v-2q35 -10 49 -31t18 -61q5 -47 8 -71t11 -29v-6h-80q-7 5 -9 30
t-7 67q-3 38 -21.5 54.5t-57.5 16.5h-89v-168h-79v423zM372 389h102q38 0 56.5 18t18.5 47q0 32 -17 49t-55 17h-105v-131z" />
    <glyph glyph-name="dollar.case" horiz-adv-x="632" 
d="M232 0q-51 10 -89.5 31t-64 50.5t-38.5 66t-13 77.5h97q6 -124 123 -149l51 261q-40 13 -73.5 30t-58 40t-38 54t-13.5 72q0 42 16.5 77.5t47 61t74.5 40t98 14.5h11.5t11.5 -1l14 72h59l-16 -79q81 -18 124.5 -67.5t46.5 -113.5h-91q-2 39 -27 66t-67 40l-46 -235
q44 -14 81.5 -31t65 -41.5t43 -58t15.5 -79.5q0 -45 -19 -82.5t-53.5 -64.5t-82.5 -42.5t-106 -15.5h-13t-12 1l-20 -104h-59zM477 196q0 23 -6.5 40.5t-20.5 31.5t-38 26.5t-58 24.5l-49 -250h11q72 0 116.5 33.5t44.5 93.5zM209 539q0 -39 24 -64.5t82 -47.5l44 225h-11
q-66 0 -102 -31t-37 -82z" />
    <glyph glyph-name="Euro.case" horiz-adv-x="649" 
d="M69 452h55q19 63 49.5 114.5t71 87.5t89.5 55.5t104 19.5q51 0 89.5 -16t65 -44t42 -65.5t19.5 -80.5h-93q-9 59 -39.5 94t-92.5 35q-36 0 -67.5 -14.5t-57.5 -41t-46.5 -63.5t-34.5 -81h210l-11 -56h-213q-4 -20 -6.5 -40.5t-3.5 -41.5h207l-11 -56h-197
q2 -96 40.5 -145.5t113.5 -49.5q73 0 113.5 43.5t65.5 119.5h92q-13 -54 -36.5 -98.5t-58 -76t-79.5 -49t-102 -17.5q-53 0 -97 17.5t-77 52t-52 85.5t-21 118h-70l12 56h59q1 21 3.5 41.5t6.5 40.5h-54z" />
    <glyph glyph-name="sterling.case" horiz-adv-x="588" 
d="M73 381h66q-7 31 -13 62.5t-6 64.5q0 51 16.5 91.5t47.5 69.5t75 44.5t100 15.5q50 0 93.5 -14.5t74.5 -43.5t47 -73.5t13 -104.5h-95q4 84 -32.5 121.5t-100.5 37.5q-69 0 -105 -38t-36 -107q0 -29 5 -61t10 -65h146l-13 -68h-126q0 -5 0.5 -8.5t0.5 -7.5
q0 -69 -34 -116.5t-98 -90.5l2 -3q15 7 27 12t22.5 7.5t21 3.5t24.5 1q27 0 48 -6.5t39.5 -14t37 -14t40.5 -6.5q32 0 60.5 14t54.5 34l44 -66q-38 -28 -77.5 -46t-87.5 -18q-35 0 -60 8.5t-47 18.5t-44 18.5t-52 8.5q-32 0 -59.5 -14.5t-51.5 -29.5l-43 77q27 17 52.5 39
t46 49t33 58.5t12.5 67.5q0 6 -0.5 12t-1.5 12h-91z" />
    <glyph glyph-name="yen.case" horiz-adv-x="604" 
d="M91 338h167l-149 374h102l57 -159q9 -25 19 -56.5t19 -59.5l20 -66h2l44 66q19 28 40 59.5t40 56.5l118 159h106l-293 -374h171l-11 -55h-184l-16 -83h184l-11 -55h-184l-28 -145h-95l28 145h-185l12 55h184l16 83h-185z" />
    <glyph glyph-name="zero.case" horiz-adv-x="689" 
d="M322 -17q-65 0 -113.5 23t-80.5 63.5t-48.5 96.5t-16.5 123q0 91 24 176t69 151t108.5 106t142.5 40q61 0 108.5 -22t80 -62t49.5 -96.5t17 -125.5q0 -91 -22 -176t-65.5 -151t-107 -106t-145.5 -40zM322 68q60 0 105 34.5t74.5 90.5t44.5 126.5t15 143.5q0 48 -9.5 88
t-29 68.5t-48.5 44.5t-69 16q-57 0 -101.5 -35.5t-75.5 -92t-47 -127t-16 -139.5q0 -49 9 -89t28.5 -68.5t49 -44.5t70.5 -16z" />
    <glyph glyph-name="one.case" horiz-adv-x="412" 
d="M255 536h-172l14 67q38 1 72 9t62.5 25.5t51 44.5t37.5 67h76l-146 -749h-99z" />
    <glyph glyph-name="two.case" horiz-adv-x="618" 
d="M-15 0q15 73 47 125.5t75 90.5q51 45 110 75.5t116 59.5q43 21 77 42t58 45t36.5 53t12.5 67q0 54 -32.5 89.5t-95.5 35.5q-38 0 -62.5 -10t-46.5 -28q-26 -22 -44.5 -58t-27.5 -90h-103q11 74 40 123.5t67 81.5q37 30 83.5 45.5t99.5 15.5q54 0 96 -15.5t71 -42t44 -63
t15 -78.5q0 -62 -19 -104t-52 -73.5t-78.5 -57t-99.5 -52.5q-36 -18 -74 -37.5t-71.5 -41.5t-60 -47.5t-39.5 -55.5v-3h393l-17 -92h-518v0z" />
    <glyph glyph-name="three.case" horiz-adv-x="640" 
d="M307 -17q-75 0 -126 21t-87 57q-35 35 -51 83.5t-13 101.5h96q-2 -40 8 -73.5t33 -58t59 -38t86 -13.5q37 0 68.5 9.5t54 28.5t35.5 47.5t13 65.5q0 65 -39.5 104.5t-111.5 39.5h-53l14 74h43q94 0 138.5 33.5t44.5 99.5q0 53 -36.5 87.5t-95.5 34.5q-76 0 -122.5 -45
t-54.5 -126h-97q7 57 29 102.5t57.5 78t83 49.5t105.5 17q49 0 91.5 -14t73 -39.5t48 -61.5t17.5 -80q0 -35 -12 -64t-32.5 -51t-48 -37.5t-59.5 -24.5v-3q28 -9 50.5 -26t38 -40t23.5 -50t8 -55q0 -56 -22 -99.5t-59.5 -73.5t-88.5 -45.5t-109 -15.5z" />
    <glyph glyph-name="four.case" horiz-adv-x="638" 
d="M370 181h-352l17 89l461 482h84l-97 -492h118l-15 -79h-119l-35 -181h-97zM117 255q20 1 38 2q16 1 34 2t34 1h163l51 259q2 14 6.5 32t9.5 33q5 18 11 36h-2q-12 -16 -25 -31q-11 -14 -24.5 -28.5t-24.5 -26.5l-175 -183q-14 -14 -31 -30t-31 -30q-18 -16 -34 -32v-4z
" />
    <glyph glyph-name="five.case" horiz-adv-x="621" 
d="M281 -17q-62 0 -109.5 19t-80 49.5t-49.5 69t-18 77.5h98q1 -24 11.5 -47t30.5 -41.5t49.5 -29.5t69.5 -11t73.5 14t58 40t38 63.5t13.5 84.5q0 65 -36 107t-105 42q-54 1 -95.5 -21t-67.5 -56h-94l134 402h408l-17 -87h-334l-72 -217h2q29 29 70.5 44.5t89.5 15.5
q46 0 86 -15.5t70 -45t47.5 -72t17.5 -96.5q0 -65 -22 -118.5t-61 -91.5t-92 -58.5t-114 -20.5z" />
    <glyph glyph-name="six.case" horiz-adv-x="641" 
d="M306 -17q-67 0 -113 23t-78 59q-30 35 -42.5 83.5t-12.5 109.5t10 123t28.5 118t46 103.5t63.5 81.5q39 38 88.5 58.5t106.5 20.5q55 0 95 -16.5t66 -43.5t39 -61t15 -69h-96q-2 21 -9.5 40.5t-22.5 35t-38 24.5t-54 9q-88 0 -145.5 -75.5t-85.5 -211.5h2q41 50 90 72.5
t106 22.5q48 0 88.5 -17t70.5 -47t46.5 -71t16.5 -89q0 -56 -21 -107t-58 -90t-89 -62.5t-113 -23.5zM309 62q42 0 76 16.5t58 44.5t36.5 65t12.5 77q0 33 -11 60t-30.5 46.5t-46.5 30t-59 10.5q-44 0 -79.5 -15t-60.5 -41.5t-39 -62t-14 -75.5q0 -72 42.5 -114t114.5 -42z
" />
    <glyph glyph-name="seven.case" horiz-adv-x="571" 
d="M93 0q18 98 60.5 194.5t100 183.5t126.5 159.5t141 122.5v3q-17 -2 -36 -3q-35 -3 -92 -3h-283l17 88h509l-16 -79q-65 -50 -131.5 -119.5t-124 -154.5t-100.5 -184t-62 -208h-109v0z" />
    <glyph glyph-name="eight.case" 
d="M312 -17q-54 0 -105 14t-90.5 41.5t-63 68.5t-23.5 95q0 46 15.5 82t42 63t61.5 44.5t74 26.5v3q-38 20 -63 56t-25 85q0 42 18 78.5t51.5 63.5t81.5 42.5t107 15.5q52 0 95 -13.5t74.5 -38t49 -59t17.5 -75.5q0 -69 -39 -114.5t-108 -63.5v-3q51 -20 82.5 -66t31.5 -106
q0 -57 -21.5 -101.5t-59.5 -75.5t-90 -47t-113 -16zM377 442q69 0 111.5 34.5t42.5 94.5q0 52 -39 82t-104 30q-71 0 -113.5 -32.5t-42.5 -90.5q0 -54 40 -86t105 -32zM311 62q48 0 82.5 13t57 35t33.5 51.5t11 61.5q0 31 -11.5 57.5t-33.5 46.5t-55 31.5t-75 11.5
q-47 0 -82 -12.5t-58.5 -35t-35.5 -52.5t-12 -65q0 -63 47 -103t132 -40z" />
    <glyph glyph-name="nine.case" horiz-adv-x="647" 
d="M272 -17q-57 0 -99 16.5t-70.5 44.5t-43.5 64.5t-17 75.5h96q3 -23 11 -45t23.5 -39t40.5 -27t62 -10t65 12.5t54 33.5q77 65 116 233l-2 1q-38 -43 -85 -66t-104 -23q-51 0 -93 18.5t-72 50.5t-46.5 73.5t-16.5 88.5q0 54 20.5 104.5t58 89t90 61.5t117.5 23
q60 0 106.5 -22t75.5 -51q34 -35 50 -81t16 -109q0 -66 -12 -135t-35.5 -132t-58.5 -115.5t-80 -84.5q-34 -24 -76.5 -37t-90.5 -13zM334 331q44 0 80 15t62 41t40 61t14 76q0 35 -11.5 64.5t-32 50.5t-49.5 33t-64 12q-42 0 -76.5 -15.5t-59 -42t-38 -62.5t-13.5 -76
q0 -71 40.5 -114t107.5 -43z" />
    <glyph glyph-name="percent.case" horiz-adv-x="878" 
d="M673 712h71l-500 -712h-72zM235 316q-37 0 -65.5 12.5t-48 35t-30 53t-10.5 66.5q0 50 14 95t39 78.5t60.5 53.5t78.5 20q37 0 65 -12.5t47 -35t29 -53t10 -66.5q0 -53 -14 -98t-39.5 -78t-60 -52t-75.5 -19zM236 379q26 0 46.5 16t34.5 42.5t21.5 61t7.5 72.5
q0 45 -19 70.5t-56 25.5q-26 0 -46.5 -15t-34.5 -40.5t-21.5 -59.5t-7.5 -71q0 -45 17.5 -73.5t57.5 -28.5zM647 -16q-74 0 -114 47t-40 120q0 50 14 95t39 78.5t60.5 53t78.5 19.5q37 0 65 -12.5t47 -35t29 -52.5t10 -66q0 -53 -14.5 -98t-39.5 -78t-60 -52t-75 -19z
M648 47q26 0 46.5 16t34.5 42t21.5 60.5t7.5 72.5q0 46 -19.5 71.5t-55.5 25.5q-26 0 -46.5 -15t-34.5 -41t-21.5 -60t-7.5 -71q0 -45 17.5 -73t57.5 -28z" />
    <glyph glyph-name="perthousand.case" horiz-adv-x="1264" 
d="M670 712h71l-500 -712h-72zM235 316q-37 0 -65.5 12.5t-48 35t-30 53t-10.5 66.5q0 50 14 95t39 78.5t60.5 53.5t78.5 20q37 0 65 -12.5t47 -35t29 -53t10 -66.5q0 -53 -14 -98t-39.5 -78t-60 -52t-75.5 -19zM236 379q26 0 46.5 16t34.5 42.5t21.5 61t7.5 72.5
q0 45 -19 70.5t-56 25.5q-26 0 -46.5 -15t-34.5 -40.5t-21.5 -59.5t-7.5 -71q0 -45 17.5 -73.5t57.5 -28.5zM641 -16q-74 0 -114 47t-40 120q0 50 14 95t39 78.5t60.5 53t78.5 19.5q37 0 65 -12.5t47 -35t29 -52.5t10 -66q0 -53 -14.5 -98t-39.5 -78t-60 -52t-75 -19z
M642 47q26 0 46.5 16t34.5 42t21.5 60.5t7.5 72.5q0 46 -19.5 71.5t-55.5 25.5q-26 0 -46.5 -15t-34.5 -41t-21.5 -60t-7.5 -71q0 -45 17.5 -73t57.5 -28zM1032 -16q-36 0 -64.5 12.5t-48 34.5t-30 53t-10.5 67q0 50 13.5 95t38.5 78.5t60.5 53t78.5 19.5q37 0 65.5 -12.5
t47.5 -35t28.5 -52.5t9.5 -66q0 -53 -14 -98t-39.5 -78t-60 -52t-75.5 -19zM1034 47q26 0 46.5 16t34.5 42t21.5 60.5t7.5 72.5q0 46 -19.5 71.5t-56.5 25.5q-26 0 -46.5 -15t-34.5 -41t-21.5 -60t-7.5 -71q0 -45 17.5 -73t58.5 -28z" />
    <glyph glyph-name="dollar.tnum" 
d="M241 0q-51 10 -89.5 31t-64 50.5t-38.5 66t-13 77.5h97q6 -124 123 -149l51 261q-40 13 -73.5 30t-58 40t-38 54t-13.5 72q0 42 16.5 77.5t47 61t74.5 40t98 14.5h11.5t11.5 -1l14 72h59l-16 -79q81 -18 124.5 -67.5t46.5 -113.5h-91q-2 39 -27 66t-67 40l-46 -235
q44 -14 81.5 -31t65 -41.5t43 -58t15.5 -79.5q0 -45 -19 -82.5t-53.5 -64.5t-82.5 -42.5t-106 -15.5h-13t-12 1l-20 -104h-59zM486 196q0 23 -6.5 40.5t-20.5 31.5t-38 26.5t-58 24.5l-49 -250h11q72 0 116.5 33.5t44.5 93.5zM218 539q0 -39 24 -64.5t82 -47.5l44 225h-11
q-66 0 -102 -31t-37 -82z" />
    <glyph glyph-name="Euro.tnum" 
d="M79 452h54q17 63 46.5 114t69 87.5t87.5 56t102 19.5q51 0 88.5 -16t63.5 -44t40.5 -65.5t18.5 -80.5h-93q-9 59 -37 94t-90 35q-36 0 -67 -14.5t-56 -41t-44 -63.5t-31 -81h198l-11 -56h-200q-7 -39 -9 -82h193l-11 -56h-183q2 -96 35.5 -145.5t108.5 -49.5
q73 0 112.5 43t62.5 120h92q-13 -54 -35.5 -98t-56.5 -76t-78.5 -49.5t-101.5 -17.5q-105 0 -169.5 69.5t-67.5 203.5h-70l12 56h59q1 21 3.5 41.5t5.5 40.5h-53z" />
    <glyph glyph-name="sterling.tnum" 
d="M104 381h66q-7 31 -13 62.5t-6 64.5q0 51 16.5 91.5t47.5 69.5t75 44.5t100 15.5q50 0 93.5 -14.5t74.5 -43.5t47 -73.5t13 -104.5h-95q4 84 -32.5 121.5t-100.5 37.5q-69 0 -105 -38t-36 -107q0 -29 5 -61t10 -65h146l-13 -68h-126q0 -5 0.5 -8.5t0.5 -7.5
q0 -69 -34 -116.5t-98 -90.5l2 -3q15 7 27 12t22.5 7.5t21 3.5t24.5 1q27 0 48 -6.5t39.5 -14t37 -14t40.5 -6.5q32 0 60.5 14t54.5 34l44 -66q-38 -28 -77.5 -46t-87.5 -18q-35 0 -60 8.5t-47 18.5t-44 18.5t-52 8.5q-32 0 -59.5 -14.5t-51.5 -29.5l-43 77q27 17 52.5 39
t46 49t33 58.5t12.5 67.5q0 6 -0.5 12t-1.5 12h-91z" />
    <glyph glyph-name="yen.tnum" 
d="M114 338h170l-132 374h101l51 -159q8 -27 16.5 -58.5t15.5 -57.5q8 -32 14 -62h2q18 29 37 60q17 26 37 57.5t40 60.5l109 159h108l-279 -374h173l-11 -55h-184l-16 -83h184l-11 -55h-184l-28 -145h-95l28 145h-185l12 55h184l16 83h-185z" />
    <glyph glyph-name="cent.aalt" 
d="M252 -12q-42 7 -74 26t-54 48t-33.5 66t-11.5 81q0 68 20 128.5t57 107t89 74.5t116 31l17 85h58l-17 -88q40 -6 69.5 -23.5t49.5 -42t30 -55.5t11 -64h-89q-1 42 -21.5 71.5t-64.5 39.5l-80 -414q51 6 87.5 39.5t53.5 91.5h90q-25 -98 -90 -151t-155 -55l-20 -103h-58z
M171 206q0 -59 23.5 -96.5t72.5 -48.5l80 415q-43 -5 -75.5 -30.5t-55 -63t-34 -83.5t-11.5 -93z" />
    <glyph glyph-name="florin.aalt" 
d="M187 423h109l40 178q18 76 63 105q28 17 67 21.5t90 -2.5l-11 -75q-30 3 -50.5 1.5t-34 -8.5t-21.5 -21t-13 -35l-37 -164h131l-13 -68h-133l-88 -390q-8 -39 -23.5 -64.5t-38.5 -39.5q-25 -16 -58.5 -19t-72.5 3l12 72q37 -4 59.5 6.5t31.5 51.5l85 380h-107z" />
    <glyph glyph-name="currency.aalt" 
d="M350 222q57 0 88 40.5t31 102.5q0 30 -8 56.5t-23 46t-37.5 30.5t-50.5 11q-29 0 -51 -11t-37.5 -30.5t-23.5 -46t-8 -56.5q0 -31 8 -57t23.5 -45t37.5 -30t51 -11zM116 168l69 71q-38 55 -38 126t38 124l-69 71l45 43l67 -69q24 18 54.5 29t67.5 11q36 0 67 -11t55 -29
l67 69l45 -43l-69 -71q37 -54 37 -124q0 -35 -10 -67t-28 -58l70 -72l-45 -43l-68 69q-49 -37 -121 -37t-121 37l-68 -69z" />
    <glyph glyph-name="zero.tnum" 
d="M296 -16q-59 0 -101 20t-70 56t-41 85.5t-13 108.5q0 43 8 95t24.5 105t42.5 103t62 88.5t82.5 61.5t104.5 23q54 0 95 -19.5t69.5 -55t43 -86t14.5 -113.5q0 -45 -7.5 -97t-23.5 -104.5t-41.5 -101.5t-61 -86.5t-82.5 -60t-105 -22.5zM166 245q0 -32 5.5 -64.5t20.5 -59
t40.5 -43.5t66.5 -17q43 0 76 21t57.5 55t41.5 78t27.5 89t15 88.5t4.5 77.5q0 84 -30.5 133t-97.5 49q-43 0 -76.5 -21t-58.5 -55t-42.5 -77.5t-28.5 -88.5t-16 -88.5t-5 -76.5z" />
    <glyph glyph-name="one.tnum" 
d="M374 503h-192l13 64q100 2 158 36.5t84 113.5h74l-139 -717h-95z" />
    <glyph glyph-name="two.tnum" 
d="M17 0q15 72 45 121t70 85q48 43 104.5 72.5t112.5 56.5q42 20 75 39.5t56 42.5t35 51.5t12 66.5q0 51 -33 85t-90 34q-36 0 -60.5 -9t-45.5 -27q-25 -20 -42.5 -55t-26.5 -86h-97q11 70 38.5 118t65.5 78q71 57 174 57q51 0 91 -14.5t67.5 -40t42.5 -60.5t15 -75
q0 -59 -19 -99.5t-51.5 -70.5t-76.5 -54t-93 -49q-31 -17 -65 -34t-66 -37.5t-58.5 -46t-41.5 -58.5q0 -1 -0.5 -1.5t-0.5 -2.5h374l-16 -87h-495v0z" />
    <glyph glyph-name="three.tnum" 
d="M307 -16q-63 0 -110.5 19t-82.5 53t-50 80t-10 100h91q-2 -39 6.5 -71t29.5 -55.5t53.5 -36.5t78.5 -13q36 0 66 9t52.5 27.5t35 46.5t12.5 65q0 27 -9.5 52t-28 43.5t-45 29.5t-60.5 11h-51l14 70h41q90 0 132 31.5t42 94.5q0 51 -31.5 84.5t-88.5 33.5q-72 0 -120 -43
t-56 -121h-92q7 54 29 98t57 74.5t81.5 47t101.5 16.5q48 0 87 -13.5t67 -37.5t43.5 -58t15.5 -75q0 -33 -11 -61t-30.5 -50t-46 -37.5t-56.5 -23.5v-3q27 -9 48 -25t35.5 -38t22 -47.5t7.5 -53.5q0 -54 -21 -95.5t-58 -70t-86 -43t-105 -14.5z" />
    <glyph glyph-name="four.tnum" 
d="M379 173h-336l16 85l443 462h79l-93 -472h99l-15 -75h-99l-34 -173h-92zM138 243l36 2q15 1 33 2t33 1h153l47 249q4 14 8.5 30.5t8.5 31t7 24.5t5 11h-1l-24 -30q-11 -13 -23 -27t-23 -25l-169 -177q-13 -14 -28.5 -28.5t-29.5 -28.5q-17 -16 -33 -31v-4z" />
    <glyph glyph-name="five.tnum" 
d="M301 -16q-60 0 -106 18.5t-77.5 47.5t-47.5 66t-15 74h93q1 -23 11 -45.5t29 -40t47.5 -28.5t66.5 -11t70 13.5t55 38.5t36 61t13 81q0 63 -33.5 103.5t-99.5 40.5q-53 0 -92.5 -21.5t-64.5 -53.5h-89l128 385h388l-15 -82h-319l-69 -209h2q29 28 68.5 43t84.5 15
q44 0 82 -15t66.5 -43.5t45 -69.5t16.5 -92q0 -62 -20.5 -113t-57.5 -87t-87 -56t-109 -20z" />
    <glyph glyph-name="six.tnum" 
d="M317 59q41 0 73.5 16t55.5 43t35 62t12 74q0 31 -10.5 57t-29 44.5t-44.5 28.5t-57 10q-42 0 -76 -14.5t-58.5 -39.5t-37.5 -59t-13 -73q0 -69 40.5 -109t109.5 -40zM314 -16q-67 0 -111 21.5t-70 56.5q-29 32 -41.5 79.5t-12.5 104.5q0 59 9.5 118.5t27.5 113t44.5 99.5
t60.5 78q77 75 186 75q53 0 91 -16t63 -41.5t37.5 -58t14.5 -66.5h-91q-1 21 -8.5 40t-22 33.5t-37 23.5t-52.5 9q-84 0 -139 -73.5t-83 -202.5h2q40 47 87 68.5t103 21.5q46 0 84.5 -16.5t66.5 -45t44 -67.5t16 -84q0 -54 -20 -103t-55.5 -86.5t-85 -59.5t-108.5 -22z" />
    <glyph glyph-name="seven.tnum" 
d="M134 0q19 94 60 186.5t96.5 175.5t121.5 152.5t137 117.5v3q-16 -2 -34 -3q-16 -1 -38 -1.5t-49 -0.5h-272l16 83h486l-15 -75q-62 -48 -125.5 -114.5t-118.5 -148t-96.5 -176.5t-59.5 -199h-109z" />
    <glyph glyph-name="eight.tnum" 
d="M317 59q46 0 79 12.5t55 34t32.5 49.5t10.5 59q0 29 -11 55t-32.5 45t-53.5 30t-73 11q-45 0 -78.5 -12.5t-56 -34t-33.5 -50.5t-11 -63q0 -60 45 -98t127 -38zM380 423q66 0 107 33.5t41 90.5q0 50 -37.5 79t-100.5 29q-68 0 -109 -31.5t-41 -87.5q0 -52 38.5 -82.5
t101.5 -30.5zM318 -16q-52 0 -101 13t-86.5 39.5t-60 65.5t-22.5 91q0 44 15 78.5t40.5 60t58.5 42.5t70 26v3q-36 19 -60 53.5t-24 82.5q0 39 17.5 74t49.5 61t77.5 41t102.5 15q49 0 90.5 -13t71.5 -36.5t46.5 -56.5t16.5 -73q0 -66 -37 -109.5t-103 -60.5v-3
q48 -19 79 -63.5t31 -101.5q0 -54 -20.5 -97t-57 -72t-86.5 -44.5t-108 -15.5z" />
    <glyph glyph-name="nine.tnum" 
d="M337 316q42 0 77 14.5t60 39.5t38.5 59.5t13.5 73.5q0 33 -11 61t-31 48.5t-48 31.5t-62 11q-40 0 -73 -14.5t-56.5 -40t-36.5 -59.5t-13 -73q0 -69 39 -110.5t103 -41.5zM278 -16q-54 0 -94.5 16t-67.5 42.5t-41.5 61t-16.5 72.5h91q3 -22 10.5 -43t23 -37t39.5 -26
t59 -10t62 11.5t51 31.5q74 62 113 225l-2 1q-37 -42 -82.5 -63.5t-99.5 -21.5q-49 0 -89 17.5t-68.5 48t-44 70.5t-15.5 85q0 52 19.5 99.5t55 84.5t85.5 59t112 22q58 0 102.5 -20.5t71.5 -49.5q33 -34 48.5 -77.5t15.5 -103.5q0 -63 -11.5 -129.5t-34 -127t-56 -110.5
t-76.5 -80q-68 -48 -160 -48z" />
    <glyph glyph-name="percent.tnum" horiz-adv-x="900" 
d="M694 712h71l-520 -712h-72zM222 316q-37 0 -65.5 12.5t-48 35t-30 53t-10.5 66.5q0 50 14 95t39 78.5t60.5 53.5t78.5 20q37 0 65 -12.5t47 -35t29 -53t10 -66.5q0 -53 -14 -98t-39.5 -78t-60 -52t-75.5 -19zM223 379q26 0 46.5 16t34.5 42.5t21.5 61t7.5 72.5
q0 45 -19 70.5t-56 25.5q-26 0 -46.5 -15t-34.5 -40.5t-21.5 -59.5t-7.5 -71q0 -45 17.5 -73.5t57.5 -28.5zM682 -16q-74 0 -114 47t-40 120q0 50 14 95t39 78.5t60.5 53t78.5 19.5q37 0 65 -12.5t47 -35t29 -52.5t10 -66q0 -53 -14.5 -98t-39.5 -78t-60 -52t-75 -19z
M683 47q26 0 46.5 16t34.5 42t21.5 60.5t7.5 72.5q0 46 -19.5 71.5t-55.5 25.5q-26 0 -46.5 -15t-34.5 -41t-21.5 -60t-7.5 -71q0 -45 17.5 -73t57.5 -28z" />
    <glyph glyph-name="perthousand.tnum" horiz-adv-x="1200" 
d="M214 317q-35 0 -62 12t-45 33.5t-27 51t-9 63.5q0 55 15.5 101.5t41.5 80t60 52t72 18.5q69 0 105.5 -43.5t36.5 -117.5q0 -57 -15 -103t-40.5 -79t-59.5 -51t-73 -18zM218 380q24 0 43.5 15t33.5 41t21.5 61t7.5 76q0 45 -17 69.5t-49 24.5q-24 0 -44 -16t-34.5 -42.5
t-22.5 -61t-8 -72.5q0 -41 16 -68t53 -27zM659 712h71l-520 -712h-72zM608 -15q-35 0 -62 12t-45 33.5t-27 51t-9 63.5q0 55 15.5 101.5t41.5 80t60 52t72 18.5q69 0 105.5 -43.5t36.5 -117.5q0 -57 -15 -103t-40.5 -79t-59.5 -51t-73 -18zM612 48q24 0 43.5 15t33.5 41
t21.5 61t7.5 76q0 45 -17 69.5t-49 24.5q-24 0 -44 -16t-34.5 -42.5t-22.5 -61t-8 -72.5q0 -41 16 -68t53 -27zM982 -15q-35 0 -62 12t-45 33.5t-27 51t-9 63.5q0 55 15.5 101.5t41.5 80t60 52t72 18.5q69 0 105.5 -43.5t36.5 -117.5q0 -57 -15 -103t-40.5 -79t-59.5 -51
t-73 -18zM986 48q24 0 43.5 15t33.5 41t21.5 61t7.5 76q0 45 -17 69.5t-49 24.5q-24 0 -44 -16t-34.5 -42.5t-22.5 -61t-8 -72.5q0 -41 16 -68t53 -27z" />
    <glyph glyph-name="minus.aalt" 
d="M113 375h470l-14 -71h-471z" />
    <glyph glyph-name="multiply.aalt" 
d="M98 169l194 171l-141 172l57 47l139 -170l193 170l45 -50l-195 -172l141 -171l-57 -47l-139 169l-192 -169z" />
    <glyph glyph-name="divide.aalt" 
d="M334 576h107l-21 -109h-107zM113 376h469l-14 -73h-469zM263 211h107l-21 -108h-107z" />
    <glyph glyph-name="plusminus.aalt" 
d="M121 406h196l35 176h76l-35 -176h195l-14 -73h-195l-34 -177h-76l34 177h-196zM57 73h467l-14 -73h-467z" />
    <glyph glyph-name="notequal.aalt" 
d="M129 455h262l85 123h73l-85 -123h134l-14 -73h-170l-78 -113h226l-14 -72h-261l-85 -124h-73l85 124h-135l14 72h170l78 113h-226z" />
    <glyph glyph-name="approxequal.aalt" 
d="M474 359q-31 0 -65.5 6.5t-68 14t-63.5 14t-52 6.5q-43 0 -51 -49h-70q8 60 43 91t84 31q31 0 66 -6.5t68 -14t62 -14t49 -6.5q26 0 39 12.5t17 35.5h71q-8 -55 -40.5 -88t-88.5 -33zM445 177q-31 0 -65.5 6.5t-68 14t-63.5 14t-52 6.5q-43 0 -52 -49h-70q9 60 44 91
t84 31q31 0 66 -6.5t68 -14t62 -14t49 -6.5q26 0 38.5 12.5t16.5 35.5h71q-8 -55 -40 -88t-88 -33z" />
    <glyph glyph-name="lessequal.aalt" 
d="M80 73h417l-14 -73h-417zM121 287l19 97l449 166l-16 -86l-248 -87q-20 -7 -43.5 -14t-43.5 -14q-24 -8 -48 -15v-2q21 -7 42 -15q18 -7 40 -15t42 -16l208 -84l-16 -81z" />
    <glyph glyph-name="greaterequal.aalt" 
d="M487 0h-417l14 73h417zM561 384l-19 -97l-449 -166l16 86l248 87q19 6 43 13.5t44 14.5q24 8 48 15v2q-21 7 -42 15q-18 7 -40 15t-42 16l-208 84l16 81z" />
    <glyph glyph-name="less.aalt" 
d="M582 463l-260 -93q-21 -8 -46 -16t-46 -16q-26 -9 -50 -17v-2q21 -8 43 -17q19 -8 40.5 -16t39.5 -16l223 -92l-16 -81l-404 180l17 93l474 180z" />
    <glyph glyph-name="equal.aalt" 
d="M129 455h469l-14 -73h-469zM93 269h469l-14 -72h-469z" />
    <glyph glyph-name="greater.aalt" 
d="M92 184l260 93q21 8 45.5 16t46.5 16q25 9 50 17v2q-22 8 -44 17q-19 8 -40 16t-39 16l-223 92l16 81l404 -180l-17 -93l-474 -180z" />
    <glyph glyph-name="space.aalt" horiz-adv-x="325" 
 />
    <glyph glyph-name="comma.aalt" horiz-adv-x="325" 
d="M40 -105q11 2 21 6t18 13t14.5 24t11.5 39l4 23h-49l21 110h108l-26 -133q-14 -71 -45.5 -99.5t-86.5 -32.5z" />
    <glyph glyph-name="period.aalt" horiz-adv-x="325" 
d="M81 110h108l-22 -110h-107z" />
    <glyph glyph-name="colon.aalt" horiz-adv-x="325" 
d="M142 426h108l-22 -110h-107zM81 110h108l-22 -110h-107z" />
    <glyph glyph-name="semicolon.aalt" horiz-adv-x="325" 
d="M142 426h108l-22 -110h-107zM40 -105q11 2 21 6t18 13t14.5 24t11.5 39l4 23h-49l21 110h108l-26 -133q-14 -71 -45.5 -99.5t-86.5 -32.5z" />
    </font>
</defs>
</svg>
